osu file format v14

[General]
AudioFilename: Sacrificial.mp3
AudioLeadIn: 0
PreviewTime: 26106
Countdown: 1
SampleSet: None
StackLeniency: 0.7
Mode: 0
LetterboxInBreaks: 0
WidescreenStoryboard: 1

[Editor]
DistanceSpacing: 1.1
BeatDivisor: 4
GridSize: 8
TimelineZoom: 1.1

[Metadata]
Title:Sacrificial
TitleUnicode:Sacrificial
Artist:Danny Baranowsky
ArtistUnicode:Danny Baranowsky
Creator:Blackweb
Version:Hard
Source:The Binding of Isaac
Tags:flash english steam tears kid naked guy edmund afterbirth rebirth soundtrack ost
BeatmapID:893126
BeatmapSetID:411135

[Difficulty]
HPDrainRate:6
CircleSize:3.5
OverallDifficulty:6
ApproachRate:8
SliderMultiplier:1.4
SliderTickRate:1

[Events]
//Background and Video events
0,0,"Isaac background.jpg",0,0
//Break Periods
//Storyboard Layer 0 (Background)
//Storyboard Layer 1 (Fail)
//Storyboard Layer 2 (Pass)
//Storyboard Layer 3 (Foreground)
//Storyboard Sound Samples

[TimingPoints]
82,361.44578313253,3,1,0,40,1,0
12913,-100,3,2,0,40,0,0
22401,-100,3,1,0,40,0,0
22762,-100,3,1,0,45,0,0
23124,-100,3,1,0,50,0,0
23485,-100,3,1,0,55,0,0
23847,-100,3,1,0,60,0,0
24208,-100,3,1,0,65,0,0
24569,-100,3,1,0,70,0,0
24931,-100,3,1,0,75,0,0
26106,-100,3,1,0,75,0,1
52130,-100,3,3,0,40,0,0

[HitObjects]
336,48,82,6,0,P|312:112|320:192,1,140
232,328,985,1,0,0:0:0:0:
184,240,1166,1,0,0:0:0:0:
224,72,1527,1,0,0:0:0:0:
336,248,1889,5,0,0:0:0:0:
296,128,2069,1,0,0:0:0:0:
256,240,2250,1,0,0:0:0:0:
360,176,2431,1,0,0:0:0:0:
232,168,2612,1,4,0:0:0:0:
384,40,3335,6,0,B|408:96|400:152|400:152|432:128,1,140
328,336,4238,1,0,0:0:0:0:
264,256,4419,1,0,0:0:0:0:
280,88,4780,1,0,0:0:0:0:
416,56,5142,1,0,0:0:0:0:
360,200,5322,1,0,0:0:0:0:
360,200,5503,2,0,P|336:272|280:264,1,140
144,144,6226,5,0,0:0:0:0:
184,72,6407,1,0,0:0:0:0:
272,88,6587,1,4,0:0:0:0:
328,216,6949,1,0,0:0:0:0:
328,216,7310,1,0,0:0:0:0:
248,288,7672,5,0,0:0:0:0:
240,120,8033,2,0,L|256:200,1,70
328,216,8395,2,0,L|344:296,1,70
416,232,8757,5,0,0:0:0:0:
496,192,9119,2,0,B|496:112|472:80|472:80|456:112,1,140
416,272,9842,5,0,0:0:0:0:
320,160,10202,1,0,0:0:0:0:
224,272,10563,1,0,0:0:0:0:
312,88,10926,6,0,P|320:160|320:232,2,140
504,56,12010,5,0,0:0:0:0:
360,0,12372,1,0,0:0:0:0:
208,32,12733,1,4,0:0:0:0:
320,104,13094,6,0,P|312:144|272:176,1,70
216,152,13455,1,0,0:0:0:0:
160,96,13636,1,0,0:0:0:0:
88,128,13816,2,0,P|48:184|48:216,1,70
96,248,14178,6,0,L|104:320,1,70
184,296,14539,2,0,L|200:216,2,70
248,336,15081,1,0,0:0:0:0:
304,288,15262,6,0,P|320:256|336:192,1,70
312,152,15624,2,0,L|288:80,1,70
224,128,15985,1,0,0:0:0:0:
216,208,16166,1,0,0:0:0:0:
216,208,16256,1,0,0:0:0:0:
216,208,16347,5,12,0:0:0:0:
144,232,16527,1,0,0:0:0:0:
88,176,16708,2,0,P|64:224|64:264,1,70
88,312,17069,2,0,P|96:368|96:384,1,70
176,328,17431,6,0,B|248:240|320:328|320:328|400:248,1,280
464,176,18515,2,0,P|472:240|464:320,2,140
272,184,19600,1,0,0:0:0:0:
424,48,20142,6,0,P|440:88|440:128,1,70
408,264,20684,1,0,0:0:0:0:
128,360,21407,1,0,0:0:0:0:
128,360,21768,1,4,0:0:0:0:
128,360,22491,5,0,0:0:0:0:
240,248,22853,1,0,0:0:0:0:
136,136,23214,1,0,0:0:0:0:
288,168,23575,1,0,0:0:0:0:
368,40,23937,1,0,0:0:0:0:
424,184,24298,1,0,0:0:0:0:
288,104,24660,1,0,0:0:0:0:
336,248,25021,1,0,0:0:0:0:
192,208,25383,6,0,P|160:176|144:144,1,70
200,96,25744,2,4,P|232:128|248:160,1,70
304,192,26106,5,0,0:0:0:0:
384,184,26286,1,0,0:0:0:0:
464,168,26467,2,0,L|480:240,1,70
424,296,26828,5,0,0:0:0:0:
352,336,27009,1,0,0:0:0:0:
280,296,27190,2,0,L|272:344,2,35
248,216,27551,1,0,0:0:0:0:
192,152,27732,1,0,0:0:0:0:
136,216,27913,2,0,P|104:248|64:264,1,70
48,184,28274,6,0,P|80:152|120:136,1,70
160,80,28636,1,0,0:0:0:0:
160,80,28726,1,0,0:0:0:0:
160,80,28816,1,8,0:0:0:0:
232,120,28997,5,0,0:0:0:0:
304,80,29178,1,0,0:0:0:0:
376,40,29359,2,0,L|408:120,1,70
408,192,29720,2,0,L|432:264,1,70
344,272,30081,1,0,0:0:0:0:
280,216,30262,1,0,0:0:0:0:
240,144,30443,6,0,P|192:144|160:168,2,70
280,216,30985,1,0,0:0:0:0:
280,216,31166,2,0,P|224:224|192:248,1,70
208,312,31527,1,0,0:0:0:0:
120,312,31708,1,0,0:0:0:0:
120,312,31798,1,0,0:0:0:0:
120,312,31889,1,0,0:0:0:0:
144,224,32069,1,0,0:0:0:0:
104,152,32250,2,0,L|176:120,1,70
216,56,32612,6,0,L|288:24,1,70
352,64,32973,2,0,L|344:136,1,70
392,200,33335,1,0,0:0:0:0:
424,272,33515,1,0,0:0:0:0:
368,336,33696,6,0,L|288:368,1,70
288,280,34057,2,0,L|208:312,1,70
168,248,34419,2,0,L|80:280,1,70
112,192,34780,1,0,0:0:0:0:
184,160,34961,5,0,0:0:0:0:
208,88,35142,1,0,0:0:0:0:
296,136,35322,1,0,0:0:0:0:
344,64,35503,1,0,0:0:0:0:
296,136,35684,5,0,0:0:0:0:
296,136,35774,1,0,0:0:0:0:
296,136,35865,1,0,0:0:0:0:
376,152,36045,2,0,P|344:192|304:216,2,70
448,112,36588,5,0,0:0:0:0:
456,192,36768,1,0,0:0:0:0:
464,232,36859,1,0,0:0:0:0:
448,272,36949,1,0,0:0:0:0:
408,344,37130,1,0,0:0:0:0:
336,304,37310,1,0,0:0:0:0:
264,344,37491,1,0,0:0:0:0:
232,264,37672,6,0,P|200:232|184:200,1,70
216,128,38033,2,0,L|152:112,2,35
256,56,38395,1,0,0:0:0:0:
256,56,38485,1,0,0:0:0:0:
256,56,38575,1,0,0:0:0:0:
336,40,38756,6,0,P|368:88|368:128,1,70
384,200,39118,2,0,P|392:240|408:288,1,70
424,352,39479,1,0,0:0:0:0:
336,328,39660,1,0,0:0:0:0:
312,248,39841,5,0,0:0:0:0:
232,256,40021,1,0,0:0:0:0:
176,320,40202,1,0,0:0:0:0:
96,336,40383,1,0,0:0:0:0:
112,256,40563,6,0,P|80:208|64:168,1,70
128,136,40925,2,0,P|152:168|176:208,1,70
248,176,41286,1,0,0:0:0:0:
264,96,41467,1,0,0:0:0:0:
304,16,41648,1,0,0:0:0:0:
384,16,41828,1,0,0:0:0:0:
424,96,42009,6,0,L|440:192,1,70
440,208,42280,1,0,0:0:0:0:
440,248,42371,1,0,0:0:0:0:
376,304,42551,1,0,0:0:0:0:
328,232,42732,1,0,0:0:0:0:
296,312,42913,1,0,0:0:0:0:
248,240,43094,1,0,0:0:0:0:
216,312,43274,1,0,0:0:0:0:
176,304,43365,1,0,0:0:0:0:
136,288,43455,6,0,P|104:272|64:232,1,70
48,168,43816,2,0,P|48:128|56:88,1,70
120,40,44178,2,0,P|160:32|192:32,1,70
272,48,44539,5,0,0:0:0:0:
288,128,44720,1,0,0:0:0:0:
240,200,44901,1,0,0:0:0:0:
272,280,45081,1,0,0:0:0:0:
256,360,45262,2,0,L|208:368,2,35
336,336,45624,6,0,P|376:288|392:256,1,70
392,200,45985,2,0,L|456:232,1,70
480,152,46347,2,0,P|496:88|488:56,1,70
416,48,46708,6,0,P|392:104|392:136,1,70
376,192,47069,2,0,L|360:272,1,70
288,248,47431,2,0,P|240:224|208:192,1,70
152,184,47792,5,0,0:0:0:0:
168,104,47973,1,0,0:0:0:0:
232,56,48154,1,0,0:0:0:0:
232,56,48244,1,0,0:0:0:0:
232,56,48335,1,0,0:0:0:0:
312,56,48515,1,0,0:0:0:0:
376,8,48696,1,0,0:0:0:0:
416,32,48786,1,0,0:0:0:0:
440,72,48877,6,0,P|456:120|456:168,1,70
432,216,49238,2,0,P|432:272|448:312,1,70
360,328,49600,2,0,P|320:312|280:320,1,70
256,336,49871,1,0,0:0:0:0:
224,344,49961,2,0,P|160:328|128:312,1,70
112,256,50322,5,0,0:0:0:0:
128,176,50503,1,0,0:0:0:0:
80,112,50684,1,0,0:0:0:0:
144,64,50865,1,0,0:0:0:0:
224,88,51045,5,0,0:0:0:0:
256,160,51226,1,0,0:0:0:0:
256,160,51407,2,0,P|296:184|344:176,1,70
376,208,51768,2,0,P|424:216|448:248,1,70
256,192,52130,12,0,56467,0:0:0:0:
