osu file format v14

[General]
AudioFilename: audio.mp3
AudioLeadIn: 0
PreviewTime: 74941
Countdown: 0
SampleSet: None
StackLeniency: 0.7
Mode: 3
LetterboxInBreaks: 0
SpecialStyle: 0
WidescreenStoryboard: 1

[Editor]
DistanceSpacing: 1
BeatDivisor: 4
GridSize: 16
TimelineZoom: 2.899999

[Metadata]
Title:Rocket Rider
TitleUnicode:Rocket Rider
Artist:Danny Baranowsky
ArtistUnicode:Danny Baranowsky
Creator:Level 51
Version:Insane
Source:
Tags:
BeatmapID:1156135
BeatmapSetID:545736

[Difficulty]
HPDrainRate:9
CircleSize:4
OverallDifficulty:9
ApproachRate:5
SliderMultiplier:1.4
SliderTickRate:1

[Events]
//Background and Video events
0,0,"smb bg.jpg",0,0
//Break Periods
//Storyboard Layer 0 (Background)
//Storyboard Layer 1 (Fail)
//Storyboard Layer 2 (Pass)
//Storyboard Layer 3 (Foreground)
//Storyboard Sound Samples

[TimingPoints]
0,234.375,4,1,0,0,1,0

[HitObjects]
64,192,0,5,0,0:0:0:0:
320,192,0,1,0,0:0:0:0:
448,192,0,1,0,0:0:0:0:
192,192,117,1,0,0:0:0:0:
64,192,234,1,0,0:0:0:0:
320,192,351,1,0,0:0:0:0:
448,192,468,1,0,0:0:0:0:
192,192,468,1,0,0:0:0:0:
448,192,585,1,0,0:0:0:0:
64,192,703,1,0,0:0:0:0:
64,192,820,1,0,0:0:0:0:
320,192,937,1,0,0:0:0:0:
448,192,937,1,0,0:0:0:0:
192,192,1054,1,0,0:0:0:0:
64,192,1171,1,0,0:0:0:0:
320,192,1289,1,0,0:0:0:0:
192,192,1406,1,0,0:0:0:0:
448,192,1406,1,0,0:0:0:0:
64,192,1523,1,0,0:0:0:0:
320,192,1640,1,0,0:0:0:0:
192,192,1757,1,0,0:0:0:0:
448,192,1875,1,0,0:0:0:0:
320,192,1875,1,0,0:0:0:0:
192,192,1992,1,0,0:0:0:0:
64,192,2109,1,0,0:0:0:0:
320,192,2226,1,0,0:0:0:0:
448,192,2343,1,0,0:0:0:0:
192,192,2343,1,0,0:0:0:0:
64,192,2460,1,0,0:0:0:0:
320,192,2578,1,0,0:0:0:0:
192,192,2695,1,0,0:0:0:0:
448,192,2812,1,0,0:0:0:0:
64,192,2812,1,0,0:0:0:0:
448,192,2929,1,0,0:0:0:0:
192,192,3046,1,0,0:0:0:0:
192,192,3164,1,0,0:0:0:0:
320,192,3281,1,0,0:0:0:0:
448,192,3281,1,0,0:0:0:0:
448,192,3398,1,0,0:0:0:0:
64,192,3515,1,0,0:0:0:0:
64,192,3632,1,0,0:0:0:0:
192,192,3750,1,0,0:0:0:0:
448,192,3750,1,0,0:0:0:0:
320,192,3867,1,0,0:0:0:0:
64,192,3984,1,0,0:0:0:0:
192,192,3984,1,0,0:0:0:0:
448,192,4101,1,0,0:0:0:0:
64,192,4218,1,0,0:0:0:0:
320,192,4218,1,0,0:0:0:0:
64,192,4335,1,0,0:0:0:0:
320,192,4453,1,0,0:0:0:0:
320,192,4570,1,0,0:0:0:0:
64,192,4687,1,0,0:0:0:0:
192,192,4687,1,0,0:0:0:0:
448,192,4804,1,0,0:0:0:0:
320,192,4921,1,0,0:0:0:0:
192,192,5039,1,0,0:0:0:0:
64,192,5156,1,0,0:0:0:0:
448,192,5156,1,0,0:0:0:0:
192,192,5273,1,0,0:0:0:0:
320,192,5390,1,0,0:0:0:0:
448,192,5507,1,0,0:0:0:0:
64,192,5625,1,0,0:0:0:0:
192,192,5625,1,0,0:0:0:0:
320,192,5742,1,0,0:0:0:0:
64,192,5859,1,0,0:0:0:0:
448,192,5976,1,0,0:0:0:0:
192,192,6093,1,0,0:0:0:0:
320,192,6093,1,0,0:0:0:0:
64,192,6210,1,0,0:0:0:0:
320,192,6328,1,0,0:0:0:0:
192,192,6445,1,0,0:0:0:0:
448,192,6562,1,0,0:0:0:0:
64,192,6562,1,0,0:0:0:0:
320,192,6679,1,0,0:0:0:0:
192,192,6796,1,0,0:0:0:0:
448,192,6914,1,0,0:0:0:0:
320,192,7031,1,0,0:0:0:0:
64,192,7031,1,0,0:0:0:0:
192,192,7148,1,0,0:0:0:0:
448,192,7265,1,0,0:0:0:0:
64,192,7382,1,0,0:0:0:0:
320,192,7500,1,0,0:0:0:0:
448,192,7500,1,0,0:0:0:0:
448,192,7617,1,0,0:0:0:0:
64,192,7734,1,0,0:0:0:0:
192,192,7734,1,0,0:0:0:0:
64,192,7851,1,0,0:0:0:0:
320,192,7968,1,0,0:0:0:0:
448,192,7968,1,0,0:0:0:0:
192,192,8085,1,0,0:0:0:0:
64,192,8203,1,0,0:0:0:0:
448,192,8203,1,0,0:0:0:0:
320,192,8320,1,0,0:0:0:0:
192,192,8437,1,0,0:0:0:0:
448,192,8437,1,0,0:0:0:0:
64,192,8554,1,0,0:0:0:0:
320,192,8671,1,0,0:0:0:0:
192,192,8671,1,0,0:0:0:0:
448,192,8789,1,0,0:0:0:0:
320,192,8789,1,0,0:0:0:0:
64,192,8906,1,0,0:0:0:0:
192,192,8906,1,0,0:0:0:0:
64,192,9023,1,0,0:0:0:0:
320,192,9023,1,0,0:0:0:0:
192,192,9140,1,0,0:0:0:0:
448,192,9140,1,0,0:0:0:0:
64,192,9257,1,0,0:0:0:0:
320,192,9375,1,0,0:0:0:0:
448,192,9375,1,0,0:0:0:0:
192,192,9492,1,0,0:0:0:0:
64,192,9609,1,0,0:0:0:0:
448,192,9609,1,0,0:0:0:0:
320,192,9726,1,0,0:0:0:0:
64,192,9843,1,0,0:0:0:0:
448,192,9843,1,0,0:0:0:0:
64,192,9960,1,0,0:0:0:0:
192,192,9960,1,0,0:0:0:0:
192,192,10078,1,0,0:0:0:0:
448,192,10078,1,0,0:0:0:0:
320,192,10195,1,0,0:0:0:0:
448,192,10195,1,0,0:0:0:0:
64,192,10312,1,0,0:0:0:0:
192,192,10312,1,0,0:0:0:0:
320,192,10429,1,0,0:0:0:0:
448,192,10429,1,0,0:0:0:0:
192,192,10546,1,0,0:0:0:0:
64,192,10664,1,0,0:0:0:0:
448,192,10781,1,0,0:0:0:0:
320,192,10781,1,0,0:0:0:0:
192,192,10898,1,0,0:0:0:0:
64,192,11015,1,0,0:0:0:0:
320,192,11132,1,0,0:0:0:0:
448,192,11250,1,0,0:0:0:0:
192,192,11250,1,0,0:0:0:0:
448,192,11367,1,0,0:0:0:0:
64,192,11484,1,0,0:0:0:0:
192,192,11484,1,0,0:0:0:0:
64,192,11601,1,0,0:0:0:0:
192,192,11718,1,0,0:0:0:0:
448,192,11718,1,0,0:0:0:0:
320,192,11835,1,0,0:0:0:0:
64,192,11953,1,0,0:0:0:0:
192,192,11953,1,0,0:0:0:0:
448,192,12070,1,0,0:0:0:0:
320,192,12187,1,0,0:0:0:0:
64,192,12187,1,0,0:0:0:0:
192,192,12304,1,0,0:0:0:0:
64,192,12421,1,0,0:0:0:0:
448,192,12421,1,0,0:0:0:0:
64,192,12539,1,0,0:0:0:0:
320,192,12539,1,0,0:0:0:0:
192,192,12656,1,0,0:0:0:0:
448,192,12656,1,0,0:0:0:0:
64,192,12773,1,0,0:0:0:0:
320,192,12890,1,0,0:0:0:0:
448,192,12890,1,0,0:0:0:0:
192,192,13007,1,0,0:0:0:0:
64,192,13125,1,0,0:0:0:0:
448,192,13125,1,0,0:0:0:0:
192,192,13242,1,0,0:0:0:0:
320,192,13242,1,0,0:0:0:0:
192,192,13359,1,0,0:0:0:0:
448,192,13359,1,0,0:0:0:0:
64,192,13476,1,0,0:0:0:0:
320,192,13476,1,0,0:0:0:0:
448,192,13593,1,0,0:0:0:0:
64,192,13593,1,0,0:0:0:0:
192,192,13710,1,0,0:0:0:0:
320,192,13710,1,0,0:0:0:0:
192,192,13828,5,0,0:0:0:0:
64,192,13828,1,0,0:0:0:0:
320,192,13945,1,0,0:0:0:0:
448,192,13945,1,0,0:0:0:0:
64,192,14062,1,0,0:0:0:0:
320,192,14062,1,0,0:0:0:0:
192,192,14179,1,0,0:0:0:0:
448,192,14179,1,0,0:0:0:0:
64,192,14296,1,0,0:0:0:0:
192,192,14296,1,0,0:0:0:0:
320,192,14414,1,0,0:0:0:0:
448,192,14414,1,0,0:0:0:0:
192,192,14531,1,0,0:0:0:0:
448,192,14531,1,0,0:0:0:0:
320,192,14648,1,0,0:0:0:0:
64,192,14648,1,0,0:0:0:0:
64,192,14765,1,0,0:0:0:0:
448,192,14765,1,0,0:0:0:0:
320,192,14882,1,0,0:0:0:0:
192,192,14882,1,0,0:0:0:0:
64,192,15000,5,0,0:0:0:0:
448,192,15000,1,0,0:0:0:0:
192,192,15058,1,0,0:0:0:0:
320,192,15117,1,0,0:0:0:0:
448,192,15175,1,0,0:0:0:0:
192,192,15234,1,0,0:0:0:0:
320,192,15292,1,0,0:0:0:0:
64,192,15351,1,0,0:0:0:0:
192,192,15410,1,0,0:0:0:0:
448,192,15468,1,0,0:0:0:0:
320,192,15527,1,0,0:0:0:0:
192,192,15585,1,0,0:0:0:0:
64,192,15644,1,0,0:0:0:0:
320,192,15703,1,0,0:0:0:0:
192,192,15761,1,0,0:0:0:0:
448,192,15820,1,0,0:0:0:0:
320,192,15878,1,0,0:0:0:0:
64,192,15937,1,0,0:0:0:0:
192,192,15996,1,0,0:0:0:0:
320,192,16054,1,0,0:0:0:0:
448,192,16113,1,0,0:0:0:0:
192,192,16171,1,0,0:0:0:0:
320,192,16230,1,0,0:0:0:0:
64,192,16289,1,0,0:0:0:0:
192,192,16347,1,0,0:0:0:0:
448,192,16406,1,0,0:0:0:0:
320,192,16464,1,0,0:0:0:0:
192,192,16523,1,0,0:0:0:0:
64,192,16582,1,0,0:0:0:0:
320,192,16640,1,0,0:0:0:0:
192,192,16699,1,0,0:0:0:0:
448,192,16757,1,0,0:0:0:0:
320,192,16816,1,0,0:0:0:0:
192,192,16875,1,0,0:0:0:0:
64,192,16875,1,0,0:0:0:0:
448,192,16933,1,0,0:0:0:0:
320,192,16992,1,0,0:0:0:0:
192,192,17050,1,0,0:0:0:0:
64,192,17109,1,0,0:0:0:0:
320,192,17167,1,0,0:0:0:0:
448,192,17226,1,0,0:0:0:0:
192,192,17285,1,0,0:0:0:0:
320,192,17343,1,0,0:0:0:0:
448,192,17402,1,0,0:0:0:0:
64,192,17460,1,0,0:0:0:0:
320,192,17519,1,0,0:0:0:0:
192,192,17578,1,0,0:0:0:0:
64,192,17636,1,0,0:0:0:0:
448,192,17695,1,0,0:0:0:0:
192,192,17753,1,0,0:0:0:0:
320,192,17812,1,0,0:0:0:0:
64,192,17871,1,0,0:0:0:0:
192,192,17929,1,0,0:0:0:0:
448,192,17988,1,0,0:0:0:0:
320,192,18046,1,0,0:0:0:0:
192,192,18105,1,0,0:0:0:0:
64,192,18164,1,0,0:0:0:0:
320,192,18222,1,0,0:0:0:0:
448,192,18281,1,0,0:0:0:0:
64,192,18339,1,0,0:0:0:0:
192,192,18398,1,0,0:0:0:0:
448,192,18457,1,0,0:0:0:0:
320,192,18515,1,0,0:0:0:0:
192,192,18574,1,0,0:0:0:0:
64,192,18632,1,0,0:0:0:0:
320,192,18691,1,0,0:0:0:0:
192,192,18750,1,0,0:0:0:0:
448,192,18750,1,0,0:0:0:0:
64,192,18808,1,0,0:0:0:0:
320,192,18867,1,0,0:0:0:0:
192,192,18925,1,0,0:0:0:0:
64,192,18984,1,0,0:0:0:0:
448,192,19042,1,0,0:0:0:0:
192,192,19101,1,0,0:0:0:0:
320,192,19160,1,0,0:0:0:0:
448,192,19218,1,0,0:0:0:0:
64,192,19277,1,0,0:0:0:0:
320,192,19335,1,0,0:0:0:0:
192,192,19394,1,0,0:0:0:0:
64,192,19453,1,0,0:0:0:0:
448,192,19511,1,0,0:0:0:0:
192,192,19570,1,0,0:0:0:0:
320,192,19628,1,0,0:0:0:0:
64,192,19687,1,0,0:0:0:0:
448,192,19687,1,0,0:0:0:0:
192,192,19746,1,0,0:0:0:0:
320,192,19804,1,0,0:0:0:0:
448,192,19863,1,0,0:0:0:0:
192,192,19921,1,0,0:0:0:0:
64,192,19980,1,0,0:0:0:0:
320,192,20039,1,0,0:0:0:0:
192,192,20097,1,0,0:0:0:0:
448,192,20156,1,0,0:0:0:0:
320,192,20214,1,0,0:0:0:0:
64,192,20273,1,0,0:0:0:0:
192,192,20332,1,0,0:0:0:0:
320,192,20390,1,0,0:0:0:0:
448,192,20449,1,0,0:0:0:0:
320,192,20507,1,0,0:0:0:0:
192,192,20566,1,0,0:0:0:0:
448,192,20625,1,0,0:0:0:0:
64,192,20625,1,0,0:0:0:0:
320,192,20683,1,0,0:0:0:0:
192,192,20742,1,0,0:0:0:0:
64,192,20800,1,0,0:0:0:0:
320,192,20859,1,0,0:0:0:0:
192,192,20917,1,0,0:0:0:0:
448,192,20976,1,0,0:0:0:0:
320,192,21035,1,0,0:0:0:0:
64,192,21093,1,0,0:0:0:0:
192,192,21152,1,0,0:0:0:0:
448,192,21210,1,0,0:0:0:0:
320,192,21269,1,0,0:0:0:0:
192,192,21328,1,0,0:0:0:0:
64,192,21386,1,0,0:0:0:0:
320,192,21445,1,0,0:0:0:0:
192,192,21503,1,0,0:0:0:0:
320,192,21562,1,0,0:0:0:0:
64,192,21562,1,0,0:0:0:0:
448,192,21621,1,0,0:0:0:0:
192,192,21679,1,0,0:0:0:0:
64,192,21738,1,0,0:0:0:0:
320,192,21796,1,0,0:0:0:0:
192,192,21855,1,0,0:0:0:0:
448,192,21914,1,0,0:0:0:0:
320,192,21972,1,0,0:0:0:0:
64,192,22031,1,0,0:0:0:0:
192,192,22089,1,0,0:0:0:0:
320,192,22148,1,0,0:0:0:0:
448,192,22207,1,0,0:0:0:0:
64,192,22265,1,0,0:0:0:0:
192,192,22324,1,0,0:0:0:0:
320,192,22382,1,0,0:0:0:0:
64,192,22441,1,0,0:0:0:0:
448,192,22500,5,0,0:0:0:0:
192,192,22500,1,0,0:0:0:0:
448,192,22617,1,0,0:0:0:0:
192,192,22617,1,0,0:0:0:0:
64,192,22734,1,0,0:0:0:0:
320,192,22734,1,0,0:0:0:0:
64,192,22851,1,0,0:0:0:0:
320,192,22851,1,0,0:0:0:0:
448,192,22968,1,0,0:0:0:0:
192,192,22968,1,0,0:0:0:0:
448,192,23085,1,0,0:0:0:0:
192,192,23085,1,0,0:0:0:0:
64,192,23203,1,0,0:0:0:0:
320,192,23203,1,0,0:0:0:0:
64,192,23320,1,0,0:0:0:0:
320,192,23320,1,0,0:0:0:0:
64,192,23437,1,0,0:0:0:0:
192,192,23437,1,0,0:0:0:0:
448,192,23437,1,0,0:0:0:0:
320,192,23554,1,0,0:0:0:0:
64,192,23671,1,0,0:0:0:0:
192,192,23671,1,0,0:0:0:0:
448,192,23671,1,0,0:0:0:0:
448,192,23789,1,0,0:0:0:0:
64,192,23789,1,0,0:0:0:0:
192,192,23789,1,0,0:0:0:0:
192,192,23906,1,0,0:0:0:0:
448,192,23906,1,0,0:0:0:0:
320,192,23906,1,0,0:0:0:0:
64,192,24023,1,0,0:0:0:0:
320,192,24023,1,0,0:0:0:0:
192,192,24140,1,0,0:0:0:0:
448,192,24140,1,0,0:0:0:0:
64,192,24257,1,0,0:0:0:0:
320,192,24257,1,0,0:0:0:0:
64,192,24375,1,0,0:0:0:0:
192,192,24375,1,0,0:0:0:0:
448,192,24375,1,0,0:0:0:0:
192,192,24492,1,0,0:0:0:0:
64,192,24492,1,0,0:0:0:0:
320,192,24609,1,0,0:0:0:0:
448,192,24609,1,0,0:0:0:0:
320,192,24726,1,0,0:0:0:0:
448,192,24726,1,0,0:0:0:0:
64,192,24843,1,0,0:0:0:0:
192,192,24843,1,0,0:0:0:0:
192,192,24960,1,0,0:0:0:0:
64,192,24960,1,0,0:0:0:0:
320,192,25078,1,0,0:0:0:0:
448,192,25078,1,0,0:0:0:0:
320,192,25195,1,0,0:0:0:0:
448,192,25195,1,0,0:0:0:0:
64,192,25312,1,0,0:0:0:0:
448,192,25312,1,0,0:0:0:0:
192,192,25312,1,0,0:0:0:0:
192,192,25429,1,0,0:0:0:0:
448,192,25546,1,0,0:0:0:0:
64,192,25546,1,0,0:0:0:0:
320,192,25546,1,0,0:0:0:0:
64,192,25664,1,0,0:0:0:0:
448,192,25664,1,0,0:0:0:0:
320,192,25664,1,0,0:0:0:0:
64,192,25781,1,0,0:0:0:0:
192,192,25781,1,0,0:0:0:0:
320,192,25781,1,0,0:0:0:0:
192,192,25898,1,0,0:0:0:0:
448,192,25898,1,0,0:0:0:0:
64,192,26015,1,0,0:0:0:0:
320,192,26015,1,0,0:0:0:0:
192,192,26132,1,0,0:0:0:0:
448,192,26132,1,0,0:0:0:0:
64,192,26250,5,0,0:0:0:0:
448,192,26250,1,0,0:0:0:0:
320,192,26250,1,0,0:0:0:0:
64,192,26367,1,0,0:0:0:0:
320,192,26367,1,0,0:0:0:0:
192,192,26484,1,0,0:0:0:0:
448,192,26484,1,0,0:0:0:0:
192,192,26601,1,0,0:0:0:0:
448,192,26601,1,0,0:0:0:0:
64,192,26718,1,0,0:0:0:0:
320,192,26718,1,0,0:0:0:0:
64,192,26835,1,0,0:0:0:0:
320,192,26835,1,0,0:0:0:0:
192,192,26953,1,0,0:0:0:0:
448,192,26953,1,0,0:0:0:0:
448,192,27070,1,0,0:0:0:0:
192,192,27070,1,0,0:0:0:0:
320,192,27187,1,0,0:0:0:0:
64,192,27187,1,0,0:0:0:0:
192,192,27187,1,0,0:0:0:0:
320,192,27304,1,0,0:0:0:0:
448,192,27421,1,0,0:0:0:0:
64,192,27421,1,0,0:0:0:0:
192,192,27421,1,0,0:0:0:0:
64,192,27539,1,0,0:0:0:0:
448,192,27539,1,0,0:0:0:0:
192,192,27539,1,0,0:0:0:0:
192,192,27656,1,0,0:0:0:0:
448,192,27656,1,0,0:0:0:0:
320,192,27656,1,0,0:0:0:0:
64,192,27773,1,0,0:0:0:0:
192,192,27773,1,0,0:0:0:0:
320,192,27890,1,0,0:0:0:0:
448,192,27890,1,0,0:0:0:0:
64,192,28007,1,0,0:0:0:0:
192,192,28007,1,0,0:0:0:0:
320,192,28125,5,0,0:0:0:0:
192,192,28125,1,0,0:0:0:0:
448,192,28125,1,0,0:0:0:0:
192,192,28242,1,0,0:0:0:0:
320,192,28242,1,0,0:0:0:0:
448,192,28359,1,0,0:0:0:0:
64,192,28359,1,0,0:0:0:0:
448,192,28476,1,0,0:0:0:0:
64,192,28476,1,0,0:0:0:0:
320,192,28593,1,0,0:0:0:0:
192,192,28593,1,0,0:0:0:0:
320,192,28710,1,0,0:0:0:0:
192,192,28710,1,0,0:0:0:0:
448,192,28828,1,0,0:0:0:0:
64,192,28828,1,0,0:0:0:0:
448,192,28945,1,0,0:0:0:0:
64,192,28945,1,0,0:0:0:0:
448,192,29062,1,0,0:0:0:0:
192,192,29062,1,0,0:0:0:0:
320,192,29062,1,0,0:0:0:0:
320,192,29179,1,0,0:0:0:0:
192,192,29179,1,0,0:0:0:0:
448,192,29296,1,0,0:0:0:0:
64,192,29296,1,0,0:0:0:0:
192,192,29296,1,0,0:0:0:0:
64,192,29414,1,0,0:0:0:0:
192,192,29414,1,0,0:0:0:0:
448,192,29414,1,0,0:0:0:0:
192,192,29531,1,0,0:0:0:0:
320,192,29531,1,0,0:0:0:0:
64,192,29531,1,0,0:0:0:0:
448,192,29648,1,0,0:0:0:0:
320,192,29648,1,0,0:0:0:0:
64,192,29648,1,0,0:0:0:0:
320,192,29765,1,0,0:0:0:0:
448,192,29765,1,0,0:0:0:0:
64,192,29765,1,0,0:0:0:0:
320,192,29882,1,0,0:0:0:0:
448,192,29882,1,0,0:0:0:0:
64,192,29882,1,0,0:0:0:0:
64,192,30000,1,0,0:0:0:0:
320,192,30000,1,0,0:0:0:0:
448,192,30000,1,0,0:0:0:0:
192,192,30000,1,0,0:0:0:0:
64,192,30117,1,0,0:0:0:0:
192,192,30117,1,0,0:0:0:0:
192,192,30234,1,0,0:0:0:0:
448,192,30234,1,0,0:0:0:0:
320,192,30351,1,0,0:0:0:0:
448,192,30351,1,0,0:0:0:0:
64,192,30468,1,0,0:0:0:0:
320,192,30468,1,0,0:0:0:0:
64,192,30585,1,0,0:0:0:0:
192,192,30585,1,0,0:0:0:0:
192,192,30703,1,0,0:0:0:0:
448,192,30703,1,0,0:0:0:0:
320,192,30820,1,0,0:0:0:0:
448,192,30820,1,0,0:0:0:0:
64,192,30937,1,0,0:0:0:0:
320,192,30937,1,0,0:0:0:0:
64,192,31054,1,0,0:0:0:0:
192,192,31054,1,0,0:0:0:0:
192,192,31171,1,0,0:0:0:0:
448,192,31171,1,0,0:0:0:0:
320,192,31289,1,0,0:0:0:0:
448,192,31289,1,0,0:0:0:0:
64,192,31406,1,0,0:0:0:0:
320,192,31406,1,0,0:0:0:0:
64,192,31523,1,0,0:0:0:0:
192,192,31523,1,0,0:0:0:0:
192,192,31640,1,0,0:0:0:0:
448,192,31640,1,0,0:0:0:0:
320,192,31757,1,0,0:0:0:0:
448,192,31757,1,0,0:0:0:0:
64,192,31875,1,0,0:0:0:0:
192,192,31875,1,0,0:0:0:0:
64,192,31991,1,0,0:0:0:0:
320,192,31991,1,0,0:0:0:0:
64,192,32108,1,0,0:0:0:0:
448,192,32108,1,0,0:0:0:0:
192,192,32225,1,0,0:0:0:0:
448,192,32225,1,0,0:0:0:0:
192,192,32343,1,0,0:0:0:0:
320,192,32343,1,0,0:0:0:0:
64,192,32460,1,0,0:0:0:0:
320,192,32460,1,0,0:0:0:0:
64,192,32577,1,0,0:0:0:0:
448,192,32577,1,0,0:0:0:0:
192,192,32694,1,0,0:0:0:0:
448,192,32694,1,0,0:0:0:0:
320,192,32811,1,0,0:0:0:0:
192,192,32811,1,0,0:0:0:0:
64,192,32929,1,0,0:0:0:0:
320,192,32929,1,0,0:0:0:0:
64,192,33046,1,0,0:0:0:0:
448,192,33046,1,0,0:0:0:0:
192,192,33164,1,0,0:0:0:0:
448,192,33164,1,0,0:0:0:0:
192,192,33281,1,0,0:0:0:0:
320,192,33281,1,0,0:0:0:0:
64,192,33398,1,0,0:0:0:0:
320,192,33398,1,0,0:0:0:0:
64,192,33515,1,0,0:0:0:0:
448,192,33515,1,0,0:0:0:0:
192,192,33632,1,0,0:0:0:0:
448,192,33632,1,0,0:0:0:0:
320,192,33750,1,0,0:0:0:0:
448,192,33750,1,0,0:0:0:0:
192,192,33867,1,0,0:0:0:0:
64,192,33984,1,0,0:0:0:0:
320,192,33984,1,0,0:0:0:0:
448,192,34101,1,0,0:0:0:0:
192,192,34218,1,0,0:0:0:0:
320,192,34218,1,0,0:0:0:0:
64,192,34335,1,0,0:0:0:0:
192,192,34453,1,0,0:0:0:0:
448,192,34453,1,0,0:0:0:0:
320,192,34570,1,0,0:0:0:0:
64,192,34687,5,0,0:0:0:0:
448,192,34687,1,0,0:0:0:0:
192,192,34804,1,0,0:0:0:0:
320,192,34921,1,0,0:0:0:0:
448,192,34921,1,0,0:0:0:0:
64,192,35039,1,0,0:0:0:0:
192,192,35156,1,0,0:0:0:0:
320,192,35156,1,0,0:0:0:0:
448,192,35273,1,0,0:0:0:0:
64,192,35390,1,0,0:0:0:0:
192,192,35390,1,0,0:0:0:0:
320,192,35507,1,0,0:0:0:0:
64,192,35625,1,0,0:0:0:0:
448,192,35625,1,0,0:0:0:0:
192,192,35742,1,0,0:0:0:0:
320,192,35742,1,0,0:0:0:0:
448,192,35859,1,0,0:0:0:0:
64,192,35859,1,0,0:0:0:0:
192,192,35976,1,0,0:0:0:0:
320,192,35976,1,0,0:0:0:0:
64,192,36093,1,0,0:0:0:0:
320,192,36093,1,0,0:0:0:0:
192,192,36210,1,0,0:0:0:0:
448,192,36210,1,0,0:0:0:0:
64,192,36328,1,0,0:0:0:0:
320,192,36328,1,0,0:0:0:0:
448,192,36445,1,0,0:0:0:0:
192,192,36445,1,0,0:0:0:0:
192,192,36562,5,0,0:0:0:0:
64,192,36562,1,0,0:0:0:0:
192,192,36679,1,0,0:0:0:0:
64,192,36679,1,0,0:0:0:0:
448,192,36796,1,0,0:0:0:0:
320,192,36796,1,0,0:0:0:0:
448,192,36914,1,0,0:0:0:0:
320,192,36914,1,0,0:0:0:0:
64,192,37031,1,0,0:0:0:0:
320,192,37031,1,0,0:0:0:0:
320,192,37148,1,0,0:0:0:0:
64,192,37148,1,0,0:0:0:0:
448,192,37265,1,0,0:0:0:0:
192,192,37265,1,0,0:0:0:0:
448,192,37382,1,0,0:0:0:0:
192,192,37382,1,0,0:0:0:0:
64,192,37500,5,0,0:0:0:0:
320,192,37500,1,0,0:0:0:0:
448,192,37558,1,0,0:0:0:0:
192,192,37617,1,0,0:0:0:0:
320,192,37675,1,0,0:0:0:0:
64,192,37734,1,0,0:0:0:0:
192,192,37792,1,0,0:0:0:0:
320,192,37851,1,0,0:0:0:0:
448,192,37910,1,0,0:0:0:0:
64,192,37968,1,0,0:0:0:0:
192,192,37968,1,0,0:0:0:0:
320,192,38027,1,0,0:0:0:0:
192,192,38085,1,0,0:0:0:0:
320,192,38144,1,0,0:0:0:0:
448,192,38203,1,0,0:0:0:0:
64,192,38203,1,0,0:0:0:0:
192,192,38261,1,0,0:0:0:0:
320,192,38320,1,0,0:0:0:0:
448,192,38378,1,0,0:0:0:0:
64,192,38437,1,0,0:0:0:0:
192,192,38437,1,0,0:0:0:0:
320,192,38496,1,0,0:0:0:0:
448,192,38554,1,0,0:0:0:0:
64,192,38613,1,0,0:0:0:0:
320,192,38671,1,0,0:0:0:0:
448,192,38671,1,0,0:0:0:0:
192,192,38730,1,0,0:0:0:0:
64,192,38789,1,0,0:0:0:0:
320,192,38847,1,0,0:0:0:0:
192,192,38906,1,0,0:0:0:0:
448,192,38906,1,0,0:0:0:0:
64,192,38964,1,0,0:0:0:0:
320,192,39023,1,0,0:0:0:0:
192,192,39082,1,0,0:0:0:0:
64,192,39140,1,0,0:0:0:0:
448,192,39140,1,0,0:0:0:0:
320,192,39199,1,0,0:0:0:0:
192,192,39257,1,0,0:0:0:0:
448,192,39316,1,0,0:0:0:0:
64,192,39375,1,0,0:0:0:0:
320,192,39375,1,0,0:0:0:0:
192,192,39433,1,0,0:0:0:0:
448,192,39492,1,0,0:0:0:0:
64,192,39550,1,0,0:0:0:0:
192,192,39609,1,0,0:0:0:0:
320,192,39667,1,0,0:0:0:0:
448,192,39726,1,0,0:0:0:0:
192,192,39785,1,0,0:0:0:0:
320,192,39843,1,0,0:0:0:0:
64,192,39843,1,0,0:0:0:0:
448,192,39902,1,0,0:0:0:0:
192,192,39960,1,0,0:0:0:0:
64,192,40019,1,0,0:0:0:0:
320,192,40078,1,0,0:0:0:0:
448,192,40078,1,0,0:0:0:0:
192,192,40136,1,0,0:0:0:0:
448,192,40195,1,0,0:0:0:0:
320,192,40253,1,0,0:0:0:0:
192,192,40312,1,0,0:0:0:0:
64,192,40312,1,0,0:0:0:0:
448,192,40371,1,0,0:0:0:0:
320,192,40429,1,0,0:0:0:0:
192,192,40488,1,0,0:0:0:0:
64,192,40546,1,0,0:0:0:0:
320,192,40546,1,0,0:0:0:0:
448,192,40605,1,0,0:0:0:0:
192,192,40664,1,0,0:0:0:0:
320,192,40722,1,0,0:0:0:0:
64,192,40781,1,0,0:0:0:0:
192,192,40781,1,0,0:0:0:0:
448,192,40839,1,0,0:0:0:0:
320,192,40898,1,0,0:0:0:0:
192,192,40957,1,0,0:0:0:0:
448,192,41015,1,0,0:0:0:0:
64,192,41015,1,0,0:0:0:0:
320,192,41074,1,0,0:0:0:0:
192,192,41132,1,0,0:0:0:0:
448,192,41191,1,0,0:0:0:0:
320,192,41250,1,0,0:0:0:0:
64,192,41250,1,0,0:0:0:0:
192,192,41308,1,0,0:0:0:0:
320,192,41367,1,0,0:0:0:0:
448,192,41425,1,0,0:0:0:0:
192,192,41484,1,0,0:0:0:0:
64,192,41542,1,0,0:0:0:0:
320,192,41601,1,0,0:0:0:0:
448,192,41660,1,0,0:0:0:0:
64,192,41718,1,0,0:0:0:0:
192,192,41718,1,0,0:0:0:0:
320,192,41777,1,0,0:0:0:0:
448,192,41835,1,0,0:0:0:0:
192,192,41894,1,0,0:0:0:0:
320,192,41953,1,0,0:0:0:0:
64,192,41953,1,0,0:0:0:0:
448,192,42011,1,0,0:0:0:0:
192,192,42070,1,0,0:0:0:0:
320,192,42128,1,0,0:0:0:0:
64,192,42187,1,0,0:0:0:0:
192,192,42187,1,0,0:0:0:0:
448,192,42246,1,0,0:0:0:0:
320,192,42304,1,0,0:0:0:0:
192,192,42363,1,0,0:0:0:0:
64,192,42421,1,0,0:0:0:0:
448,192,42421,1,0,0:0:0:0:
320,192,42480,1,0,0:0:0:0:
64,192,42539,1,0,0:0:0:0:
192,192,42597,1,0,0:0:0:0:
320,192,42656,1,0,0:0:0:0:
448,192,42656,1,0,0:0:0:0:
64,192,42714,1,0,0:0:0:0:
192,192,42773,1,0,0:0:0:0:
448,192,42832,1,0,0:0:0:0:
320,192,42890,1,0,0:0:0:0:
64,192,42890,1,0,0:0:0:0:
192,192,42949,1,0,0:0:0:0:
448,192,43007,1,0,0:0:0:0:
320,192,43066,1,0,0:0:0:0:
64,192,43125,1,0,0:0:0:0:
192,192,43125,1,0,0:0:0:0:
320,192,43183,1,0,0:0:0:0:
448,192,43242,1,0,0:0:0:0:
192,192,43300,1,0,0:0:0:0:
320,192,43359,1,0,0:0:0:0:
64,192,43417,1,0,0:0:0:0:
192,192,43476,1,0,0:0:0:0:
320,192,43535,1,0,0:0:0:0:
448,192,43593,1,0,0:0:0:0:
64,192,43593,1,0,0:0:0:0:
320,192,43652,1,0,0:0:0:0:
192,192,43710,1,0,0:0:0:0:
64,192,43769,1,0,0:0:0:0:
448,192,43828,1,0,0:0:0:0:
320,192,43828,1,0,0:0:0:0:
192,192,43886,1,0,0:0:0:0:
64,192,43945,1,0,0:0:0:0:
320,192,44003,1,0,0:0:0:0:
192,192,44062,1,0,0:0:0:0:
448,192,44062,1,0,0:0:0:0:
64,192,44121,1,0,0:0:0:0:
320,192,44179,1,0,0:0:0:0:
448,192,44179,1,0,0:0:0:0:
192,192,44238,1,0,0:0:0:0:
448,192,44296,1,0,0:0:0:0:
320,192,44296,1,0,0:0:0:0:
64,192,44355,1,0,0:0:0:0:
192,192,44414,1,0,0:0:0:0:
320,192,44472,1,0,0:0:0:0:
448,192,44531,1,0,0:0:0:0:
64,192,44531,1,0,0:0:0:0:
192,192,44589,1,0,0:0:0:0:
448,192,44648,1,0,0:0:0:0:
64,192,44648,1,0,0:0:0:0:
192,192,44707,1,0,0:0:0:0:
320,192,44765,1,0,0:0:0:0:
448,192,44765,1,0,0:0:0:0:
192,192,44824,1,0,0:0:0:0:
64,192,44824,1,0,0:0:0:0:
320,192,44882,1,0,0:0:0:0:
448,192,44882,1,0,0:0:0:0:
192,192,44941,1,0,0:0:0:0:
64,192,44941,1,0,0:0:0:0:
320,192,45000,1,0,0:0:0:0:
448,192,45000,1,0,0:0:0:0:
64,192,45058,1,0,0:0:0:0:
192,192,45117,1,0,0:0:0:0:
448,192,45175,1,0,0:0:0:0:
64,192,45234,1,0,0:0:0:0:
320,192,45234,1,0,0:0:0:0:
192,192,45292,1,0,0:0:0:0:
448,192,45351,1,0,0:0:0:0:
320,192,45410,1,0,0:0:0:0:
64,192,45468,1,0,0:0:0:0:
192,192,45468,1,0,0:0:0:0:
448,192,45527,1,0,0:0:0:0:
64,192,45585,1,0,0:0:0:0:
320,192,45644,1,0,0:0:0:0:
448,192,45703,1,0,0:0:0:0:
192,192,45703,1,0,0:0:0:0:
64,192,45761,1,0,0:0:0:0:
192,192,45820,1,0,0:0:0:0:
320,192,45878,1,0,0:0:0:0:
64,192,45937,1,0,0:0:0:0:
448,192,45937,1,0,0:0:0:0:
320,192,45996,1,0,0:0:0:0:
192,192,46054,1,0,0:0:0:0:
448,192,46113,1,0,0:0:0:0:
320,192,46171,1,0,0:0:0:0:
64,192,46171,1,0,0:0:0:0:
192,192,46230,1,0,0:0:0:0:
64,192,46289,1,0,0:0:0:0:
320,192,46347,1,0,0:0:0:0:
448,192,46406,1,0,0:0:0:0:
192,192,46406,1,0,0:0:0:0:
64,192,46464,1,0,0:0:0:0:
320,192,46523,1,0,0:0:0:0:
192,192,46582,1,0,0:0:0:0:
448,192,46640,1,0,0:0:0:0:
320,192,46640,1,0,0:0:0:0:
64,192,46699,1,0,0:0:0:0:
192,192,46757,1,0,0:0:0:0:
448,192,46816,1,0,0:0:0:0:
64,192,46875,1,0,0:0:0:0:
320,192,46875,1,0,0:0:0:0:
192,192,46933,1,0,0:0:0:0:
448,192,46992,1,0,0:0:0:0:
320,192,47050,1,0,0:0:0:0:
64,192,47109,1,0,0:0:0:0:
192,192,47109,1,0,0:0:0:0:
448,192,47167,1,0,0:0:0:0:
64,192,47226,1,0,0:0:0:0:
192,192,47285,1,0,0:0:0:0:
320,192,47343,1,0,0:0:0:0:
448,192,47343,1,0,0:0:0:0:
64,192,47402,1,0,0:0:0:0:
192,192,47460,1,0,0:0:0:0:
320,192,47519,1,0,0:0:0:0:
192,192,47578,1,0,0:0:0:0:
448,192,47578,1,0,0:0:0:0:
64,192,47636,1,0,0:0:0:0:
448,192,47695,1,0,0:0:0:0:
192,192,47753,1,0,0:0:0:0:
320,192,47812,1,0,0:0:0:0:
64,192,47812,1,0,0:0:0:0:
448,192,47871,1,0,0:0:0:0:
192,192,47929,1,0,0:0:0:0:
320,192,47988,1,0,0:0:0:0:
64,192,48046,1,0,0:0:0:0:
192,192,48046,1,0,0:0:0:0:
448,192,48105,1,0,0:0:0:0:
320,192,48164,1,0,0:0:0:0:
192,192,48222,1,0,0:0:0:0:
64,192,48281,1,0,0:0:0:0:
320,192,48281,1,0,0:0:0:0:
192,192,48339,1,0,0:0:0:0:
448,192,48398,1,0,0:0:0:0:
320,192,48457,1,0,0:0:0:0:
64,192,48515,1,0,0:0:0:0:
448,192,48515,1,0,0:0:0:0:
192,192,48574,1,0,0:0:0:0:
320,192,48632,1,0,0:0:0:0:
64,192,48691,1,0,0:0:0:0:
192,192,48750,1,0,0:0:0:0:
448,192,48750,1,0,0:0:0:0:
320,192,48808,1,0,0:0:0:0:
448,192,48867,1,0,0:0:0:0:
192,192,48925,1,0,0:0:0:0:
64,192,48984,1,0,0:0:0:0:
320,192,48984,1,0,0:0:0:0:
448,192,49042,1,0,0:0:0:0:
64,192,49101,1,0,0:0:0:0:
192,192,49160,1,0,0:0:0:0:
320,192,49218,1,0,0:0:0:0:
448,192,49218,1,0,0:0:0:0:
192,192,49277,1,0,0:0:0:0:
64,192,49335,1,0,0:0:0:0:
320,192,49394,1,0,0:0:0:0:
192,192,49453,1,0,0:0:0:0:
448,192,49453,1,0,0:0:0:0:
64,192,49511,1,0,0:0:0:0:
320,192,49570,1,0,0:0:0:0:
192,192,49628,1,0,0:0:0:0:
448,192,49687,1,0,0:0:0:0:
320,192,49687,1,0,0:0:0:0:
64,192,49746,1,0,0:0:0:0:
192,192,49804,1,0,0:0:0:0:
320,192,49863,1,0,0:0:0:0:
64,192,49921,1,0,0:0:0:0:
448,192,49921,1,0,0:0:0:0:
192,192,49980,1,0,0:0:0:0:
448,192,50039,1,0,0:0:0:0:
320,192,50097,1,0,0:0:0:0:
192,192,50156,1,0,0:0:0:0:
64,192,50156,1,0,0:0:0:0:
320,192,50214,1,0,0:0:0:0:
448,192,50273,1,0,0:0:0:0:
192,192,50332,1,0,0:0:0:0:
320,192,50390,1,0,0:0:0:0:
64,192,50390,1,0,0:0:0:0:
448,192,50449,1,0,0:0:0:0:
192,192,50507,1,0,0:0:0:0:
64,192,50566,1,0,0:0:0:0:
448,192,50625,1,0,0:0:0:0:
320,192,50683,1,0,0:0:0:0:
192,192,50742,1,0,0:0:0:0:
320,192,50800,1,0,0:0:0:0:
192,192,50859,1,0,0:0:0:0:
64,192,50917,1,0,0:0:0:0:
448,192,50976,1,0,0:0:0:0:
64,192,51035,1,0,0:0:0:0:
320,192,51093,1,0,0:0:0:0:
192,192,51152,1,0,0:0:0:0:
448,192,51210,1,0,0:0:0:0:
64,192,51269,1,0,0:0:0:0:
320,192,51328,1,0,0:0:0:0:
192,192,51386,1,0,0:0:0:0:
448,192,51445,1,0,0:0:0:0:
320,192,51503,1,0,0:0:0:0:
192,192,51562,1,0,0:0:0:0:
64,192,51562,1,0,0:0:0:0:
448,192,51621,1,0,0:0:0:0:
64,192,51679,1,0,0:0:0:0:
192,192,51679,1,0,0:0:0:0:
320,192,51738,1,0,0:0:0:0:
64,192,51796,1,0,0:0:0:0:
448,192,51796,1,0,0:0:0:0:
192,192,51855,1,0,0:0:0:0:
320,192,51914,1,0,0:0:0:0:
448,192,51972,1,0,0:0:0:0:
64,192,52031,1,0,0:0:0:0:
192,192,52031,1,0,0:0:0:0:
320,192,52089,1,0,0:0:0:0:
64,192,52148,1,0,0:0:0:0:
192,192,52148,1,0,0:0:0:0:
448,192,52207,1,0,0:0:0:0:
64,192,52265,1,0,0:0:0:0:
192,192,52294,1,0,0:0:0:0:
320,192,52324,1,0,0:0:0:0:
448,192,52353,1,0,0:0:0:0:
64,192,52382,1,0,0:0:0:0:
192,192,52412,1,0,0:0:0:0:
320,192,52441,1,0,0:0:0:0:
448,192,52470,1,0,0:0:0:0:
64,192,52500,1,0,0:0:0:0:
192,192,52500,1,0,0:0:0:0:
192,192,52734,128,0,52968:0:0:0:0:
64,192,52968,128,0,53437:0:0:0:0:
448,192,52968,1,0,0:0:0:0:
320,192,52968,1,0,0:0:0:0:
320,192,53203,128,0,53437:0:0:0:0:
448,192,53437,128,0,53906:0:0:0:0:
192,192,53437,1,0,0:0:0:0:
64,192,53671,128,0,53906:0:0:0:0:
320,192,53671,1,0,0:0:0:0:
192,192,53906,128,0,54375:0:0:0:0:
320,192,53906,1,0,0:0:0:0:
448,192,54140,128,0,54375:0:0:0:0:
64,192,54140,1,0,0:0:0:0:
320,192,54375,128,0,54843:0:0:0:0:
64,192,54375,1,0,0:0:0:0:
192,192,54609,128,0,54843:0:0:0:0:
448,192,54726,1,0,0:0:0:0:
64,192,54843,128,0,55312:0:0:0:0:
448,192,54843,1,0,0:0:0:0:
320,192,55078,128,0,55312:0:0:0:0:
192,192,55078,1,0,0:0:0:0:
448,192,55312,128,0,55781:0:0:0:0:
192,192,55312,1,0,0:0:0:0:
192,192,55546,128,0,55781:0:0:0:0:
320,192,55546,1,0,0:0:0:0:
64,192,55781,128,0,56250:0:0:0:0:
320,192,55781,1,0,0:0:0:0:
448,192,56015,128,0,56250:0:0:0:0:
192,192,56015,1,0,0:0:0:0:
320,192,56250,128,0,56718:0:0:0:0:
192,192,56250,1,0,0:0:0:0:
64,192,56484,128,0,56718:0:0:0:0:
448,192,56601,1,0,0:0:0:0:
192,192,56718,128,0,57187:0:0:0:0:
448,192,56718,1,0,0:0:0:0:
320,192,56953,128,0,57187:0:0:0:0:
64,192,56953,1,0,0:0:0:0:
448,192,57187,128,0,57656:0:0:0:0:
64,192,57187,1,0,0:0:0:0:
192,192,57421,128,0,57656:0:0:0:0:
320,192,57421,1,0,0:0:0:0:
64,192,57656,128,0,58125:0:0:0:0:
320,192,57656,1,0,0:0:0:0:
448,192,57890,128,0,58125:0:0:0:0:
192,192,57890,1,0,0:0:0:0:
320,192,58125,128,0,58593:0:0:0:0:
192,192,58125,1,0,0:0:0:0:
64,192,58359,128,0,58593:0:0:0:0:
448,192,58476,1,0,0:0:0:0:
192,192,58593,128,0,59062:0:0:0:0:
448,192,58593,1,0,0:0:0:0:
320,192,58828,128,0,59062:0:0:0:0:
64,192,58828,1,0,0:0:0:0:
448,192,59062,128,0,59531:0:0:0:0:
64,192,59062,1,0,0:0:0:0:
64,192,59296,128,0,59531:0:0:0:0:
192,192,59296,1,0,0:0:0:0:
320,192,59531,128,0,60000:0:0:0:0:
192,192,59531,1,0,0:0:0:0:
448,192,59765,128,0,60000:0:0:0:0:
64,192,59765,1,0,0:0:0:0:
64,192,60000,5,0,0:0:0:0:
192,192,60000,1,0,0:0:0:0:
320,192,60117,1,0,0:0:0:0:
64,192,60234,1,0,0:0:0:0:
448,192,60234,1,0,0:0:0:0:
192,192,60351,1,0,0:0:0:0:
320,192,60351,1,0,0:0:0:0:
320,192,60468,1,0,0:0:0:0:
448,192,60468,1,0,0:0:0:0:
64,192,60585,1,0,0:0:0:0:
192,192,60703,1,0,0:0:0:0:
448,192,60703,1,0,0:0:0:0:
64,192,60820,1,0,0:0:0:0:
320,192,60937,1,0,0:0:0:0:
448,192,60937,1,0,0:0:0:0:
192,192,60996,1,0,0:0:0:0:
64,192,60996,1,0,0:0:0:0:
320,192,61054,1,0,0:0:0:0:
448,192,61054,1,0,0:0:0:0:
64,192,61171,1,0,0:0:0:0:
192,192,61171,1,0,0:0:0:0:
320,192,61289,1,0,0:0:0:0:
64,192,61406,1,0,0:0:0:0:
448,192,61406,1,0,0:0:0:0:
192,192,61523,1,0,0:0:0:0:
64,192,61640,1,0,0:0:0:0:
320,192,61640,1,0,0:0:0:0:
448,192,61757,1,0,0:0:0:0:
192,192,61875,1,0,0:0:0:0:
320,192,61875,1,0,0:0:0:0:
64,192,61992,1,0,0:0:0:0:
320,192,62109,1,0,0:0:0:0:
448,192,62109,1,0,0:0:0:0:
192,192,62226,1,0,0:0:0:0:
64,192,62226,1,0,0:0:0:0:
64,192,62343,1,0,0:0:0:0:
448,192,62343,1,0,0:0:0:0:
320,192,62343,1,0,0:0:0:0:
320,192,62460,1,0,0:0:0:0:
64,192,62578,1,0,0:0:0:0:
192,192,62578,1,0,0:0:0:0:
448,192,62695,1,0,0:0:0:0:
64,192,62812,1,0,0:0:0:0:
320,192,62812,1,0,0:0:0:0:
192,192,62929,1,0,0:0:0:0:
64,192,63046,1,0,0:0:0:0:
448,192,63046,1,0,0:0:0:0:
320,192,63164,1,0,0:0:0:0:
192,192,63164,1,0,0:0:0:0:
64,192,63281,1,0,0:0:0:0:
448,192,63281,1,0,0:0:0:0:
192,192,63398,1,0,0:0:0:0:
448,192,63515,1,0,0:0:0:0:
192,192,63515,1,0,0:0:0:0:
320,192,63632,1,0,0:0:0:0:
64,192,63632,1,0,0:0:0:0:
192,192,63750,1,0,0:0:0:0:
448,192,63750,1,0,0:0:0:0:
320,192,63867,1,0,0:0:0:0:
64,192,63984,1,0,0:0:0:0:
192,192,64101,1,0,0:0:0:0:
320,192,64101,1,0,0:0:0:0:
448,192,64218,1,0,0:0:0:0:
192,192,64218,1,0,0:0:0:0:
320,192,64335,1,0,0:0:0:0:
64,192,64453,1,0,0:0:0:0:
192,192,64453,1,0,0:0:0:0:
320,192,64570,1,0,0:0:0:0:
64,192,64687,1,0,0:0:0:0:
448,192,64687,1,0,0:0:0:0:
192,192,64804,1,0,0:0:0:0:
320,192,64804,1,0,0:0:0:0:
448,192,64921,1,0,0:0:0:0:
320,192,65039,1,0,0:0:0:0:
192,192,65156,1,0,0:0:0:0:
64,192,65156,1,0,0:0:0:0:
320,192,65273,1,0,0:0:0:0:
448,192,65390,1,0,0:0:0:0:
64,192,65390,1,0,0:0:0:0:
192,192,65507,1,0,0:0:0:0:
320,192,65625,1,0,0:0:0:0:
448,192,65625,1,0,0:0:0:0:
64,192,65742,1,0,0:0:0:0:
448,192,65742,1,0,0:0:0:0:
64,192,65859,1,0,0:0:0:0:
320,192,65859,1,0,0:0:0:0:
192,192,65976,1,0,0:0:0:0:
320,192,65976,1,0,0:0:0:0:
192,192,66093,1,0,0:0:0:0:
64,192,66093,1,0,0:0:0:0:
64,192,66210,1,0,0:0:0:0:
448,192,66210,1,0,0:0:0:0:
320,192,66328,1,0,0:0:0:0:
448,192,66328,1,0,0:0:0:0:
64,192,66445,1,0,0:0:0:0:
320,192,66445,1,0,0:0:0:0:
64,192,66562,1,0,0:0:0:0:
192,192,66562,1,0,0:0:0:0:
192,192,66679,1,0,0:0:0:0:
448,192,66679,1,0,0:0:0:0:
64,192,66796,1,0,0:0:0:0:
448,192,66796,1,0,0:0:0:0:
64,192,66914,1,0,0:0:0:0:
320,192,66914,1,0,0:0:0:0:
320,192,67031,1,0,0:0:0:0:
448,192,67031,1,0,0:0:0:0:
192,192,67148,1,0,0:0:0:0:
448,192,67148,1,0,0:0:0:0:
64,192,67265,1,0,0:0:0:0:
192,192,67265,1,0,0:0:0:0:
64,192,67382,1,0,0:0:0:0:
320,192,67382,1,0,0:0:0:0:
192,192,67500,1,0,0:0:0:0:
448,192,67500,1,0,0:0:0:0:
320,192,67500,1,0,0:0:0:0:
192,192,67617,1,0,0:0:0:0:
64,192,67617,1,0,0:0:0:0:
448,192,67734,1,0,0:0:0:0:
64,192,67734,1,0,0:0:0:0:
192,192,67851,1,0,0:0:0:0:
448,192,67851,1,0,0:0:0:0:
192,192,67968,1,0,0:0:0:0:
320,192,67968,1,0,0:0:0:0:
320,192,68085,1,0,0:0:0:0:
64,192,68085,1,0,0:0:0:0:
448,192,68203,1,0,0:0:0:0:
64,192,68203,1,0,0:0:0:0:
192,192,68320,1,0,0:0:0:0:
448,192,68320,1,0,0:0:0:0:
320,192,68437,1,0,0:0:0:0:
192,192,68437,1,0,0:0:0:0:
64,192,68554,1,0,0:0:0:0:
320,192,68554,1,0,0:0:0:0:
448,192,68671,1,0,0:0:0:0:
64,192,68671,1,0,0:0:0:0:
192,192,68789,1,0,0:0:0:0:
448,192,68789,1,0,0:0:0:0:
192,192,68906,1,0,0:0:0:0:
320,192,68906,1,0,0:0:0:0:
64,192,69023,1,0,0:0:0:0:
320,192,69023,1,0,0:0:0:0:
64,192,69140,1,0,0:0:0:0:
192,192,69140,1,0,0:0:0:0:
192,192,69257,1,0,0:0:0:0:
320,192,69257,1,0,0:0:0:0:
320,192,69375,1,0,0:0:0:0:
64,192,69375,1,0,0:0:0:0:
448,192,69375,1,0,0:0:0:0:
448,192,69492,1,0,0:0:0:0:
64,192,69492,1,0,0:0:0:0:
320,192,69609,1,0,0:0:0:0:
192,192,69609,1,0,0:0:0:0:
64,192,69726,1,0,0:0:0:0:
320,192,69726,1,0,0:0:0:0:
448,192,69843,1,0,0:0:0:0:
192,192,69843,1,0,0:0:0:0:
64,192,69960,1,0,0:0:0:0:
192,192,69960,1,0,0:0:0:0:
448,192,70019,1,0,0:0:0:0:
320,192,70019,1,0,0:0:0:0:
64,192,70078,1,0,0:0:0:0:
192,192,70078,1,0,0:0:0:0:
448,192,70195,1,0,0:0:0:0:
320,192,70195,1,0,0:0:0:0:
192,192,70253,1,0,0:0:0:0:
64,192,70253,1,0,0:0:0:0:
448,192,70312,1,0,0:0:0:0:
320,192,70312,1,0,0:0:0:0:
64,192,70429,1,0,0:0:0:0:
192,192,70429,1,0,0:0:0:0:
320,192,70488,1,0,0:0:0:0:
448,192,70488,1,0,0:0:0:0:
64,192,70546,1,0,0:0:0:0:
192,192,70546,1,0,0:0:0:0:
320,192,70664,1,0,0:0:0:0:
448,192,70664,1,0,0:0:0:0:
192,192,70722,1,0,0:0:0:0:
64,192,70722,1,0,0:0:0:0:
320,192,70781,1,0,0:0:0:0:
448,192,70781,1,0,0:0:0:0:
192,192,70898,1,0,0:0:0:0:
64,192,70898,1,0,0:0:0:0:
192,192,71015,1,0,0:0:0:0:
448,192,71015,1,0,0:0:0:0:
320,192,71132,1,0,0:0:0:0:
448,192,71132,1,0,0:0:0:0:
64,192,71250,1,0,0:0:0:0:
192,192,71250,1,0,0:0:0:0:
320,192,71250,1,0,0:0:0:0:
192,192,71601,1,0,0:0:0:0:
320,192,71953,5,0,0:0:0:0:
448,192,72304,1,0,0:0:0:0:
320,192,72656,1,0,0:0:0:0:
192,192,72890,1,0,0:0:0:0:
448,192,73125,5,0,0:0:0:0:
320,192,73476,1,0,0:0:0:0:
192,192,73828,1,0,0:0:0:0:
320,192,74179,5,0,0:0:0:0:
448,192,74179,1,0,0:0:0:0:
64,192,74179,1,0,0:0:0:0:
192,192,74179,1,0,0:0:0:0:
320,192,74296,1,0,0:0:0:0:
448,192,74296,1,0,0:0:0:0:
64,192,74296,1,0,0:0:0:0:
192,192,74296,1,0,0:0:0:0:
192,192,74414,1,0,0:0:0:0:
64,192,74531,1,0,0:0:0:0:
192,192,74531,1,0,0:0:0:0:
448,192,74531,1,0,0:0:0:0:
320,192,74531,1,0,0:0:0:0:
64,192,74648,1,0,0:0:0:0:
192,192,74648,1,0,0:0:0:0:
448,192,74648,1,0,0:0:0:0:
320,192,74648,1,0,0:0:0:0:
448,192,74765,1,0,0:0:0:0:
320,192,74794,1,0,0:0:0:0:
192,192,74824,1,0,0:0:0:0:
64,192,74853,1,0,0:0:0:0:
448,192,74882,1,0,0:0:0:0:
320,192,74912,1,0,0:0:0:0:
192,192,74941,1,0,0:0:0:0:
64,192,74970,1,0,0:0:0:0:
320,192,75000,1,0,0:0:0:0:
448,192,75000,1,0,0:0:0:0:
192,192,75058,1,0,0:0:0:0:
64,192,75117,1,0,0:0:0:0:
320,192,75175,1,0,0:0:0:0:
192,192,75234,1,0,0:0:0:0:
448,192,75234,1,0,0:0:0:0:
64,192,75292,1,0,0:0:0:0:
320,192,75351,1,0,0:0:0:0:
192,192,75410,1,0,0:0:0:0:
448,192,75468,1,0,0:0:0:0:
320,192,75468,1,0,0:0:0:0:
64,192,75527,1,0,0:0:0:0:
192,192,75585,1,0,0:0:0:0:
448,192,75644,1,0,0:0:0:0:
320,192,75703,1,0,0:0:0:0:
64,192,75703,1,0,0:0:0:0:
192,192,75761,1,0,0:0:0:0:
64,192,75820,1,0,0:0:0:0:
320,192,75878,1,0,0:0:0:0:
448,192,75937,1,0,0:0:0:0:
192,192,75937,1,0,0:0:0:0:
64,192,75996,1,0,0:0:0:0:
320,192,76054,1,0,0:0:0:0:
192,192,76113,1,0,0:0:0:0:
64,192,76171,1,0,0:0:0:0:
320,192,76171,1,0,0:0:0:0:
448,192,76230,1,0,0:0:0:0:
192,192,76289,1,0,0:0:0:0:
320,192,76347,1,0,0:0:0:0:
192,192,76406,1,0,0:0:0:0:
64,192,76406,1,0,0:0:0:0:
448,192,76464,1,0,0:0:0:0:
320,192,76523,1,0,0:0:0:0:
192,192,76582,1,0,0:0:0:0:
64,192,76640,1,0,0:0:0:0:
448,192,76640,1,0,0:0:0:0:
192,192,76699,1,0,0:0:0:0:
320,192,76757,1,0,0:0:0:0:
64,192,76816,1,0,0:0:0:0:
192,192,76875,1,0,0:0:0:0:
448,192,76875,1,0,0:0:0:0:
320,192,76933,1,0,0:0:0:0:
64,192,76992,1,0,0:0:0:0:
192,192,77050,1,0,0:0:0:0:
320,192,77109,1,0,0:0:0:0:
448,192,77109,1,0,0:0:0:0:
192,192,77167,1,0,0:0:0:0:
64,192,77226,1,0,0:0:0:0:
320,192,77285,1,0,0:0:0:0:
192,192,77343,1,0,0:0:0:0:
448,192,77343,1,0,0:0:0:0:
64,192,77402,1,0,0:0:0:0:
320,192,77460,1,0,0:0:0:0:
448,192,77519,1,0,0:0:0:0:
192,192,77578,1,0,0:0:0:0:
64,192,77578,1,0,0:0:0:0:
320,192,77636,1,0,0:0:0:0:
448,192,77695,1,0,0:0:0:0:
192,192,77753,1,0,0:0:0:0:
320,192,77812,1,0,0:0:0:0:
64,192,77812,1,0,0:0:0:0:
448,192,77871,1,0,0:0:0:0:
192,192,77929,1,0,0:0:0:0:
320,192,77988,1,0,0:0:0:0:
64,192,78046,1,0,0:0:0:0:
192,192,78046,1,0,0:0:0:0:
448,192,78105,1,0,0:0:0:0:
320,192,78164,1,0,0:0:0:0:
192,192,78222,1,0,0:0:0:0:
64,192,78281,1,0,0:0:0:0:
320,192,78281,1,0,0:0:0:0:
192,192,78339,1,0,0:0:0:0:
448,192,78398,1,0,0:0:0:0:
320,192,78457,1,0,0:0:0:0:
192,192,78515,1,0,0:0:0:0:
64,192,78515,1,0,0:0:0:0:
320,192,78574,1,0,0:0:0:0:
448,192,78632,1,0,0:0:0:0:
192,192,78691,1,0,0:0:0:0:
320,192,78750,1,0,0:0:0:0:
64,192,78750,1,0,0:0:0:0:
448,192,78808,1,0,0:0:0:0:
192,192,78867,1,0,0:0:0:0:
320,192,78925,1,0,0:0:0:0:
64,192,78984,1,0,0:0:0:0:
448,192,78984,1,0,0:0:0:0:
192,192,79042,1,0,0:0:0:0:
64,192,79101,1,0,0:0:0:0:
320,192,79160,1,0,0:0:0:0:
192,192,79218,1,0,0:0:0:0:
448,192,79218,1,0,0:0:0:0:
64,192,79277,1,0,0:0:0:0:
448,192,79335,1,0,0:0:0:0:
320,192,79394,1,0,0:0:0:0:
192,192,79453,1,0,0:0:0:0:
64,192,79453,1,0,0:0:0:0:
320,192,79511,1,0,0:0:0:0:
448,192,79570,1,0,0:0:0:0:
64,192,79628,1,0,0:0:0:0:
192,192,79687,1,0,0:0:0:0:
320,192,79687,1,0,0:0:0:0:
64,192,79746,1,0,0:0:0:0:
448,192,79804,1,0,0:0:0:0:
320,192,79863,1,0,0:0:0:0:
192,192,79921,1,0,0:0:0:0:
64,192,79921,1,0,0:0:0:0:
320,192,79980,1,0,0:0:0:0:
448,192,80039,1,0,0:0:0:0:
192,192,80097,1,0,0:0:0:0:
320,192,80156,1,0,0:0:0:0:
64,192,80156,1,0,0:0:0:0:
448,192,80214,1,0,0:0:0:0:
192,192,80273,1,0,0:0:0:0:
320,192,80332,1,0,0:0:0:0:
448,192,80390,1,0,0:0:0:0:
192,192,80390,1,0,0:0:0:0:
64,192,80449,1,0,0:0:0:0:
320,192,80507,1,0,0:0:0:0:
192,192,80566,1,0,0:0:0:0:
64,192,80625,1,0,0:0:0:0:
448,192,80625,1,0,0:0:0:0:
320,192,80683,1,0,0:0:0:0:
192,192,80742,1,0,0:0:0:0:
64,192,80742,1,0,0:0:0:0:
448,192,80800,1,0,0:0:0:0:
320,192,80859,1,0,0:0:0:0:
192,192,80917,1,0,0:0:0:0:
448,192,80976,1,0,0:0:0:0:
64,192,80976,1,0,0:0:0:0:
320,192,81035,1,0,0:0:0:0:
448,192,81093,1,0,0:0:0:0:
192,192,81093,1,0,0:0:0:0:
64,192,81152,1,0,0:0:0:0:
320,192,81210,1,0,0:0:0:0:
192,192,81210,1,0,0:0:0:0:
448,192,81269,1,0,0:0:0:0:
64,192,81328,1,0,0:0:0:0:
320,192,81328,1,0,0:0:0:0:
192,192,81386,1,0,0:0:0:0:
448,192,81445,1,0,0:0:0:0:
320,192,81503,1,0,0:0:0:0:
192,192,81562,1,0,0:0:0:0:
64,192,81562,1,0,0:0:0:0:
320,192,81621,1,0,0:0:0:0:
64,192,81679,1,0,0:0:0:0:
448,192,81679,1,0,0:0:0:0:
192,192,81738,1,0,0:0:0:0:
320,192,81796,1,0,0:0:0:0:
448,192,81796,1,0,0:0:0:0:
64,192,81855,1,0,0:0:0:0:
192,192,81914,1,0,0:0:0:0:
320,192,81914,1,0,0:0:0:0:
448,192,81972,1,0,0:0:0:0:
64,192,82031,1,0,0:0:0:0:
192,192,82031,1,0,0:0:0:0:
320,192,82089,1,0,0:0:0:0:
64,192,82148,1,0,0:0:0:0:
192,192,82148,1,0,0:0:0:0:
320,192,82207,1,0,0:0:0:0:
64,192,82265,1,0,0:0:0:0:
192,192,82294,1,0,0:0:0:0:
320,192,82324,1,0,0:0:0:0:
448,192,82353,1,0,0:0:0:0:
64,192,82382,1,0,0:0:0:0:
192,192,82412,1,0,0:0:0:0:
320,192,82441,1,0,0:0:0:0:
448,192,82470,1,0,0:0:0:0:
64,192,82500,1,0,0:0:0:0:
192,192,82500,1,0,0:0:0:0:
