osu file format v14

[General]
AudioFilename: audio.mp3
AudioLeadIn: 0
PreviewTime: 14283
Countdown: 0
SampleSet: Soft
StackLeniency: 0.7
Mode: 0
LetterboxInBreaks: 0
WidescreenStoryboard: 0

[Editor]
DistanceSpacing: 1.9
BeatDivisor: 4
GridSize: 8
TimelineZoom: 1

[Metadata]
Title:My Innermost Apocalypse
TitleUnicode:My Innermost Apocalypse
Artist:Danny Baranowsky
ArtistUnicode:Danny Baranowsky
Creator:MagicNAT
Version:Light Insane
Source:The Binding of Isaac
Tags:
BeatmapID:979011
BeatmapSetID:456820

[Difficulty]
HPDrainRate:6
CircleSize:4
OverallDifficulty:7
ApproachRate:8
SliderMultiplier:1.8
SliderTickRate:2

[Events]
//Background and Video events
0,0,"maxresdefault (2).jpg",0,0
//Break Periods
2,35596,41980
//Storyboard Layer 0 (Background)
//Storyboard Layer 1 (Fail)
//Storyboard Layer 2 (Pass)
//Storyboard Layer 3 (Foreground)
//Storyboard Sound Samples

[TimingPoints]
60,444.480661387224,4,2,0,100,1,0

[HitObjects]
98,88,60,5,2,0:0:0:0:
77,257,282,1,0,0:0:0:0:
233,187,504,1,0,0:0:0:0:
291,312,726,1,0,0:0:0:0:
331,104,1393,2,0,P|376:129|396:171,1,90
299,191,1837,1,2,0:0:0:0:
86,29,2504,1,0,0:0:0:0:
191,196,3171,6,2,P|215:156|262:138,1,90
283,232,3615,1,2,0:0:0:0:
452,207,3838,1,0,0:0:0:0:
295,137,4060,1,0,0:0:0:0:
387,63,4282,1,0,0:0:0:0:
447,251,4727,2,0,P|412:285|406:288,1,45
376,213,4949,2,0,P|370:160|406:123,1,90
474,183,5393,1,2,0:0:0:0:
188,99,6060,1,0,0:0:0:0:
142,314,6504,5,0,0:0:0:0:
201,215,6727,1,2,0:0:0:0:
201,215,6838,1,0,0:0:0:0:
251,283,6949,1,2,0:0:0:0:
251,283,7060,1,0,0:0:0:0:
325,216,7171,2,0,P|351:172|389:152,1,90
227,198,7616,1,2,0:0:0:0:
227,198,7838,2,0,P|184:223|172:225,1,45
156,152,8060,2,0,P|117:182|104:229,1,90
221,119,8505,1,2,0:0:0:0:
221,119,8727,6,0,P|270:138|277:138,1,45
331,105,8949,2,0,P|287:63|254:60,1,90
248,212,9394,1,2,0:0:0:0:
248,212,9616,6,0,P|300:183|306:182,1,45
310,259,9838,2,0,P|262:293|221:294,1,90
226,142,10283,1,2,0:0:0:0:
226,142,10505,6,0,P|267:112|273:106,1,45
205,65,10727,2,0,P|160:85|141:122,1,90
292,190,11172,1,2,0:0:0:0:
292,190,11394,2,0,P|337:175|344:168,1,45
313,103,11616,1,0,0:0:0:0:
196,201,11838,1,0,0:0:0:0:
111,73,12060,1,2,0:0:0:0:
39,208,12283,1,0,0:0:0:0:
190,118,12505,6,0,P|218:75|253:60,1,90,2|0,0:0|0:0,0:0:0:0:
275,211,12949,2,0,P|313:249|355:264,1,90,2|0,0:0|0:0,0:0:0:0:
382,113,13394,1,2,0:0:0:0:
246,41,13616,1,0,0:0:0:0:
216,191,13838,1,2,0:0:0:0:
339,32,14061,1,0,0:0:0:0:
179,114,14283,5,2,0:0:0:0:
318,227,14505,1,0,0:0:0:0:
301,47,14727,1,0,0:0:0:0:
211,203,14950,1,0,0:0:0:0:
367,115,15172,1,2,0:0:0:0:
188,93,15394,1,0,0:0:0:0:
314,220,15616,1,0,0:0:0:0:
315,48,15839,2,0,P|285:74|274:92,1,45
258,162,16061,1,2,0:0:0:0:
355,285,16283,5,0,0:0:0:0:
409,113,16505,1,2,0:0:0:0:
223,162,16728,1,0,0:0:0:0:
298,102,16950,2,0,P|248:70|181:79,1,90,2|0,0:0|0:0,0:0:0:0:
223,162,17394,2,0,P|181:191|105:200,1,90,2|0,0:0|0:0,0:0:0:0:
63,39,17839,1,2,0:0:0:0:
143,199,18061,1,0,0:0:0:0:
222,82,18283,1,0,0:0:0:0:
309,161,18505,2,0,P|347:190|356:193,1,45
382,106,18728,1,2,0:0:0:0:
119,273,19172,5,0,0:0:0:0:
203,114,19394,2,0,P|243:152|262:160,1,45
319,115,19617,2,0,P|336:167|323:207,1,90,2|0,0:0|0:0,0:0:0:0:
147,190,20061,2,0,P|172:237|216:267,1,90,2|0,0:0|0:0,0:0:0:0:
359,175,20506,2,0,P|393:219|396:268,1,90,2|0,0:0|0:0,0:0:0:0:
289,308,20950,2,0,P|333:333|373:330,1,90,2|0,0:0|0:0,0:0:0:0:
270,180,21395,5,2,0:0:0:0:
115,88,21617,2,0,P|168:99|174:99,1,45
238,57,21839,1,0,0:0:0:0:
425,59,22061,1,2,0:0:0:0:
402,99,22728,6,2,P|365:131|315:133,1,90
156,73,23172,1,0,0:0:0:0:
221,241,23395,2,0,P|264:268|274:269,1,45
332,216,23617,1,0,0:0:0:0:
468,333,23839,1,2,0:0:0:0:
466,278,24284,5,0,0:0:0:0:
332,216,24506,1,2,0:0:0:0:
115,282,24950,1,2,0:0:0:0:
188,117,25173,2,0,P|238:102|250:95,1,45
299,163,25395,1,0,0:0:0:0:
443,56,25617,1,2,0:0:0:0:
440,104,26284,6,2,P|420:153|388:174,1,90
290,111,26728,1,2,0:0:0:0:
211,235,26951,1,0,0:0:0:0:
142,89,27173,1,0,0:0:0:0:
74,255,27395,1,0,0:0:0:0:
230,165,27617,1,2,0:0:0:0:
329,289,27840,1,0,0:0:0:0:
331,121,28062,1,0,0:0:0:0:
430,168,28284,1,0,0:0:0:0:
253,200,28506,6,0,P|216:164|210:112,1,90,2|0,0:0|0:0,0:0:0:0:
384,164,28951,1,0,0:0:0:0:
149,188,29173,1,2,0:0:0:0:
204,213,29840,6,0,P|260:228|293:221,1,90,2|0,0:0|0:0,0:0:0:0:
376,95,30284,1,2,0:0:0:0:
455,256,30506,1,0,0:0:0:0:
288,187,30729,1,0,0:0:0:0:
136,284,30951,1,2,0:0:0:0:
207,118,31173,1,0,0:0:0:0:
292,276,31395,1,0,0:0:0:0:
386,122,31618,1,2,0:0:0:0:
415,299,31840,1,0,0:0:0:0:
278,181,32062,6,2,P|237:144|229:107,1,90
403,66,32507,1,0,0:0:0:0:
346,236,32729,1,2,0:0:0:0:
113,72,33396,1,2,0:0:0:0:
111,180,33840,2,0,P|162:197|206:187,1,90,2|0,0:0|0:0,0:0:0:0:
235,83,34285,2,0,P|280:69|329:84,1,90,2|0,0:0|0:0,0:0:0:0:
439,213,34729,1,0,0:0:0:0:
321,81,34951,1,2,0:0:0:0:
197,211,35173,1,0,0:0:0:0:
84,69,35396,1,0,0:0:0:0:
123,77,42730,5,2,0:0:0:0:
250,122,42952,2,0,P|305:99|320:96,1,45
337,166,43174,1,0,0:0:0:0:
210,212,43396,1,0,0:0:0:0:
123,77,43619,5,2,0:0:0:0:
275,131,43841,2,0,P|341:103|350:102,1,45
379,183,44063,1,0,0:0:0:0:
227,239,44285,1,0,0:0:0:0:
61,193,44508,5,2,0:0:0:0:
101,358,44730,2,0,P|146:350|152:348,1,45
116,269,44952,1,0,0:0:0:0:
277,324,45174,1,0,0:0:0:0:
189,176,45397,6,0,P|250:165|287:133,1,90,2|0,0:0|0:0,0:0:0:0:
417,239,45841,2,0,P|377:197|357:153,1,90,2|0,0:0|0:0,0:0:0:0:
273,38,46285,5,2,0:0:0:0:
121,136,46508,2,0,P|165:168|173:170,1,45
231,129,46730,1,0,0:0:0:0:
116,267,46952,1,0,0:0:0:0:
278,318,47174,5,2,0:0:0:0:
430,220,47397,2,0,P|386:188|378:186,1,45
320,227,47619,1,0,0:0:0:0:
436,90,47841,1,0,0:0:0:0:
265,80,48063,5,2,0:0:0:0:
104,141,48286,2,0,P|74:176|71:178,1,45
156,225,48508,1,0,0:0:0:0:
315,164,48730,2,0,P|346:201|349:202,1,45
257,218,48952,1,2,0:0:0:0:
264,46,49175,1,0,0:0:0:0:
383,167,49397,1,2,0:0:0:0:
471,19,49619,1,0,0:0:0:0:
311,78,49841,5,2,0:0:0:0:
164,167,50064,2,0,P|114:141|111:139,1,45
193,97,50286,1,0,0:0:0:0:
357,141,50508,1,0,0:0:0:0:
198,205,50730,5,2,0:0:0:0:
345,294,50953,2,0,P|395:268|398:266,1,45
316,224,51175,1,0,0:0:0:0:
152,268,51397,1,0,0:0:0:0:
285,161,51619,2,0,P|240:189|203:189,1,90,2|0,0:0|0:0,0:0:0:0:
292,42,52064,2,0,P|339:38|385:50,1,90,2|0,0:0|0:0,0:0:0:0:
330,211,52508,1,2,0:0:0:0:
183,122,52730,1,0,0:0:0:0:
339,51,52953,1,2,0:0:0:0:
219,218,53175,1,0,0:0:0:0:
365,130,53397,5,2,0:0:0:0:
213,51,53619,2,0,P|165:39|144:42,1,45
189,122,53842,2,0,P|223:164|272:188,1,90
365,130,54286,5,2,0:0:0:0:
213,51,54508,2,0,P|165:39|144:42,1,45
189,122,54731,2,0,P|223:164|272:188,1,90
326,114,55175,5,2,0:0:0:0:
146,107,55397,1,0,0:0:0:0:
227,268,55620,1,0,0:0:0:0:
244,54,55842,1,0,0:0:0:0:
343,203,56064,2,0,P|408:185|428:148,1,90,2|0,0:0|0:0,0:0:0:0:
242,136,56509,2,0,P|210:177|206:240,1,90,2|0,0:0|0:0,0:0:0:0:
326,114,56953,5,0,0:0:0:0:
432,247,57175,2,0,P|385:263|374:260,1,45
312,229,57398,1,0,0:0:0:0:
178,122,57620,1,0,0:0:0:0:
65,250,57842,1,2,0:0:0:0:
198,356,58064,1,0,0:0:0:0:
312,229,58286,1,0,0:0:0:0:
141,249,58509,1,0,0:0:0:0:
312,229,58731,6,0,P|378:192|397:159,1,90
249,78,59175,1,0,0:0:0:0:
233,248,59398,1,0,0:0:0:0:
82,167,59620,2,0,B|112:117|147:97|213:161|246:160,1,180,0|2,0:0|0:0,0:0:0:0:
382,53,60287,1,0,0:0:0:0:
334,226,60509,2,0,P|376:258|404:300,1,90
443,114,60953,2,0,P|465:72|465:69,1,45
382,53,61176,1,0,0:0:0:0:
292,198,61398,1,0,0:0:0:0:
159,90,61620,1,0,0:0:0:0:
94,247,61842,1,2,0:0:0:0:
347,194,62065,5,0,0:0:0:0:
242,135,62287,1,0,0:0:0:0:
418,102,62509,2,0,P|405:56|405:53,1,45
339,121,62731,1,2,0:0:0:0:
463,251,62953,2,0,P|450:205|450:202,1,45
365,241,63176,1,2,0:0:0:0:
221,132,63398,1,0,0:0:0:0:
149,297,63620,1,2,0:0:0:0:
109,130,63842,2,0,P|151:173|159:179,1,45,2|0,0:0|0:0,0:0:0:0:
183,89,64065,1,0,0:0:0:0:
320,70,64287,6,0,P|370:93|381:94,1,45
376,178,64509,1,0,0:0:0:0:
198,149,64731,1,0,0:0:0:0:
335,266,64954,1,2,0:0:0:0:
155,267,65176,1,0,0:0:0:0:
297,157,65398,1,2,0:0:0:0:
116,52,65843,1,0,0:0:0:0:
320,70,66065,6,0,P|370:93|381:94,1,45
376,178,66287,1,0,0:0:0:0:
198,149,66509,1,0,0:0:0:0:
335,266,66731,1,2,0:0:0:0:
155,267,66954,1,0,0:0:0:0:
297,157,67176,1,2,0:0:0:0:
117,158,67398,1,0,0:0:0:0:
213,68,67621,6,0,P|239:31|283:21,1,90
238,195,68065,2,0,P|187:230|125:232,1,90,2|0,0:0|0:0,0:0:0:0:
268,90,68510,1,0,0:0:0:0:
375,234,68732,1,0,0:0:0:0:
194,247,68954,1,2,0:0:0:0:
268,90,69176,1,0,0:0:0:0:
408,117,69398,2,0,P|365:148|353:148,1,45
310,82,69621,1,0,0:0:0:0:
278,259,69843,1,2,0:0:0:0:
140,143,70065,1,0,0:0:0:0:
313,190,70287,6,0,P|365:188|375:183,1,45,2|0,0:0|0:0,0:0:0:0:
409,116,70510,1,0,0:0:0:0:
240,54,70732,1,2,0:0:0:0:
205,230,70954,1,0,0:0:0:0:
107,78,71176,2,0,P|161:118|236:131,1,135
300,78,71621,1,0,0:0:0:0:
384,236,71843,1,0,0:0:0:0:
204,231,72065,1,2,0:0:0:0:
422,67,72510,6,0,P|393:108|344:123,1,90
329,47,72954,2,0,P|276:67|236:138,1,135
304,192,73399,1,0,0:0:0:0:
145,277,73621,1,0,0:0:0:0:
319,321,73843,1,2,0:0:0:0:
88,43,74288,1,2,0:0:0:0:
433,142,74732,6,0,P|393:188|321:218,1,135
300,130,75177,1,0,0:0:0:0:
428,255,75399,1,0,0:0:0:0:
414,75,75621,1,2,0:0:0:0:
88,229,76066,1,0,0:0:0:0:
175,71,76288,2,0,P|208:106|216:108,1,45
284,84,76510,6,0,P|276:148|243:182,1,90
185,176,76955,2,0,P|209:226|241:244,1,90
383,137,77399,1,2,0:0:0:0:
308,271,77621,1,0,0:0:0:0:
229,159,77844,1,2,0:0:0:0:
147,233,78066,1,0,0:0:0:0:
321,190,78288,6,0,P|378:174|421:102,1,135
330,95,78733,1,0,0:0:0:0:
368,270,78955,1,0,0:0:0:0:
250,142,79177,2,0,P|234:85|131:35,1,180,2|0,0:0|0:0,0:0:0:0:
209,228,80066,2,0,P|166:250|122:250,1,90
302,282,80510,2,0,P|344:318|385:334,1,90
295,169,80955,1,0,0:0:0:0:
189,314,81177,1,0,0:0:0:0:
375,331,81399,1,2,0:0:0:0:
384,150,81844,6,0,P|365:107|325:78,1,90
303,258,82288,2,0,P|265:297|256:302,1,45
185,268,82511,1,0,0:0:0:0:
304,146,82733,1,0,0:0:0:0:
124,147,82955,1,0,0:0:0:0:
303,258,83177,1,2,0:0:0:0:
121,257,83622,5,2,0:0:0:0:
283,334,83844,1,0,0:0:0:0:
217,166,84066,5,2,0:0:0:0:
283,334,84289,1,0,0:0:0:0:
377,180,84511,5,2,0:0:0:0:
283,334,84733,1,0,0:0:0:0:
462,330,84955,5,2,0:0:0:0:
283,334,85178,1,0,0:0:0:0:
280,163,85400,5,2,0:0:0:0:
