osu file format v14

[General]
AudioFilename: audio.mp3
AudioLeadIn: 0
PreviewTime: 14283
Countdown: 0
SampleSet: Soft
StackLeniency: 0.7
Mode: 0
LetterboxInBreaks: 0
WidescreenStoryboard: 1

[Editor]
Bookmarks: 42063
DistanceSpacing: 1.3
BeatDivisor: 4
GridSize: 8
TimelineZoom: 1

[Metadata]
Title:My Innermost Apocalypse
TitleUnicode:My Innermost Apocalypse
Artist:Danny Baranowsky
ArtistUnicode:Danny Baranowsky
Creator:MagicNAT
Version:Hard
Source:The Binding of Isaac
Tags:
BeatmapID:978885
BeatmapSetID:456820

[Difficulty]
HPDrainRate:5
CircleSize:4
OverallDifficulty:5
ApproachRate:8
SliderMultiplier:1.5
SliderTickRate:2

[Events]
//Background and Video events
0,0,"maxresdefault (2).jpg",0,0
//Break Periods
2,35596,41980
//Storyboard Layer 0 (Background)
//Storyboard Layer 1 (Fail)
//Storyboard Layer 2 (Pass)
//Storyboard Layer 3 (Foreground)
//Storyboard Sound Samples

[TimingPoints]
60,444.480661387224,4,2,0,100,1,0

[HitObjects]
92,90,60,5,2,0:0:0:0:
197,319,726,1,0,0:0:0:0:
380,91,1393,2,0,P|430:112|450:145,1,75
364,181,1837,1,0,0:0:0:0:
107,40,2504,1,0,0:0:0:0:
359,187,3171,6,0,P|326:222|287:226,1,75,2|0,0:0|0:0,0:0:0:0:
281,139,3615,1,0,0:0:0:0:
85,303,4282,1,0,0:0:0:0:
245,58,4949,2,0,P|291:59|328:84,1,75
260,146,5393,1,2,0:0:0:0:
76,328,6060,1,0,0:0:0:0:
366,296,6727,6,0,P|325:313|315:315,3,37.5,2|0|0|0,0:0|0:0|0:0|0:0,0:0:0:0:
280,248,7171,2,0,P|243:214|226:177,1,75
329,188,7616,2,0,P|370:203|385:213,3,37.5,2|0|0|0,0:0|0:0|0:0|0:0,0:0:0:0:
280,248,8060,6,0,P|232:263|180:255,1,75
217,164,8505,2,0,P|192:135|172:127,3,37.5,2|0|0|0,0:0|0:0|0:0|0:0,0:0:0:0:
148,195,8949,6,0,P|145:247|159:269,1,75
248,234,9394,2,0,P|291:246|300:252,3,37.5,2|0|0|0,0:0|0:0|0:0|0:0,0:0:0:0:
243,307,9838,6,0,P|211:327|165:327,1,75
175,231,10283,2,0,P|212:183|216:183,3,37.5,2|0|0|0,0:0|0:0|0:0|0:0,0:0:0:0:
254,230,10727,2,0,P|296:200|318:167,1,75,2|0,0:0|0:0,0:0:0:0:
373,256,11172,2,0,P|408:289|414:303,3,37.5,2|0|0|0,0:0|0:0|0:0|0:0,0:0:0:0:
338,318,11616,6,0,P|301:330|261:323,1,75
287,230,12060,2,0,P|251:203|246:202,3,37.5,2|0|0|0,0:0|0:0|0:0|0:0,0:0:0:0:
218,270,12505,2,0,P|181:284|140:269,1,75
202,133,12949,1,0,0:0:0:0:
295,162,13172,1,0,0:0:0:0:
221,225,13394,1,2,0:0:0:0:
130,189,13616,1,0,0:0:0:0:
91,278,13838,1,2,0:0:0:0:
18,212,14061,1,0,0:0:0:0:
65,126,14283,6,0,P|95:93|142:82,1,75,2|0,0:0|0:0,0:0:0:0:
193,149,14727,1,2,0:0:0:0:
265,83,14950,1,0,0:0:0:0:
300,173,15172,2,0,P|305:222|292:259,1,75
214,196,15616,1,2,0:0:0:0:
133,251,15839,2,0,P|96:275|87:277,2,37.5
90,163,16283,1,0,0:0:0:0:
179,201,16505,1,2,0:0:0:0:
208,107,16728,1,0,0:0:0:0:
292,155,16950,2,0,P|303:202|292:242,1,75,2|0,0:0|0:0,0:0:0:0:
218,161,17394,2,0,P|233:106|275:80,1,75,2|0,0:0|0:0,0:0:0:0:
337,125,17839,5,0,0:0:0:0:
140,293,18505,2,0,P|94:294|81:292,2,37.5,0|0|2,0:0|0:0|0:0,0:0:0:0:
422,217,19394,2,0,P|461:242|466:243,2,37.5,0|0|2,0:0|0:0|0:0,0:0:0:0:
463,128,19839,1,0,0:0:0:0:
420,215,20061,1,2,0:0:0:0:
359,138,20283,1,0,0:0:0:0:
319,227,20506,2,0,P|297:259|259:278,1,75,2|0,0:0|0:0,0:0:0:0:
237,183,20950,2,0,P|212:141|181:121,1,75,2|0,0:0|0:0,0:0:0:0:
125,198,21395,5,2,0:0:0:0:
84,286,21617,2,0,P|119:323|126:327,2,37.5
181,287,22061,1,2,0:0:0:0:
231,304,22728,6,0,P|276:322|311:325,1,75,2|0,0:0|0:0,0:0:0:0:
385,274,23172,1,0,0:0:0:0:
319,201,23395,2,0,P|363:183|366:183,2,37.5
269,285,23839,1,2,0:0:0:0:
246,238,24284,5,0,0:0:0:0:
324,295,24506,2,0,P|283:327|245:331,1,75
170,296,24950,1,2,0:0:0:0:
246,238,25173,2,0,P|293:217|298:217,2,37.5
156,200,25617,1,2,0:0:0:0:
408,52,26284,6,0,P|366:97|361:97,2,37.5,2|0|0,0:0|0:0|0:0,0:0:0:0:
311,66,26728,2,0,P|291:107|301:145,1,75,2|0,0:0|0:0,0:0:0:0:
390,159,27173,2,0,P|376:202|344:225,1,75,2|0,0:0|0:0,0:0:0:0:
257,206,27617,1,2,0:0:0:0:
258,303,27840,1,0,0:0:0:0:
169,261,28062,1,2,0:0:0:0:
152,356,28284,1,0,0:0:0:0:
81,289,28506,6,0,P|66:236|86:199,1,75,2|0,0:0|0:0,0:0:0:0:
169,261,28951,1,0,0:0:0:0:
201,169,29173,1,2,0:0:0:0:
250,168,29840,6,0,P|294:176|301:180,2,37.5,2|0|0,0:0|0:0|0:0,0:0:0:0:
290,256,30284,2,0,P|334:282|392:278,1,75,2|0,0:0|0:0,0:0:0:0:
357,187,30729,1,0,0:0:0:0:
274,238,30951,1,2,0:0:0:0:
241,146,31173,1,0,0:0:0:0:
157,196,31395,1,0,0:0:0:0:
168,98,31618,1,0,0:0:0:0:
216,87,32062,6,0,P|262:84|274:86,2,37.5,2|0|0,0:0|0:0|0:0,0:0:0:0:
287,155,32507,1,0,0:0:0:0:
227,232,32729,1,2,0:0:0:0:
116,105,33396,1,2,0:0:0:0:
152,195,33618,2,0,P|131:230|131:242,2,37.5
204,277,34062,1,2,0:0:0:0:
287,225,34285,1,0,0:0:0:0:
345,303,34507,1,2,0:0:0:0:
420,240,34729,5,0,0:0:0:0:
383,146,34951,1,2,0:0:0:0:
304,203,35173,1,0,0:0:0:0:
269,111,35396,1,2,0:0:0:0:
109,92,42730,5,0,0:0:0:0:
170,167,42952,2,0,P|208:178|222:178,2,37.5
225,86,43396,1,2,0:0:0:0:
293,155,43619,5,0,0:0:0:0:
353,231,43841,2,0,P|393:203|399:198,2,37.5
261,263,44285,1,2,0:0:0:0:
190,194,44508,6,0,P|158:163|151:119,1,75
247,133,44952,2,0,P|298:147|320:165,1,75,0|2,0:0|0:0,0:0:0:0:
246,229,45397,1,0,0:0:0:0:
159,184,45619,2,0,P|103:213|96:215,2,37.5
185,90,46063,1,2,0:0:0:0:
255,156,46285,5,0,0:0:0:0:
231,250,46508,2,0,P|188:272|184:272,2,37.5
301,316,46952,1,2,0:0:0:0:
365,242,47174,5,0,0:0:0:0:
300,168,47397,2,0,P|334:137|337:129,2,37.5
217,116,47841,1,2,0:0:0:0:
177,204,48063,6,0,P|126:243|85:252,1,75
202,292,48508,2,0,P|236:325|282:342,1,75,0|2,0:0|0:0,0:0:0:0:
322,261,48952,1,0,0:0:0:0:
269,178,49175,2,0,P|311:141|320:140,2,37.5
365,187,49619,1,2,0:0:0:0:
300,260,49841,6,0,P|256:268|221:247,1,75
285,175,50286,2,0,P|317:149|326:147,2,37.5,0|0|2,0:0|0:0|0:0,0:0:0:0:
370,221,50730,6,0,P|407:242|448:240,1,75
425,145,51175,2,0,P|456:110|468:107,2,37.5,0|0|2,0:0|0:0|0:0,0:0:0:0:
367,66,51619,5,0,0:0:0:0:
314,148,51841,1,2,0:0:0:0:
236,87,52064,1,0,0:0:0:0:
179,166,52286,1,2,0:0:0:0:
88,129,52508,2,0,P|61:170|57:200,1,75
154,205,52953,2,0,P|201:219|240:210,1,75,0|2,0:0|0:0,0:0:0:0:
292,144,53397,1,0,0:0:0:0:
360,213,53619,2,0,P|405:225|415:225,2,37.5
397,122,54064,1,2,0:0:0:0:
320,62,54286,5,0,0:0:0:0:
256,135,54508,2,0,P|299:158|306:158,2,37.5
162,164,54953,1,2,0:0:0:0:
229,234,55175,2,0,P|281:263|318:263,1,75
307,167,55620,2,0,P|281:125|236:109,1,75
193,184,56064,1,0,0:0:0:0:
123,115,56286,1,2,0:0:0:0:
73,199,56509,1,0,0:0:0:0:
10,124,56731,1,2,0:0:0:0:
98,83,56953,6,0,P|161:63|216:72,1,112.5
250,89,57398,1,0,0:0:0:0:
199,172,57620,1,0,0:0:0:0:
296,176,57842,1,2,0:0:0:0:
332,52,58286,2,0,P|380:74|404:106,1,75
311,142,58731,2,0,P|269:153|187:143,1,112.5
162,117,59175,1,0,0:0:0:0:
224,41,59398,1,0,0:0:0:0:
290,111,59620,1,2,0:0:0:0:
156,252,60064,1,2,0:0:0:0:
208,270,60509,6,0,P|252:278|334:270,1,112.5
364,255,60953,1,0,0:0:0:0:
307,175,61176,1,0,0:0:0:0:
254,256,61398,1,2,0:0:0:0:
139,98,61842,2,0,P|110:62|62:47,1,75
72,147,62287,2,0,P|102:201|129:206,1,75,2|0,0:0|0:0,0:0:0:0:
193,153,62731,2,0,P|187:106|167:83,1,75
120,169,63176,2,0,P|139:231|168:247,1,75,2|0,0:0|0:0,0:0:0:0:
227,184,63620,1,0,0:0:0:0:
298,249,63842,1,2,0:0:0:0:
364,177,64065,6,0,P|399:138|385:57,1,112.5
372,39,64509,1,0,0:0:0:0:
301,105,64731,1,0,0:0:0:0:
390,144,64954,1,2,0:0:0:0:
326,70,65176,1,0,0:0:0:0:
304,165,65398,1,2,0:0:0:0:
368,238,65620,5,0,0:0:0:0:
276,273,65843,2,0,P|239:251|216:203,1,75
174,309,66287,2,0,P|145:352|106:366,1,75
58,291,66732,1,2,0:0:0:0:
147,251,66954,1,0,0:0:0:0:
80,180,67176,1,0,0:0:0:0:
175,200,67398,1,0,0:0:0:0:
266,235,67621,6,0,P|319:245|326:244,2,37.5,2|0|0,0:0|0:0|0:0,0:0:0:0:
329,160,68065,1,0,0:0:0:0:
271,81,68287,1,0,0:0:0:0:
211,158,68510,2,0,P|171:178|159:181,2,37.5,2|0|0,0:0|0:0|0:0,0:0:0:0:
294,207,68954,1,0,0:0:0:0:
347,125,69176,1,0,0:0:0:0:
260,79,69398,2,0,P|206:64|172:72,1,75,2|0,0:0|0:0,0:0:0:0:
229,155,69843,2,0,P|269:195|306:211,1,75,2|0,0:0|0:0,0:0:0:0:
193,237,70287,2,0,P|154:226|109:236,1,75,2|0,0:0|0:0,0:0:0:0:
159,320,70732,2,0,P|201:352|222:358,1,75,2|0,0:0|0:0,0:0:0:0:
285,284,71176,6,0,P|321:252|347:178,1,112.5
321,151,71621,1,0,0:0:0:0:
237,201,71843,1,0,0:0:0:0:
316,257,72065,1,2,0:0:0:0:
444,109,72510,2,0,P|381:77|366:77,1,75
376,174,72954,2,0,P|341:199|301:209,1,75
257,126,73399,1,0,0:0:0:0:
192,198,73621,1,0,0:0:0:0:
129,123,73843,1,2,0:0:0:0:
55,303,74288,1,2,0:0:0:0:
248,324,74732,6,0,P|300:304|341:246,1,112.5
336,211,75177,1,0,0:0:0:0:
240,192,75399,1,0,0:0:0:0:
263,286,75621,1,2,0:0:0:0:
333,103,76066,5,0,0:0:0:0:
248,54,76288,1,0,0:0:0:0:
195,136,76510,2,0,P|153:166|127:175,1,75
214,225,76955,2,0,P|237:269|267:283,1,75,2|0,0:0|0:0,0:0:0:0:
327,212,77399,1,0,0:0:0:0:
383,291,77621,1,0,0:0:0:0:
447,217,77844,1,2,0:0:0:0:
496,301,78066,1,0,0:0:0:0:
447,217,78288,6,0,P|408:166|342:133,1,112.5,2|0,0:0|0:0,0:0:0:0:
318,136,78733,1,0,0:0:0:0:
340,230,78955,1,0,0:0:0:0:
247,199,79177,2,0,P|209:160|152:132,1,112.5,2|0,0:0|0:0,0:0:0:0:
109,142,79622,1,0,0:0:0:0:
155,227,79844,1,0,0:0:0:0:
222,157,80066,2,0,P|253:125|315:111,1,75,2|0,0:0|0:0,0:0:0:0:
303,207,80510,2,0,P|291:246|258:276,1,75,2|0,0:0|0:0,0:0:0:0:
196,202,80955,2,0,P|183:158|194:122,1,75,2|0,0:0|0:0,0:0:0:0:
279,166,81399,2,0,P|308:197|326:238,1,75,2|0,0:0|0:0,0:0:0:0:
231,262,81844,5,0,0:0:0:0:
140,297,82066,1,0,0:0:0:0:
147,199,82288,1,0,0:0:0:0:
326,122,82733,1,2,0:0:0:0:
131,127,83177,1,0,0:0:0:0:
208,186,83400,1,0,0:0:0:0:
284,125,83622,5,0,0:0:0:0:
348,197,83844,1,0,0:0:0:0:
276,263,84066,1,0,0:0:0:0:
208,186,84289,1,2,0:0:0:0:
160,105,84511,2,0,P|127:132|111:191,1,75
208,186,84955,1,0,0:0:0:0:
264,258,85178,1,2,0:0:0:0:
334,190,85400,1,0,0:0:0:0:
