osu file format v14

[General]
AudioFilename: audio.mp3
AudioLeadIn: 0
PreviewTime: 34425
Countdown: 0
SampleSet: Soft
StackLeniency: 0.7
Mode: 3
LetterboxInBreaks: 0
SpecialStyle: 0
WidescreenStoryboard: 1

[Editor]
DistanceSpacing: 1
BeatDivisor: 4
GridSize: 8
TimelineZoom: 1.912

[Metadata]
Title:For Whom the Knell Tolls (Dead Ringer)
TitleUnicode:For Whom the Knell Tolls (Dead Ringer)
Artist:Danny Baranowsky
ArtistUnicode:Danny Baranowsky
Creator:Modren
Version:Normal - Minotaur
Source:Crypt of the Necrodancer
Tags:Feel the rhythm bells MrDorian
BeatmapID:1066185
BeatmapSetID:500968

[Difficulty]
HPDrainRate:7.5
CircleSize:9
OverallDifficulty:7.5
ApproachRate:5
SliderMultiplier:1.4
SliderTickRate:1

[Events]
//Background and Video events
0,0,"maxresdefault2.jpg",0,0
//Break Periods
//Storyboard Layer 0 (Background)
//Storyboard Layer 1 (Fail)
//Storyboard Layer 2 (Pass)
//Storyboard Layer 3 (Foreground)
//Storyboard Sound Samples

[TimingPoints]
140,428.571428571429,4,2,0,25,1,0
34425,-100,4,2,0,25,0,1
54997,-100,4,2,0,25,0,0

[HitObjects]
312,192,140,128,0,1854:0:0:0:0:
142,192,140,1,0,0:0:0:40:Vintage Kick.mp3
256,192,354,1,0,0:0:0:40:Vintage Kick.mp3
28,192,568,1,0,0:0:0:10:FatSnare.mp3
199,192,568,1,0,0:0:0:10:FatSnare.mp3
85,192,1211,1,0,0:0:0:40:Vintage Kick.mp3
426,192,1425,1,0,0:0:0:10:FatSnare.mp3
256,192,1425,1,0,0:0:0:10:FatSnare.mp3
199,192,1854,128,0,3568:0:0:0:0:
369,192,1854,1,0,0:0:0:40:Vintage Kick.mp3
256,192,2068,1,0,0:0:0:40:Vintage Kick.mp3
483,192,2282,1,0,0:0:0:10:FatSnare.mp3
312,192,2282,1,0,0:0:0:10:FatSnare.mp3
85,192,2497,1,0,0:0:0:40:Vintage Kick.mp3
369,192,2711,1,0,0:0:0:20:FatSnare.mp3
426,192,2711,1,0,0:0:0:20:TechSnare.mp3
142,192,2925,1,0,0:0:0:40:Vintage Kick.mp3
256,192,3140,1,0,0:0:0:20:WoodSnare.mp3
312,192,3140,1,0,0:0:0:20:FatSnare.mp3
85,192,3568,128,0,5282:0:0:0:0:
256,192,3568,1,0,0:0:0:40:Vintage Kick.mp3
369,192,3782,1,0,0:0:0:40:Vintage Kick.mp3
142,192,3997,1,0,0:0:0:10:FatSnare.mp3
483,192,3997,1,0,0:0:0:10:FatSnare.mp3
256,192,4640,1,0,0:0:0:40:Vintage Kick.mp3
28,192,4854,1,0,0:0:0:10:FatSnare.mp3
369,192,4854,1,0,0:0:0:10:FatSnare.mp3
369,192,5282,128,0,6997:0:0:0:0:
142,192,5282,1,0,0:0:0:10:FatSnare.mp3
312,192,5282,1,0,0:0:0:10:FatSnare.mp3
142,192,5497,1,0,0:0:0:10:FatSnare.mp3
312,192,5497,1,0,0:0:0:10:FatSnare.mp3
142,192,5711,1,0,0:0:0:10:FatSnare.mp3
312,192,5711,1,0,0:0:0:10:FatSnare.mp3
426,192,6140,128,0,6997:0:0:0:0:
28,192,6140,1,0,0:0:0:10:FatSnare.mp3
256,192,6140,1,0,0:0:0:10:FatSnare.mp3
142,192,6354,1,0,0:0:0:40:Vintage Kick.mp3
85,192,6568,1,0,0:0:0:10:FatSnare.mp3
199,192,6568,1,0,0:0:0:10:FatSnare.mp3
483,192,6997,128,0,8711:0:0:0:0:
28,192,6997,1,0,0:0:0:40:Vintage Kick.mp3
142,192,7211,1,0,0:0:0:40:Vintage Kick.mp3
312,192,7425,1,0,0:0:0:10:FatSnare.mp3
256,192,7425,1,0,0:0:0:10:FatSnare.mp3
312,192,8068,1,0,0:0:0:40:Vintage Kick.mp3
142,192,8282,1,0,0:0:0:10:FatSnare.mp3
28,192,8282,1,0,0:0:0:10:FatSnare.mp3
369,192,8711,128,0,10425:0:0:0:0:
85,192,8711,1,0,0:0:0:40:Vintage Kick.mp3
142,192,8925,1,0,0:0:0:40:Vintage Kick.mp3
199,192,9140,1,0,0:0:0:10:FatSnare.mp3
312,192,9140,1,0,0:0:0:10:FatSnare.mp3
426,192,9354,1,0,0:0:0:40:Vintage Kick.mp3
199,192,9568,1,0,0:0:0:20:FatSnare.mp3
312,192,9568,1,0,0:0:0:20:TechSnare.mp3
28,192,9782,1,0,0:0:0:40:Vintage Kick.mp3
483,192,9997,1,0,0:0:0:20:WoodSnare.mp3
142,192,9997,1,0,0:0:0:20:FatSnare.mp3
256,192,10425,128,0,12140:0:0:0:0:
28,192,10425,1,0,0:0:0:40:Vintage Kick.mp3
199,192,10640,1,0,0:0:0:40:Vintage Kick.mp3
312,192,10854,1,0,0:0:0:10:FatSnare.mp3
483,192,10854,1,0,0:0:0:10:FatSnare.mp3
426,192,11497,1,0,0:0:0:40:Vintage Kick.mp3
369,192,11711,1,0,0:0:0:10:FatSnare.mp3
85,192,11711,1,0,0:0:0:10:FatSnare.mp3
142,192,12140,128,0,13854:0:0:0:0:
28,192,12140,128,0,13854:0:0:0:0:
312,192,12140,1,0,0:0:0:40:Vintage Kick.mp3
369,192,12354,1,0,0:0:0:40:Vintage Kick.mp3
256,192,12568,1,0,0:0:0:10:FatSnare.mp3
426,192,12568,1,0,0:0:0:10:FatSnare.mp3
483,192,12782,1,0,0:0:0:40:ClosedRockHat.mp3
199,192,12997,1,0,0:0:0:20:TechSnare.mp3
312,192,12997,1,0,0:0:0:20:FatSnare.mp3
256,192,13211,1,0,0:0:0:40:Vintage Kick.mp3
312,192,13425,1,0,0:0:0:10:FatSnare.mp3
426,192,13425,1,0,0:0:0:10:FatSnare.mp3
369,192,13425,1,0,0:0:0:20:WoodSnare.mp3
256,192,13854,1,0,0:0:0:20:TechSnare.mp3
85,192,14068,1,0,0:0:0:20:TechSnare.mp3
256,192,14282,1,0,0:0:0:20:TechSnare.mp3
426,192,14497,1,0,0:0:0:20:TechSnare.mp3
28,192,14711,1,0,0:0:0:20:TechSnare.mp3
483,192,14711,1,0,0:0:0:20:TechSnare.mp3
199,192,14925,1,0,0:0:0:20:Vintage Kick.mp3
312,192,14925,1,0,0:0:0:20:Vintage Kick.mp3
142,192,15140,1,0,0:0:0:20:TechSnare.mp3
369,192,15140,1,0,0:0:0:20:FatSnare.mp3
256,192,15140,1,0,0:0:0:20:WoodSnare.mp3
28,192,15568,128,0,16854:0:0:0:0:
312,192,15568,1,0,0:0:0:40:Vintage Kick.mp3
199,192,15782,1,0,0:0:0:10:FatSnare.mp3
369,192,15782,1,0,0:0:0:10:FatSnare.mp3
256,192,15890,1,0,0:0:0:40:Vintage Kick.mp3
142,192,16425,1,0,0:0:0:10:FatSnare.mp3
312,192,16425,1,0,0:0:0:10:FatSnare.mp3
85,192,16854,128,0,17282:0:0:0:0:
426,192,16854,1,0,0:0:0:40:Vintage Kick.mp3
312,192,17068,1,0,0:0:0:10:FatSnare.mp3
483,192,17068,1,0,0:0:0:10:FatSnare.mp3
142,192,17282,128,0,18140:0:0:0:0:
369,192,17282,1,0,0:0:0:40:Vintage Kick.mp3
256,192,17497,1,0,0:0:0:10:FatSnare.mp3
426,192,17497,1,0,0:0:0:10:FatSnare.mp3
312,192,17604,1,0,0:0:0:40:Vintage Kick.mp3
199,192,18140,128,0,18568:0:0:0:0:
426,192,18140,1,0,0:0:0:10:FatSnare.mp3
256,192,18140,1,0,0:0:0:10:FatSnare.mp3
256,192,18568,128,0,18997:0:0:0:0:
142,192,18568,1,0,0:0:0:10:FatSnare.mp3
312,192,18568,1,0,0:0:0:10:FatSnare.mp3
28,192,18782,1,0,0:0:0:10:FatSnare.mp3
426,192,18782,1,0,0:0:0:10:FatSnare.mp3
312,192,18997,128,0,19854:0:0:0:0:
85,192,18997,1,0,0:0:0:40:Vintage Kick.mp3
142,192,19211,1,0,0:0:0:20:FatSnare.mp3
199,192,19425,1,0,0:0:0:40:ClosedRockHat.mp3
142,192,19640,1,0,0:0:0:20:FatSnare.mp3
369,192,19854,128,0,20711:0:0:0:0:
85,192,19854,1,0,0:0:0:40:Vintage Kick.mp3
199,192,20068,1,0,0:0:0:20:FatSnare.mp3
312,192,20282,1,0,0:0:0:40:ClosedRockHat.mp3
199,192,20497,1,0,0:0:0:20:FatSnare.mp3
483,192,20711,128,0,21354:0:0:0:0:
28,192,20711,1,0,0:0:0:40:Vintage Kick.mp3
199,192,20925,1,0,0:0:0:20:FatSnare.mp3
369,192,21140,1,0,0:0:0:40:ClosedRockHat.mp3
426,192,21354,128,0,21568:0:0:0:0:
199,192,21354,1,0,0:0:0:20:FatSnare.mp3
369,192,21568,128,0,22425:0:0:0:0:
28,192,21568,1,0,0:0:0:40:Vintage Kick.mp3
199,192,21782,1,0,0:0:0:10:FatSnare.mp3
312,192,21782,1,0,0:0:0:10:FatSnare.mp3
199,192,21997,1,0,0:0:0:10:FatSnare.mp3
312,192,21997,1,0,0:0:0:10:FatSnare.mp3
199,192,22211,1,0,0:0:0:10:FatSnare.mp3
312,192,22211,1,0,0:0:0:10:FatSnare.mp3
142,192,22425,128,0,23711:0:0:0:0:
483,192,22425,1,0,0:0:0:40:Vintage Kick.mp3
426,192,22640,1,0,0:0:0:10:FatSnare.mp3
256,192,22640,1,0,0:0:0:10:FatSnare.mp3
85,192,22747,1,0,0:0:0:40:Vintage Kick.mp3
28,192,23282,1,0,0:0:0:10:FatSnare.mp3
483,192,23282,1,0,0:0:0:10:FatSnare.mp3
256,192,23711,128,0,24140:0:0:0:0:
312,192,23711,1,0,0:0:0:40:Vintage Kick.mp3
426,192,23925,1,0,0:0:0:10:FatSnare.mp3
85,192,23925,1,0,0:0:0:10:FatSnare.mp3
369,192,24140,128,0,24997:0:0:0:0:
199,192,24140,1,0,0:0:0:40:Vintage Kick.mp3
142,192,24354,1,0,0:0:0:10:FatSnare.mp3
28,192,24354,1,0,0:0:0:10:FatSnare.mp3
312,192,24461,1,0,0:0:0:40:Vintage Kick.mp3
483,192,24997,128,0,25854:0:0:0:0:
85,192,24997,1,0,0:0:0:10:FatSnare.mp3
256,192,24997,1,0,0:0:0:10:FatSnare.mp3
142,192,25211,1,0,0:0:0:40:Vintage Kick.mp3
199,192,25425,1,0,0:0:0:10:FatSnare.mp3
312,192,25425,1,0,0:0:0:10:FatSnare.mp3
199,192,25640,1,0,0:0:0:10:FatSnare.mp3
312,192,25640,1,0,0:0:0:10:FatSnare.mp3
426,192,25854,128,0,26711:0:0:0:0:
256,192,25854,1,0,0:0:0:40:Vintage Kick.mp3
312,192,26068,1,0,0:0:0:20:FatSnare.mp3
256,192,26282,1,0,0:0:0:40:ClosedRockHat.mp3
199,192,26497,1,0,0:0:0:20:FatSnare.mp3
312,192,26711,128,0,27568:0:0:0:0:
142,192,26711,1,0,0:0:0:40:Vintage Kick.mp3
256,192,26925,1,0,0:0:0:20:FatSnare.mp3
369,192,27140,1,0,0:0:0:40:ClosedRockHat.mp3
256,192,27354,1,0,0:0:0:20:FatSnare.mp3
199,192,27568,128,0,28425:0:0:0:0:
85,192,27568,1,0,0:0:0:40:Vintage Kick.mp3
256,192,27782,1,0,0:0:0:20:FatSnare.mp3
426,192,27997,1,0,0:0:0:40:ClosedRockHat.mp3
256,192,28211,1,0,0:0:0:20:FatSnare.mp3
85,192,28425,128,0,29282:0:0:0:0:
28,192,28425,1,0,0:0:0:40:Vintage Kick.mp3
256,192,28640,1,0,0:0:0:20:FatSnare.mp3
483,192,28854,1,0,0:0:0:10:FatSnare.mp3
426,192,28854,1,0,0:0:0:10:FatSnare.mp3
369,192,29068,1,0,0:0:0:10:FatSnare.mp3
312,192,29068,1,0,0:0:0:10:FatSnare.mp3
142,192,29282,1,0,0:0:0:10:FatSnare.mp3
256,192,29282,1,0,0:0:0:10:FatSnare.mp3
199,192,29711,1,0,0:0:0:10:FatSnare.mp3
312,192,29711,1,0,0:0:0:10:WoodSnare.mp3
256,192,30140,1,0,0:0:0:10:FatSnare.mp3
369,192,30140,1,0,0:0:0:10:FatSnare.mp3
142,192,30354,1,0,0:0:0:40:Vintage Kick.mp3
312,192,30568,1,0,0:0:0:10:FatSnare.mp3
426,192,30568,1,0,0:0:0:10:WoodSnare.mp3
369,192,30997,1,0,0:0:0:10:FatSnare.mp3
483,192,30997,1,0,0:0:0:10:FatSnare.mp3
28,192,31425,1,0,0:0:0:10:FatSnare.mp3
142,192,31425,1,0,0:0:0:10:WoodSnare.mp3
256,192,31640,1,0,0:0:0:40:Vintage Kick.mp3
312,192,31854,1,0,0:0:0:15:FatSnare.mp3
199,192,32068,1,0,0:0:0:15:FatSnare.mp3
312,192,32282,1,0,0:0:0:15:FatSnare.mp3
199,192,32497,1,0,0:0:0:15:FatSnare.mp3
426,192,32711,1,0,0:0:0:15:FatSnare.mp3
85,192,32925,1,0,0:0:0:15:FatSnare.mp3
426,192,33140,1,0,0:0:0:15:FatSnare.mp3
85,192,33354,1,0,0:0:0:15:FatSnare.mp3
426,192,33568,1,0,0:0:0:15:FatSnare.mp3
142,192,33782,1,0,0:0:0:40:Vintage Kick.mp3
369,192,33890,1,0,0:0:0:40:Vintage Kick.mp3
142,192,33997,1,0,0:0:0:40:Vintage Kick.mp3
369,192,34104,1,0,0:0:0:40:Vintage Kick.mp3
142,192,34211,1,0,0:0:0:40:Vintage Kick.mp3
369,192,34318,1,0,0:0:0:40:Vintage Kick.mp3
28,192,34425,128,0,35925:0:0:0:0:
256,192,34425,128,0,35925:0:0:0:0:
142,192,35925,128,0,36032:0:0:0:0:
369,192,36032,128,0,36140:0:0:0:0:
199,192,36140,128,0,36997:0:0:0:0:
426,192,36140,128,0,36997:0:0:0:0:
142,192,36997,128,0,37425:0:0:0:0:
369,192,36997,128,0,37425:0:0:0:0:
85,192,37425,128,0,37854:0:0:0:0:
312,192,37425,128,0,37854:0:0:0:0:
256,192,37854,128,0,39354:0:0:0:0:
483,192,37854,128,0,39354:0:0:0:0:
199,192,39354,128,0,39461:0:0:0:0:
312,192,39461,128,0,39568:0:0:0:0:
85,192,39568,128,0,40211:0:0:0:0:
426,192,39568,128,0,40211:0:0:0:0:
142,192,40211,128,0,40425:0:0:0:0:
369,192,40211,128,0,40425:0:0:0:0:
199,192,40425,128,0,40640:0:0:0:0:
312,192,40425,128,0,40640:0:0:0:0:
256,192,40640,128,0,40854:0:0:0:0:
199,192,40854,128,0,41068:0:0:0:0:
312,192,40854,128,0,41068:0:0:0:0:
142,192,41068,128,0,41497:0:0:0:0:
369,192,41068,128,0,41497:0:0:0:0:
85,192,41497,128,0,42782:0:0:0:0:
426,192,41497,128,0,42782:0:0:0:0:
199,192,42782,128,0,42890:0:0:0:0:
312,192,42890,128,0,42997:0:0:0:0:
369,192,42997,128,0,43640:0:0:0:0:
256,192,42997,128,0,43640:0:0:0:0:
199,192,43640,128,0,43854:0:0:0:0:
426,192,43640,128,0,43854:0:0:0:0:
28,192,43854,128,0,44068:0:0:0:0:
256,192,43854,128,0,44068:0:0:0:0:
85,192,44068,128,0,44282:0:0:0:0:
312,192,44068,128,0,44282:0:0:0:0:
142,192,44282,128,0,44497:0:0:0:0:
369,192,44282,128,0,44497:0:0:0:0:
199,192,44497,128,0,44925:0:0:0:0:
426,192,44497,128,0,44925:0:0:0:0:
256,192,44925,128,0,46211:0:0:0:0:
483,192,44925,128,0,46211:0:0:0:0:
142,192,46211,128,0,46318:0:0:0:0:
369,192,46318,128,0,46425:0:0:0:0:
199,192,46425,128,0,47068:0:0:0:0:
312,192,46425,128,0,47068:0:0:0:0:
256,192,47068,128,0,47282:0:0:0:0:
85,192,47282,128,0,47497:0:0:0:0:
426,192,47282,128,0,47497:0:0:0:0:
256,192,47497,128,0,47711:0:0:0:0:
142,192,47711,128,0,47925:0:0:0:0:
369,192,47711,128,0,47925:0:0:0:0:
199,192,47925,128,0,48140:0:0:0:0:
312,192,47925,128,0,48140:0:0:0:0:
256,192,48140,128,0,49854:0:0:0:0:
426,192,48140,128,0,49854:0:0:0:0:
312,192,49854,128,0,51568:0:0:0:0:
28,192,49854,128,0,51568:0:0:0:0:
142,192,51568,128,0,53282:0:0:0:0:
369,192,51568,128,0,53282:0:0:0:0:
312,192,53282,128,0,54997:0:0:0:0:
28,192,53282,128,0,54997:0:0:0:0:
142,192,54997,1,2,0:0:0:0:
199,192,55104,1,2,0:0:0:0:
256,192,55211,1,2,0:0:0:0:
312,192,55318,1,2,0:0:0:0:
369,192,55532,1,2,0:0:0:0:
369,192,55854,1,2,0:0:0:0:
312,192,55961,1,2,0:0:0:0:
256,192,56068,1,2,0:0:0:0:
199,192,56175,1,2,0:0:0:0:
426,192,56390,1,2,0:0:0:0:
369,192,56497,1,2,0:0:0:0:
85,192,56711,1,2,0:0:0:0:
142,192,56818,1,2,0:0:0:0:
199,192,56925,1,2,0:0:0:0:
256,192,57032,1,2,0:0:0:0:
312,192,57247,1,2,0:0:0:0:
369,192,57354,1,2,0:0:0:0:
28,192,57568,1,2,0:0:0:0:
85,192,57675,1,2,0:0:0:0:
142,192,57782,1,2,0:0:0:0:
199,192,57890,1,2,0:0:0:0:
483,192,57997,1,2,0:0:0:0:
426,192,58104,1,2,0:0:0:0:
369,192,58211,1,2,0:0:0:0:
312,192,58318,1,2,0:0:0:0:
28,192,58425,1,2,0:0:0:0:
483,192,58532,1,2,0:0:0:0:
28,192,58640,1,2,0:0:0:0:
483,192,58747,1,2,0:0:0:0:
256,192,58961,1,2,0:0:0:0:
142,192,59282,1,2,0:0:0:0:
199,192,59390,1,2,0:0:0:0:
312,192,59497,1,2,0:0:0:0:
369,192,59604,1,2,0:0:0:0:
142,192,59711,1,2,0:0:0:0:
199,192,59818,1,2,0:0:0:0:
312,192,59925,1,2,0:0:0:0:
369,192,60032,1,2,0:0:0:0:
85,192,60140,1,2,0:0:0:0:
426,192,60247,1,2,0:0:0:0:
85,192,60354,1,2,0:0:0:0:
426,192,60461,1,2,0:0:0:0:
256,192,60675,1,2,0:0:0:0:
426,192,60997,1,2,0:0:0:0:
369,192,61104,1,2,0:0:0:0:
142,192,61211,1,2,0:0:0:0:
85,192,61318,1,2,0:0:0:0:
426,192,61425,1,2,0:0:0:0:
369,192,61532,1,2,0:0:0:0:
142,192,61640,1,2,0:0:0:0:
85,192,61747,1,2,0:0:0:0:
199,192,61854,128,0,62711:0:0:0:0:
483,192,61854,1,0,0:0:0:40:Vintage Kick.mp3
426,192,62068,1,0,0:0:0:40:ClosedRockHat.mp3
369,192,62282,1,0,0:0:0:20:FatSnare.mp3
312,192,62497,1,0,0:0:0:40:ClosedRockHat.mp3
256,192,62711,128,0,63568:0:0:0:0:
28,192,62711,1,0,0:0:0:40:Vintage Kick.mp3
85,192,62925,1,0,0:0:0:40:ClosedRockHat.mp3
142,192,63140,1,0,0:0:0:20:FatSnare.mp3
199,192,63354,1,0,0:0:0:40:ClosedRockHat.mp3
312,192,63568,128,0,64425:0:0:0:0:
483,192,63568,1,0,0:0:0:40:Vintage Kick.mp3
369,192,63782,1,0,0:0:0:40:ClosedRockHat.mp3
256,192,63997,1,0,0:0:0:20:FatSnare.mp3
142,192,64211,1,0,0:0:0:40:ClosedRockHat.mp3
369,192,64425,128,0,64854:0:0:0:0:
28,192,64425,1,0,0:0:0:40:Vintage Kick.mp3
85,192,64640,1,0,0:0:0:40:ClosedRockHat.mp3
426,192,64854,128,0,65282:0:0:0:0:
142,192,64854,1,0,0:0:0:20:FatSnare.mp3
256,192,65068,1,0,0:0:0:40:ClosedRockHat.mp3
312,192,65282,128,0,65925:0:0:0:0:
142,192,65282,1,0,0:0:0:40:Vintage Kick.mp3
28,192,65497,1,0,0:0:0:40:ClosedRockHat.mp3
142,192,65711,1,0,0:0:0:20:FatSnare.mp3
199,192,65925,128,0,66140:0:0:0:0:
256,192,65925,1,0,0:0:0:40:ClosedRockHat.mp3
369,192,66140,1,0,0:0:0:40:Vintage Kick.mp3
85,192,66140,128,0,66782:0:0:0:0:
483,192,66354,1,0,0:0:0:40:ClosedRockHat.mp3
426,192,66568,1,0,0:0:0:20:FatSnare.mp3
312,192,66782,1,0,0:0:0:40:ClosedRockHat.mp3
369,192,66782,128,0,66997:0:0:0:0:
256,192,66997,128,0,67640:0:0:0:0:
199,192,66997,1,0,0:0:0:40:Vintage Kick.mp3
85,192,67211,1,0,0:0:0:40:ClosedRockHat.mp3
199,192,67425,1,0,0:0:0:20:FatSnare.mp3
142,192,67640,128,0,67854:0:0:0:0:
85,192,67640,1,0,0:0:0:40:ClosedRockHat.mp3
28,192,67854,128,0,68711:0:0:0:0:
312,192,67854,1,0,0:0:0:40:Vintage Kick.mp3
426,192,68068,1,0,0:0:0:40:ClosedRockHat.mp3
312,192,68282,1,0,0:0:0:20:FatSnare.mp3
426,192,68497,1,0,0:0:0:40:ClosedRockHat.mp3
199,192,68711,128,0,69568:0:0:0:0:
256,192,68711,1,0,0:0:0:40:Vintage Kick.mp3
312,192,68925,1,0,0:0:0:40:ClosedRockHat.mp3
369,192,69140,1,0,0:0:0:20:FatSnare.mp3
426,192,69354,1,0,0:0:0:40:ClosedRockHat.mp3
142,192,69568,128,0,69997:0:0:0:0:
312,192,69568,1,0,0:0:0:40:Vintage Kick.mp3
369,192,69782,1,0,0:0:0:40:ClosedRockHat.mp3
85,192,69997,128,0,70425:0:0:0:0:
426,192,69997,1,0,0:0:0:20:FatSnare.mp3
483,192,70211,1,0,0:0:0:40:ClosedRockHat.mp3
312,192,70425,128,0,71068:0:0:0:0:
256,192,70425,1,0,0:0:0:40:Vintage Kick.mp3
199,192,70640,1,0,0:0:0:40:ClosedRockHat.mp3
142,192,70854,1,0,0:0:0:20:FatSnare.mp3
85,192,71068,1,0,0:0:0:40:ClosedRockHat.mp3
312,192,71282,128,0,71711:0:0:0:0:
199,192,71282,1,0,0:0:0:40:Vintage Kick.mp3
142,192,71497,1,0,0:0:0:40:ClosedRockHat.mp3
369,192,71711,128,0,72140:0:0:0:0:
85,192,71711,1,0,0:0:0:20:FatSnare.mp3
28,192,71925,1,0,0:0:0:40:ClosedRockHat.mp3
426,192,72140,128,0,72997:0:0:0:0:
85,192,72140,1,0,0:0:0:40:Vintage Kick.mp3
199,192,72354,1,0,0:0:0:40:ClosedRockHat.mp3
85,192,72568,1,0,0:0:0:20:FatSnare.mp3
199,192,72782,1,0,0:0:0:40:ClosedRockHat.mp3
85,192,72997,128,0,73425:0:0:0:0:
142,192,72997,1,0,0:0:0:40:Vintage Kick.mp3
369,192,73211,1,0,0:0:0:40:ClosedRockHat.mp3
256,192,73425,128,0,73854:0:0:0:0:
142,192,73425,1,0,0:0:0:20:FatSnare.mp3
369,192,73640,1,0,0:0:0:40:ClosedRockHat.mp3
199,192,73854,128,0,74711:0:0:0:0:
312,192,73854,1,0,0:0:0:40:Vintage Kick.mp3
85,192,74282,1,0,0:0:0:10:FatSnare.mp3
426,192,74282,1,0,0:0:0:10:FatSnare.mp3
312,192,74711,128,0,75140:0:0:0:0:
256,192,74711,1,0,0:0:0:40:Vintage Kick.mp3
426,192,75140,128,0,75568:0:0:0:0:
28,192,75140,1,0,0:0:0:10:FatSnare.mp3
142,192,75140,1,0,0:0:0:10:FatSnare.mp3
369,192,75568,128,0,76425:0:0:0:0:
199,192,75568,1,0,0:0:0:40:Vintage Kick.mp3
85,192,75997,1,0,0:0:0:10:FatSnare.mp3
312,192,75997,1,0,0:0:0:10:FatSnare.mp3
256,192,76425,128,0,76854:0:0:0:0:
28,192,76425,1,0,0:0:0:40:Vintage Kick.mp3
426,192,76854,128,0,77282:0:0:0:0:
142,192,76854,1,0,0:0:0:10:FatSnare.mp3
369,192,76854,1,0,0:0:0:10:FatSnare.mp3
369,192,77282,128,0,78140:0:0:0:0:
312,192,77282,1,0,0:0:0:40:Vintage Kick.mp3
85,192,77711,1,0,0:0:0:10:FatSnare.mp3
256,192,77711,1,0,0:0:0:10:FatSnare.mp3
199,192,78140,128,0,78997:0:0:0:0:
483,192,78140,1,0,0:0:0:40:Vintage Kick.mp3
312,192,78568,1,0,0:0:0:10:FatSnare.mp3
426,192,78568,1,0,0:0:0:10:FatSnare.mp3
28,192,78997,128,0,80711:0:0:0:0:
256,192,78997,1,0,0:0:0:40:Vintage Kick.mp3
199,192,79425,1,0,0:0:0:10:FatSnare.mp3
312,192,79425,1,0,0:0:0:10:FatSnare.mp3
256,192,79854,1,0,0:0:0:40:Vintage Kick.mp3
142,192,80282,1,0,0:0:0:10:FatSnare.mp3
369,192,80282,1,0,0:0:0:10:FatSnare.mp3
483,192,80711,128,0,82425:0:0:0:0:
256,192,80711,1,0,0:0:0:40:Vintage Kick.mp3
85,192,81140,1,0,0:0:0:10:FatSnare.mp3
426,192,81140,1,0,0:0:0:10:FatSnare.mp3
256,192,81568,1,0,0:0:0:40:Vintage Kick.mp3
142,192,81997,1,0,0:0:0:10:FatSnare.mp3
369,192,81997,1,0,0:0:0:10:FatSnare.mp3
28,192,82425,1,0,0:0:0:35:WoodSnare.mp3
256,192,82425,1,0,0:0:0:40:TechSnare.mp3
