osu file format v14

[General]
AudioFilename: audio.mp3
AudioLeadIn: 0
PreviewTime: 123181
Countdown: 0
SampleSet: Soft
StackLeniency: 0.7
Mode: 0
LetterboxInBreaks: 0
WidescreenStoryboard: 1

[Editor]
Bookmarks: 14874,29643,40720,47181,64720,79489,85028,85335,85489,85643,85951,86258,86412,86566,86720,86874,90566,94258,97951,103489,123797,138566,161181
DistanceSpacing: 1.1
BeatDivisor: 6
GridSize: 8
TimelineZoom: 4.199998

[Metadata]
Title:Crypteque (1-2)
TitleUnicode:Crypteque (1-2)
Artist:Danny Baranowsky
ArtistUnicode:Danny Baranowsky
Creator:Skorpiik
Version:Final Boss [2021]
Source:Crypt of the NecroDancer
Tags:electronic videogame video game ost soundtrack metal
BeatmapID:3151103
BeatmapSetID:464974

[Difficulty]
HPDrainRate:5
CircleSize:3.8
OverallDifficulty:9.4
ApproachRate:9.7
SliderMultiplier:2
SliderTickRate:1

[Events]
//Background and Video events
0,0,"247080_screenshots_2014-09-28_00001.jpg",0,0
//Break Periods
2,44612,46672
//Storyboard Layer 0 (Background)
//Storyboard Layer 1 (Fail)
//Storyboard Layer 2 (Pass)
//Storyboard Layer 3 (Foreground)
//Storyboard Layer 4 (Overlay)
//Storyboard Sound Samples

[TimingPoints]
105,461.538461538462,4,2,2,40,1,0
5643,-83.3333333333333,4,2,2,40,0,0
7489,-100,4,2,2,40,0,0
13028,-83.3333333333333,4,2,2,40,0,0
15335,-285.714285714286,4,2,2,40,0,0
16720,-90.9090909090909,4,2,2,40,0,0
18105,-80,4,2,2,40,0,0
18566,-90.9090909090909,4,2,2,40,0,0
19489,-100,4,2,2,40,0,0
22258,-90.9090909090909,4,2,2,40,0,0
22720,-285.714285714286,4,2,2,40,0,0
23643,-90.9090909090909,4,2,2,40,0,0
25489,-83.3333333333333,4,2,2,40,0,0
25951,-76.9230769230769,4,2,2,40,0,0
26874,-90.9090909090909,4,2,2,40,0,0
27797,-74.0740740740741,4,2,2,40,0,0
29643,-83.3333333333333,4,2,2,40,0,0
30105,-250,4,2,2,40,0,0
33335,-83.3333333333333,4,2,2,40,0,0
33797,-250,4,2,2,40,0,0
37028,-76.9230769230769,4,2,2,40,0,0
37489,-222.222222222222,4,2,2,40,0,0
42720,-66.6666666666667,4,2,2,40,0,0
48105,-58.8235294117647,4,2,2,40,0,0
53643,-80,4,2,2,40,0,0
54566,-71.4285714285714,4,2,2,40,0,0
55489,-64.5161290322581,4,2,2,40,0,0
58720,-58.8235294117647,4,2,2,40,0,0
59181,-58.8235294117647,4,2,2,40,0,1
64720,-74.0740740740741,4,2,2,40,0,0
67489,-66.6666666666667,4,2,2,40,0,0
67951,-60.6060606060606,4,2,2,40,0,0
68412,-74.0740740740741,4,2,2,40,0,0
74874,-66.6666666666667,4,2,2,40,0,0
75335,-60.6060606060606,4,2,2,40,0,0
75797,-74.0740740740741,4,2,2,40,0,0
79489,-76.9230769230769,4,2,2,40,0,0
83181,-71.4285714285714,4,2,2,40,0,0
85028,-55.5555555555556,4,2,2,40,0,0
85335,-58.8235294117647,4,2,2,40,0,0
85643,-62.5,4,2,2,40,0,0
85951,-66.6666666666667,4,2,2,40,0,0
86258,-71.4285714285714,4,2,2,40,0,0
86412,-66.6666666666667,4,2,2,40,0,0
86874,-83.3333333333333,4,2,2,40,0,0
102566,-100,4,2,2,40,0,0
103489,-50,4,2,2,40,0,0

[Colours]
Combo1 : 0,170,89
Combo2 : 155,0,249
Combo3 : 255,23,23

[HitObjects]
327,114,105,6,0,P|280:103|251:108,2,66.6666666666667,0|0|0,0:0|0:0|0:0,0:0:0:0:
189,158,566,2,0,P|181:189|183:224,1,66.6666666666667,0|0,0:0|0:0,0:0:0:0:
125,91,874,1,0,0:0:0:0:
274,188,1028,6,0,P|321:199|350:194,2,66.6666666666667,0|0|0,0:0|0:0|0:0,0:0:0:0:
412,142,1489,2,0,P|445:140|476:151,1,66.6666666666667,0|0,0:0|0:0,0:0:0:0:
330,111,1797,1,0,0:0:0:0:
463,236,1951,6,0,P|473:267|472:300,2,66.6666666666667,0|0|0,0:0|0:0|0:0,0:0:0:0:
413,370,2412,2,0,P|381:380|348:379,1,66.6666666666667,0|0,0:0|0:0,0:0:0:0:
472,300,2720,1,0,0:0:0:0:
346,191,2874,6,0,B|280:180|288:236|205:220,1,133.333333333333,0|0,0:0|0:0,0:0:0:0:
80,50,3335,5,0,0:0:0:0:
121,303,3489,1,0,0:0:0:0:
101,177,3643,1,0,0:0:0:0:
1,257,3797,6,0,P|-3:291|11:329,2,66.6666666666667,0|0|0,0:0|0:0|0:0,0:0:0:0:
185,297,4258,2,0,P|153:306|120:302,1,66.6666666666667,0|0,0:0|0:0,0:0:0:0:
84,223,4566,1,0,0:0:0:0:
257,167,4720,6,0,P|261:133|247:95,2,66.6666666666667,0|0|0,0:0|0:0|0:0,0:0:0:0:
123,33,5181,2,0,P|156:28|194:42,1,66.6666666666667,0|0,0:0|0:0,0:0:0:0:
167,123,5489,1,0,0:0:0:0:
347,211,5643,5,0,0:0:0:0:
321,39,5797,2,0,P|328:12|341:-8,1,39.9999987792969,0|0,0:0|0:0,0:0:0:0:
428,166,5951,2,0,P|435:184|439:204,1,39.9999987792969,0|0,0:0|0:0,0:0:0:0:
264,361,6105,1,0,0:0:0:0:
167,123,6258,1,0,0:0:0:0:
347,211,6412,2,0,L|351:238,2,19.9999993896485,0|0|0,0:0|0:0|0:0,0:0:0:0:
92,180,6566,5,0,0:0:0:0:
334,122,6720,1,0,0:0:0:0:
164,35,6874,1,0,0:0:0:0:
276,274,7028,5,0,0:0:0:0:
269,30,7181,1,0,0:0:0:0:
120,267,7335,1,0,0:0:0:0:
344,346,7489,6,0,P|377:347|414:329,1,66.6666666666667,0|0,0:0|0:0,0:0:0:0:
344,346,7797,1,0,0:0:0:0:
447,195,7951,2,0,L|461:284,1,66.6666666666667,0|0,0:0|0:0,0:0:0:0:
496,120,8258,1,0,0:0:0:0:
360,204,8412,6,0,P|326:205|289:187,1,66.6666666666667,0|0,0:0|0:0,0:0:0:0:
360,204,8720,1,0,0:0:0:0:
300,33,8874,2,0,P|330:20|363:21,1,66.6666666666667,0|0,0:0|0:0,0:0:0:0:
260,114,9181,1,0,0:0:0:0:
152,43,9335,6,0,P|119:42|82:60,1,66.6666666666667,0|0,0:0|0:0,0:0:0:0:
152,43,9643,1,0,0:0:0:0:
133,193,9797,2,0,L|143:114,1,66.6666666666667,0|0,0:0|0:0,0:0:0:0:
59,241,10105,1,0,0:0:0:0:
171,334,10258,6,0,B|237:345|229:289|312:305,1,133.333333333333,0|0,0:0|0:0,0:0:0:0:
512,384,10720,5,0,0:0:0:0:
475,156,10874,1,0,0:0:0:0:
428,281,11028,1,0,0:0:0:0:
343,177,11181,6,0,P|303:170|268:176,1,66.6666666666667,0|0,0:0|0:0,0:0:0:0:
343,177,11489,1,0,0:0:0:0:
175,243,11643,2,0,P|141:246|109:240,1,66.6666666666667,0|0,0:0|0:0,0:0:0:0:
27,158,11951,1,0,0:0:0:0:
215,34,12105,6,0,P|218:67|212:99,1,66.6666666666667,0|0,0:0|0:0,0:0:0:0:
215,34,12412,1,0,0:0:0:0:
112,174,12566,2,0,P|105:206|109:239,1,66.6666666666667,0|0,0:0|0:0,0:0:0:0:
187,322,12874,1,0,0:0:0:0:
319,242,13028,6,0,L|316:213,2,19.9999993896485,0|0|0,0:0|0:0|0:0,0:0:0:0:
253,144,13181,2,0,P|234:140|214:137,1,39.9999987792969,0|0,0:0|0:0,0:0:0:0:
381,319,13335,2,0,P|400:323|420:326,1,39.9999987792969,0|0,0:0|0:0,0:0:0:0:
507,139,13489,1,0,0:0:0:0:
316,30,13643,1,0,0:0:0:0:
400,215,13797,2,0,L|403:244,2,19.9999993896485,0|0|0,0:0|0:0|0:0,0:0:0:0:
290,325,13951,5,0,0:0:0:0:
122,142,14105,1,0,0:0:0:0:
340,143,14258,1,0,0:0:0:0:
199,331,14412,5,0,0:0:0:0:
234,59,14566,1,0,0:0:0:0:
381,319,14720,1,0,0:0:0:0:
122,142,14874,5,0,0:0:0:0:
107,242,15028,1,0,0:0:0:0:
27,178,15181,1,0,0:0:0:0:
205,229,15335,2,0,L|202:206,1,23.3333326212565,0|0,0:0|0:0,0:0:0:0:
122,142,15643,5,0,0:0:0:0:
289,243,15797,2,0,L|286:220,1,23.3333326212565,0|0,0:0|0:0,0:0:0:0:
217,106,16105,5,0,0:0:0:0:
373,257,16258,2,0,L|370:234,1,23.3333326212565,0|0,0:0|0:0,0:0:0:0:
312,70,16566,5,0,0:0:0:0:
454,248,16720,2,0,L|465:320,1,73.3333355712891,0|0,0:0|0:0,0:0:0:0:
412,137,17028,1,0,0:0:0:0:
314,321,17181,1,0,0:0:0:0:
273,215,17335,1,0,0:0:0:0:
216,379,17489,1,0,0:0:0:0:
162,173,17643,6,0,P|103:160|38:162,1,110.000003356934,0|0,0:0|0:0,0:0:0:0:
18,175,17951,1,0,0:0:0:0:
323,51,18105,6,0,P|262:64|199:65,1,125,0|0,0:0|0:0,0:0:0:0:
163,49,18413,1,0,0:0:0:0:
411,230,18566,6,0,L|423:115,1,110.000003356934,0|0,0:0|0:0,0:0:0:0:
426,96,18874,1,0,0:0:0:0:
297,319,19028,2,0,L|285:204,1,110.000003356934,0|0,0:0|0:0,0:0:0:0:
282,185,19336,1,0,0:0:0:0:
179,338,19489,6,0,P|131:347|71:342,1,100,0|0,0:0|0:0,0:0:0:0:
80,343,19797,1,0,0:0:0:0:
264,228,19951,2,0,P|214:224|165:233,1,100,0|0,0:0|0:0,0:0:0:0:
166,234,20259,1,0,0:0:0:0:
336,336,20412,5,0,0:0:0:0:
455,65,20566,1,0,0:0:0:0:
161,98,20720,1,0,0:0:0:0:
352,315,20874,5,0,0:0:0:0:
429,60,21028,1,0,0:0:0:0:
170,122,21182,1,0,0:0:0:0:
368,294,21335,5,0,0:0:0:0:
403,55,21489,1,0,0:0:0:0:
179,146,21643,1,0,0:0:0:0:
470,232,21797,5,0,0:0:0:0:
295,25,21951,1,0,0:0:0:0:
336,336,22105,1,0,0:0:0:0:
187,169,22258,6,0,P|144:158|106:155,1,73.3333355712891,0|0,0:0|0:0,0:0:0:0:
1,317,22566,1,0,0:0:0:0:
202,261,22720,2,0,L|205:285,1,23.3333326212565,0|0,0:0|0:0,0:0:0:0:
83,341,23028,5,0,0:0:0:0:
285,244,23181,2,0,L|288:268,1,23.3333326212565,0|0,0:0|0:0,0:0:0:0:
165,365,23489,5,0,0:0:0:0:
371,251,23643,2,0,L|352:94,1,146.666671142578,0|0,0:0|0:0,0:0:0:0:
175,16,24105,6,0,L|162:119,1,73.3333355712891,0|0,0:0|0:0,0:0:0:0:
342,24,24412,1,0,0:0:0:0:
159,172,24566,1,0,0:0:0:0:
250,98,24720,1,0,0:0:0:0:
216,274,24874,1,0,0:0:0:0:
390,154,25028,6,0,P|452:143|516:151,1,110.000003356934,0|0,0:0|0:0,0:0:0:0:
498,146,25335,1,0,0:0:0:0:
268,191,25489,2,0,P|289:131|328:80,1,119.999996337891,0|0,0:0|0:0,0:0:0:0:
348,71,25796,1,0,0:0:0:0:
243,330,25951,2,0,P|200:279|174:218,1,129.999994049073,0|0,0:0|0:0,0:0:0:0:
173,180,26258,1,0,0:0:0:0:
44,364,26412,5,0,0:0:0:0:
374,268,26720,1,0,0:0:0:0:
262,221,26874,2,0,L|250:312,1,73.3333355712891,0|0,0:0|0:0,0:0:0:0:
390,363,27181,1,0,0:0:0:0:
492,173,27335,2,0,L|480:87,2,73.3333355712891,0|0|0,0:0|0:0|0:0,0:0:0:0:
358,27,27797,5,0,0:0:0:0:
299,202,27951,2,0,P|269:210|245:209,1,45.0000001716614,0|0,0:0|0:0,0:0:0:0:
137,34,28105,2,0,P|143:55|145:77,1,45.0000001716614,0|0,0:0|0:0,0:0:0:0:
56,267,28258,1,0,0:0:0:0:
218,132,28412,1,0,0:0:0:0:
191,349,28566,1,0,0:0:0:0:
81,138,28720,5,0,0:0:0:0:
282,337,28874,1,0,0:0:0:0:
305,115,29028,1,0,0:0:0:0:
56,267,29181,5,0,0:0:0:0:
380,161,29335,1,0,0:0:0:0:
57,59,29489,1,0,0:0:0:0:
372,270,29643,6,0,P|421:263|453:237,1,79.9999975585938,0|0,0:0|0:0,0:0:0:0:
471,99,29951,1,0,0:0:0:0:
302,198,30105,2,0,L|296:233,1,26.6666666666667,0|0,0:0|0:0,0:0:0:0:
35,122,30412,5,0,0:0:0:0:
205,219,30566,2,0,L|211:254,1,26.6666666666667,0|0,0:0|0:0,0:0:0:0:
465,67,30874,5,0,0:0:0:0:
314,193,31028,2,0,L|314:228,1,26.6666666666667,0|0,0:0|0:0,0:0:0:0:
40,90,31335,5,0,0:0:0:0:
193,214,31489,2,0,L|192:249,1,26.6666666666667,0|0,0:0|0:0,0:0:0:0:
452,41,31797,5,0,0:0:0:0:
323,191,31951,2,0,L|329:225,1,26.6666666666667,0|0,0:0|0:0,0:0:0:0:
104,206,32258,5,0,0:0:0:0:
180,260,32412,5,0,0:0:0:0:
158,131,32566,1,0,0:0:0:0:
282,88,32720,1,0,0:0:0:0:
379,262,32874,5,0,0:0:0:0:
405,44,33028,1,0,0:0:0:0:
503,306,33181,1,0,0:0:0:0:
306,195,33335,6,0,P|270:185|214:186,1,79.9999975585938,0|0,0:0|0:0,0:0:0:0:
167,266,33643,1,0,0:0:0:0:
287,50,33797,2,0,L|293:80,1,26.6666666666667,0|0,0:0|0:0,0:0:0:0:
323,281,34105,5,0,0:0:0:0:
194,67,34259,2,0,L|187:97,1,26.6666666666667,0|0,0:0|0:0,0:0:0:0:
155,249,34566,5,0,0:0:0:0:
310,57,34720,2,0,L|311:87,1,26.6666666666667,0|0,0:0|0:0,0:0:0:0:
337,269,35028,5,0,0:0:0:0:
463,103,35181,5,0,0:0:0:0:
429,345,35335,1,0,0:0:0:0:
467,82,35489,1,0,0:0:0:0:
236,194,35643,2,0,L|209:191,1,26.6666666666667,0|0,0:0|0:0,0:0:0:0:
463,103,35951,1,0,0:0:0:0:
300,312,36105,5,0,0:0:0:0:
209,191,36258,1,0,0:0:0:0:
166,381,36412,1,0,0:0:0:0:
66,140,36566,5,0,0:0:0:0:
329,95,36720,1,0,0:0:0:0:
52,28,36874,1,0,0:0:0:0:
369,185,37028,6,0,L|384:273,1,86.6666626993817,0|0,0:0|0:0,0:0:0:0:
478,300,37335,1,0,0:0:0:0:
274,155,37489,2,0,L|281:112,1,29.9999990844727,0|0,0:0|0:0,0:0:0:0:
0,239,37797,5,0,0:0:0:0:
204,94,37951,2,0,L|196:51,1,29.9999990844727,0|0,0:0|0:0,0:0:0:0:
430,369,38258,5,0,0:0:0:0:
287,162,38412,2,0,L|308:124,1,29.9999990844727,0|0,0:0|0:0,0:0:0:0:
48,308,38720,5,0,0:0:0:0:
191,101,38874,2,0,L|169:63,1,29.9999990844727,0|0,0:0|0:0,0:0:0:0:
491,307,39181,5,0,0:0:0:0:
287,162,39335,2,0,L|294:119,1,29.9999990844727,0|0,0:0|0:0,0:0:0:0:
21,253,39643,5,0,0:0:0:0:
197,193,39797,5,0,0:0:0:0:
172,349,39951,1,0,0:0:0:0:
299,255,40105,1,0,0:0:0:0:
95,131,40258,5,0,0:0:0:0:
177,369,40412,1,0,0:0:0:0:
15,236,40566,1,0,0:0:0:0:
320,255,40720,5,0,0:0:0:0:
270,92,40874,1,0,0:0:0:0:
140,264,41028,1,0,0:0:0:0:
339,236,41181,1,0,0:0:0:0:
239,77,41335,1,0,0:0:0:0:
150,297,41489,1,0,0:0:0:0:
388,117,41643,5,0,0:0:0:0:
444,350,41797,1,0,0:0:0:0:
222,215,41951,1,0,0:0:0:0:
421,120,42105,1,0,0:0:0:0:
414,384,42259,1,0,0:0:0:0:
217,177,42413,1,0,0:0:0:0:
512,214,42566,5,0,0:0:0:0:
301,54,42720,2,0,P|275:62|245:84,1,50.0000019073487,0|0,0:0|0:0,0:0:0:0:
291,330,42874,1,0,0:0:0:0:
53,78,43028,5,0,0:0:0:0:
312,244,43181,1,0,0:0:0:0:
63,288,43335,2,0,P|56:264|54:239,1,50.0000019073487,0|0,0:0|0:0,0:0:0:0:
174,64,43489,5,0,0:0:0:0:
219,370,43643,1,0,0:0:0:0:
414,110,43797,1,0,0:0:0:0:
78,159,43951,1,0,0:0:0:0:
365,371,44105,1,0,0:0:0:0:
310,2,44258,1,0,0:0:0:0:
66,333,44412,5,0,0:0:0:0:
384,59,47181,5,0,0:0:0:0:
156,98,47335,1,0,0:0:0:0:
356,149,47489,1,0,0:0:0:0:
183,187,47643,1,0,0:0:0:0:
329,239,47797,1,0,0:0:0:0:
210,277,47951,1,0,0:0:0:0:
445,338,48105,6,0,P|451:237|475:96,1,226.66667098999,0|0,0:0|0:0,0:0:0:0:
67,338,48566,2,0,P|60:237|36:96,1,226.66667098999,0|0,0:0|0:0,0:0:0:0:
464,333,49028,6,0,P|470:232|494:91,1,226.66667098999,0|0,0:0|0:0,0:0:0:0:
48,333,49489,2,0,P|41:232|17:91,1,226.66667098999,0|0,0:0|0:0,0:0:0:0:
358,365,49951,5,0,0:0:0:0:
373,151,50105,1,0,0:0:0:0:
154,365,50258,1,0,0:0:0:0:
449,263,50412,1,0,0:0:0:0:
449,263,50489,1,0,0:0:0:0:
449,263,50566,1,0,0:0:0:0:
169,151,50720,1,0,0:0:0:0:
358,365,50874,5,0,0:0:0:0:
509,141,51028,1,0,0:0:0:0:
271,49,51181,1,0,0:0:0:0:
452,352,51335,5,0,0:0:0:0:
354,67,51489,1,0,0:0:0:0:
154,365,51643,1,0,0:0:0:0:
468,224,51797,6,0,P|470:111|449:-6,1,226.66667098999,0|0,0:0|0:0,0:0:0:0:
44,224,52258,2,0,P|42:111|63:-6,1,226.66667098999,0|0,0:0|0:0,0:0:0:0:
486,230,52720,6,0,P|487:116|468:5,1,226.66667098999,0|0,0:0|0:0,0:0:0:0:
26,230,53181,2,0,P|24:117|45:0,1,226.66667098999,0|0,0:0|0:0,0:0:0:0:
378,287,53643,5,0,0:0:0:0:
378,287,53797,1,0,0:0:0:0:
283,121,53951,1,0,0:0:0:0:
132,330,54105,2,0,P|176:348|219:344,2,83.3333333333333,0|0|0,0:0|0:0|0:0,0:0:0:0:
62,46,54566,6,0,L|75:189,1,139.999995727539,0|0,0:0|0:0,0:0:0:0:
78,207,54874,2,0,P|113:217|137:214,1,46.6666652425131,0|0,0:0|0:0,0:0:0:0:
273,179,55028,1,0,0:0:0:0:
173,24,55181,1,0,0:0:0:0:
423,141,55335,1,0,0:0:0:0:
96,96,55489,6,0,P|41:103|-9:141,1,103.333334121704,0|0,0:0|0:0,0:0:0:0:
220,340,55797,1,0,0:0:0:0:
266,69,55951,1,0,0:0:0:0:
40,337,56105,2,0,P|90:331|134:304,1,103.333334121704,0|0,0:0|0:0,0:0:0:0:
173,24,56412,5,0,0:0:0:0:
271,253,56566,1,0,0:0:0:0:
355,91,56720,2,0,P|378:81|404:78,1,51.6666670608521,0|0,0:0|0:0,0:0:0:0:
493,218,56874,5,0,0:0:0:0:
493,254,56951,1,0,0:0:0:0:
478,287,57028,5,0,0:0:0:0:
447,245,57105,1,0,0:0:0:0:
398,229,57181,5,0,0:0:0:0:
356,281,57258,1,0,0:0:0:0:
372,346,57335,5,0,0:0:0:0:
495,87,57489,1,0,0:0:0:0:
239,118,57643,1,0,0:0:0:0:
478,287,57797,5,0,0:0:0:0:
381,17,57951,1,0,0:0:0:0:
221,219,58105,1,0,0:0:0:0:
511,170,58258,5,0,0:0:0:0:
154,39,58412,1,0,0:0:0:0:
191,340,58566,1,0,0:0:0:0:
395,210,58720,6,0,P|402:151|377:93,2,113.333335494995,0|0|0,0:0|0:0|0:0,0:0:0:0:
67,357,59181,5,0,0:0:0:0:
271,0,59335,1,0,0:0:0:0:
319,310,59489,1,0,0:0:0:0:
73,58,59643,5,0,0:0:0:0:
470,162,59797,1,0,0:0:0:0:
183,289,59951,1,0,0:0:0:0:
445,27,60105,5,0,0:0:0:0:
241,384,60259,1,0,0:0:0:0:
193,74,60413,1,0,0:0:0:0:
439,326,60567,5,0,0:0:0:0:
42,222,60721,1,0,0:0:0:0:
329,95,60875,1,0,0:0:0:0:
96,342,61028,5,0,0:0:0:0:
455,183,61181,1,0,0:0:0:0:
162,106,61335,1,0,0:0:0:0:
411,383,61489,5,0,0:0:0:0:
283,12,61642,1,0,0:0:0:0:
181,296,61796,1,0,0:0:0:0:
400,52,61951,5,0,0:0:0:0:
41,211,62104,1,0,0:0:0:0:
334,288,62258,1,0,0:0:0:0:
85,11,62412,5,0,0:0:0:0:
213,382,62565,1,0,0:0:0:0:
315,98,62719,1,0,0:0:0:0:
27,355,62874,5,0,0:0:0:0:
398,182,63028,1,0,0:0:0:0:
177,384,63181,1,0,0:0:0:0:
394,76,63335,5,0,0:0:0:0:
23,249,63489,1,0,0:0:0:0:
244,47,63642,1,0,0:0:0:0:
334,384,63797,5,0,0:0:0:0:
90,126,63951,1,0,0:0:0:0:
337,257,64105,1,0,0:0:0:0:
189,0,64258,5,0,0:0:0:0:
433,258,64412,1,0,0:0:0:0:
186,127,64566,1,0,0:0:0:0:
510,54,64720,6,0,B|526:108|526:108|508:240,1,180.000000686646,0|0,0:0|0:0,0:0:0:0:
385,339,65181,1,0,0:0:0:0:
432,113,65335,1,0,0:0:0:0:
297,360,65489,1,0,0:0:0:0:
195,59,65643,1,0,0:0:0:0:
195,59,65951,5,0,0:0:0:0:
33,253,66105,2,0,L|22:163,2,90.0000003433228,0|0|0,0:0|0:0|0:0,0:0:0:0:
288,129,66566,2,0,B|233:160|233:160|87:150,1,180.000000686646,0|0,0:0|0:0,0:0:0:0:
7,65,67028,1,0,0:0:0:0:
124,257,67181,1,0,0:0:0:0:
96,13,67335,1,0,0:0:0:0:
227,292,67489,6,0,L|416:309,1,150.000005722046,0|0,0:0|0:0,0:0:0:0:
401,308,67797,1,0,0:0:0:0:
131,358,67951,2,0,P|76:347|30:317,1,110.000001049042,0|0,0:0|0:0,0:0:0:0:
394,204,68258,1,0,0:0:0:0:
152,91,68412,6,0,B|127:137|127:137|140:273,1,180.000000686646,0|0,0:0|0:0,0:0:0:0:
365,384,68874,1,0,0:0:0:0:
219,153,69028,1,0,0:0:0:0:
269,379,69181,1,0,0:0:0:0:
478,110,69335,1,0,0:0:0:0:
478,110,69643,5,0,0:0:0:0:
226,30,69797,2,0,L|347:42,2,90.0000003433228,0|0|0,0:0|0:0|0:0,0:0:0:0:
461,197,70258,6,0,L|496:381,1,180.000000686646,0|0,0:0|0:0,0:0:0:0:
316,128,70720,1,0,0:0:0:0:
281,349,70874,1,0,0:0:0:0:
173,91,71028,1,0,0:0:0:0:
322,245,71181,5,0,0:0:0:0:
366,237,71257,1,0,0:0:0:0:
403,213,71334,1,0,0:0:0:0:
428,176,71411,1,0,0:0:0:0:
436,132,71488,1,0,0:0:0:0:
425,88,71565,1,0,0:0:0:0:
353,14,71643,5,0,0:0:0:0:
293,4,71719,1,0,0:0:0:0:
233,1,71796,1,0,0:0:0:0:
174,4,71873,1,0,0:0:0:0:
114,13,71950,1,0,0:0:0:0:
56,28,72027,1,0,0:0:0:0:
0,49,72105,6,0,B|-29:107|4:172|4:172|35:233,1,180.000000686646,0|0,0:0|0:0,0:0:0:0:
177,343,72566,1,0,0:0:0:0:
93,106,72720,1,0,0:0:0:0:
295,163,72874,1,0,0:0:0:0:
15,372,73028,1,0,0:0:0:0:
15,372,73335,5,0,0:0:0:0:
292,270,73489,2,0,L|191:251,2,90.0000003433228,0|0|0,0:0|0:0|0:0,0:0:0:0:
14,275,73951,6,0,B|-12:216|-12:216|16:76,1,180.000000686646,0|0,0:0|0:0,0:0:0:0:
279,26,74412,1,0,0:0:0:0:
80,203,74566,1,0,0:0:0:0:
161,0,74720,1,0,0:0:0:0:
247,299,74874,6,0,P|296:315|436:316,1,150.000005722046,0|0,0:0|0:0,0:0:0:0:
417,316,75181,1,0,0:0:0:0:
181,190,75335,2,0,P|235:195|287:213,1,110.000001049042,0|0,0:0|0:0,0:0:0:0:
6,378,75643,1,0,0:0:0:0:
78,68,75797,6,0,B|49:194|49:194|76:277,1,180.000000686646,0|0,0:0|0:0,0:0:0:0:
217,87,76258,1,0,0:0:0:0:
144,299,76412,1,0,0:0:0:0:
368,196,76566,1,0,0:0:0:0:
151,7,76720,1,0,0:0:0:0:
151,7,77028,5,0,0:0:0:0:
245,251,77181,2,0,L|258:157,2,90.0000003433228,0|0|0,0:0|0:0|0:0,0:0:0:0:
33,31,77643,6,0,B|69:81|69:81|46:227,1,180.000000686646,0|0,0:0|0:0,0:0:0:0:
0,347,78105,1,0,0:0:0:0:
198,147,78258,1,0,0:0:0:0:
180,365,78412,1,0,0:0:0:0:
347,154,78566,5,0,0:0:0:0:
348,109,78642,1,0,0:0:0:0:
333,67,78719,1,0,0:0:0:0:
302,34,78796,1,0,0:0:0:0:
262,15,78873,1,0,0:0:0:0:
217,14,78950,1,0,0:0:0:0:
136,79,79028,5,0,0:0:0:0:
144,143,79104,1,0,0:0:0:0:
173,203,79181,1,0,0:0:0:0:
217,251,79258,1,0,0:0:0:0:
273,284,79335,1,0,0:0:0:0:
338,301,79412,1,0,0:0:0:0:
403,297,79489,6,0,B|455:279|462:214|462:214|472:109,1,173.333325398763,0|0,0:0|0:0,0:0:0:0:
247,0,79951,1,0,0:0:0:0:
374,219,80104,1,0,0:0:0:0:
337,28,80258,1,0,0:0:0:0:
147,178,80412,6,0,B|138:242|138:242|130:307|177:336,1,173.333325398763,0|0,0:0|0:0,0:0:0:0:
367,346,80874,1,0,0:0:0:0:
240,127,81027,1,0,0:0:0:0:
277,318,81181,1,0,0:0:0:0:
332,93,81335,6,0,B|314:40|249:33|249:33|144:23,1,173.333325398763,0|0,0:0|0:0,0:0:0:0:
49,164,81797,1,0,0:0:0:0:
240,127,81951,1,0,0:0:0:0:
21,254,82104,1,0,0:0:0:0:
150,101,82258,5,0,0:0:0:0:
199,384,82412,1,0,0:0:0:0:
154,125,82566,1,0,0:0:0:0:
337,367,82720,5,0,0:0:0:0:
199,200,82874,1,0,0:0:0:0:
323,349,83028,1,0,0:0:0:0:
181,284,83181,6,0,B|31:263|31:263|57:297,1,186.666660970052,0|0,0:0|0:0,0:0:0:0:
237,353,83643,1,0,0:0:0:0:
112,186,83797,1,0,0:0:0:0:
362,279,83951,1,0,0:0:0:0:
223,36,84105,6,0,B|243:185|243:185|210:160,1,186.666660970052,0|0,0:0|0:0,0:0:0:0:
129,7,84566,1,0,0:0:0:0:
347,181,84720,1,0,0:0:0:0:
138,102,84874,1,0,0:0:0:0:
463,23,85028,6,0,L|484:161,1,119.999996337891,0|0,0:0|0:0,0:0:0:0:
168,384,85335,6,0,P|131:351|117:318,1,56.6666677474976,0|0,0:0|0:0,0:0:0:0:
381,37,85489,2,0,P|370:84|349:113,1,56.6666677474976,0|0,0:0|0:0,0:0:0:0:
18,27,85643,6,0,P|63:16|129:20,1,106.666666666667,0|0,0:0|0:0,0:0:0:0:
384,193,85951,2,0,P|330:196|279:184,1,100.000003814697,0|0,0:0|0:0,0:0:0:0:
200,51,86258,5,0,0:0:0:0:
322,286,86412,1,0,0:0:0:0:
282,0,86566,6,0,L|330:12,1,50.0000019073487,0|0,0:0|0:0,0:0:0:0:
240,337,86720,2,0,L|191:324,1,50.0000019073487,0|0,0:0|0:0,0:0:0:0:
89,37,86874,6,0,P|110:91|102:144,1,79.9999975585938,0|0,0:0|0:0,0:0:0:0:
110,112,87181,1,0,0:0:0:0:
35,265,87335,1,0,0:0:0:0:
15,183,87489,1,0,0:0:0:0:
15,183,87643,1,0,0:0:0:0:
196,95,87797,6,0,P|187:152|153:194,1,79.9999975585938,0|0,0:0|0:0,0:0:0:0:
176,170,88104,1,0,0:0:0:0:
35,265,88258,1,0,0:0:0:0:
58,184,88412,1,0,0:0:0:0:
58,184,88566,2,0,P|90:194|105:205,1,39.9999987792969,0|0,0:0|0:0,0:0:0:0:
181,347,88720,6,0,P|238:338|280:304,1,79.9999975585938,0|0,0:0|0:0,0:0:0:0:
256,327,89027,1,0,0:0:0:0:
351,186,89181,1,0,0:0:0:0:
270,210,89335,1,0,0:0:0:0:
270,210,89489,1,0,0:0:0:0:
399,329,89643,5,0,0:0:0:0:
399,329,89720,1,0,0:0:0:0:
399,329,89797,1,0,0:0:0:0:
453,274,89950,1,0,0:0:0:0:
409,125,90104,1,0,0:0:0:0:
351,186,90258,1,0,0:0:0:0:
493,126,90412,2,0,P|490:95|471:66,1,39.9999987792969,0|0,0:0|0:0,0:0:0:0:
339,16,90566,6,0,P|301:28|247:27,1,79.9999975585938,0|0,0:0|0:0,0:0:0:0:
179,11,90874,1,0,0:0:0:0:
324,105,91028,1,0,0:0:0:0:
231,111,91181,1,0,0:0:0:0:
231,111,91335,1,0,0:0:0:0:
409,138,91489,6,0,P|382:167|334:193,1,79.9999975585938,0|0,0:0|0:0,0:0:0:0:
348,188,91720,1,0,0:0:0:0:
348,188,91797,1,0,0:0:0:0:
414,57,91951,1,0,0:0:0:0:
494,112,92104,1,0,0:0:0:0:
494,112,92258,2,0,P|499:131|501:151,1,39.9999987792969,0|0,0:0|0:0,0:0:0:0:
404,298,92412,6,0,P|391:260|393:206,1,79.9999975585938,0|0,0:0|0:0,0:0:0:0:
409,138,92720,1,0,0:0:0:0:
315,283,92874,1,0,0:0:0:0:
310,193,93027,1,0,0:0:0:0:
310,193,93181,1,0,0:0:0:0:
236,338,93335,5,0,0:0:0:0:
175,264,93489,1,0,0:0:0:0:
148,264,93566,2,0,P|136:248|119:241,1,19.9999993896485,0|0,0:0|0:0,0:0:0:0:
118,266,93643,1,0,0:0:0:0:
219,186,93797,1,0,0:0:0:0:
152,357,93951,2,0,P|133:361|113:358,1,39.9999987792969,0|0,0:0|0:0,0:0:0:0:
57,192,94105,1,0,0:0:0:0:
152,35,94258,6,0,L|137:122,1,79.9999975585938,0|0,0:0|0:0,0:0:0:0:
195,182,94566,1,0,0:0:0:0:
65,53,94720,1,0,0:0:0:0:
0,121,94874,1,0,0:0:0:0:
0,121,95028,1,0,0:0:0:0:
108,198,95181,5,0,0:0:0:0:
108,198,95258,1,0,0:0:0:0:
108,198,95335,1,0,0:0:0:0:
43,266,95489,1,0,0:0:0:0:
198,240,95643,1,0,0:0:0:0:
198,240,95720,2,0,P|226:245|241:254,1,39.9999987792969,0|0,0:0|0:0,0:0:0:0:
250,336,95874,1,0,0:0:0:0:
250,336,95951,2,0,P|269:343|289:347,1,39.9999987792969,0|0,0:0|0:0,0:0:0:0:
419,284,96105,6,0,L|434:197,1,79.9999975585938,0|0,0:0|0:0,0:0:0:0:
315,101,96412,2,0,P|293:105|276:126,1,39.9999987792969,0|0,0:0|0:0,0:0:0:0:
332,276,96566,1,0,0:0:0:0:
333,191,96720,1,0,0:0:0:0:
333,191,96874,1,0,0:0:0:0:
487,136,97028,5,0,0:0:0:0:
487,136,97105,1,0,0:0:0:0:
487,136,97181,1,0,0:0:0:0:
432,205,97335,1,0,0:0:0:0:
370,57,97489,2,0,L|376:23,10,19.9999993896485,0|0|0|0|0|0|0|0|0|0|0,0:0|0:0|0:0|0:0|0:0|0:0|0:0|0:0|0:0|0:0|0:0,0:0:0:0:
250,131,97951,6,0,B|207:137|207:137|159:129,1,79.9999975585938,0|0,0:0|0:0,0:0:0:0:
170,130,98181,1,0,0:0:0:0:
170,130,98258,2,0,P|146:152|119:158,1,39.9999987792969,0|0,0:0|0:0,0:0:0:0:
29,14,98412,1,0,0:0:0:0:
174,19,98566,2,0,P|185:31|198:32,1,19.9999993896485,0|0,0:0|0:0,0:0:0:0:
147,9,98643,1,0,0:0:0:0:
119,12,98720,2,0,P|115:40|126:63,1,39.9999987792969,0|0,0:0|0:0,0:0:0:0:
212,41,98874,5,0,0:0:0:0:
270,147,99028,2,0,P|273:166|282:184,1,39.9999987792969,0|0,0:0|0:0,0:0:0:0:
296,62,99181,1,0,0:0:0:0:
365,209,99335,1,0,0:0:0:0:
417,127,99489,1,0,0:0:0:0:
394,291,99643,2,0,P|354:296|325:284,1,39.9999987792969,0|0,0:0|0:0,0:0:0:0:
202,336,99797,6,0,P|184:364|182:385,1,39.9999987792969,0|0,0:0|0:0,0:0:0:0:
104,336,99951,2,0,P|88:341|68:340,2,19.9999993896485,0|0|0,0:0|0:0|0:0,0:0:0:0:
43,261,100105,1,0,0:0:0:0:
48,234,100181,2,0,P|54:218|66:209,1,19.9999993896485,0|0,0:0|0:0,0:0:0:0:
44,207,100258,2,0,P|35:184|38:150,1,39.9999987792969,0|0,0:0|0:0,0:0:0:0:
205,75,100412,1,0,0:0:0:0:
135,253,100566,1,0,0:0:0:0:
241,157,100720,6,0,P|275:147|311:150,1,39.9999987792969,0|0,0:0|0:0,0:0:0:0:
364,183,100874,1,0,0:0:0:0:
365,163,100951,1,0,0:0:0:0:
382,153,101028,1,0,0:0:0:0:
399,162,101105,1,0,0:0:0:0:
399,202,101181,1,0,0:0:0:0:
504,259,101335,1,0,0:0:0:0:
468,103,101489,2,0,P|479:78|504:60,1,39.9999987792969,0|0,0:0|0:0,0:0:0:0:
408,40,101643,5,0,0:0:0:0:
301,70,101797,2,0,P|269:64|249:48,1,39.9999987792969,0|0,0:0|0:0,0:0:0:0:
234,33,101951,2,0,P|258:54|268:78,1,39.9999987792969,0|0,0:0|0:0,0:0:0:0:
233,141,102105,1,0,0:0:0:0:
212,157,102181,1,0,0:0:0:0:
187,168,102258,1,0,0:0:0:0:
161,171,102335,1,0,0:0:0:0:
135,166,102412,1,0,0:0:0:0:
111,154,102489,1,0,0:0:0:0:
92,136,102566,6,0,P|83:99|93:60,1,66.6666666666667,0|0,0:0|0:0,0:0:0:0:
87,71,102874,1,0,0:0:0:0:
164,15,103028,2,0,P|172:46|168:79,1,66.6666666666667,0|0,0:0|0:0,0:0:0:0:
168,79,103335,1,0,0:0:0:0:
18,73,103489,6,0,P|99:62|279:-4,1,266.666666666667,0|0,0:0|0:0,0:0:0:0:
8,311,103951,2,0,P|89:322|269:388,1,266.666666666667,0|0,0:0|0:0,0:0:0:0:
66,50,104412,6,0,P|147:46|332:-3,1,266.666666666667,0|0,0:0|0:0,0:0:0:0:
66,334,104874,2,0,P|147:337|332:387,1,266.666666666667,0|0,0:0|0:0,0:0:0:0:
43,47,105335,5,0,0:0:0:0:
305,110,105489,1,0,0:0:0:0:
7,307,105643,1,0,0:0:0:0:
251,24,105797,1,0,0:0:0:0:
251,24,105874,1,0,0:0:0:0:
251,24,105951,1,0,0:0:0:0:
200,333,106105,1,0,0:0:0:0:
43,47,106258,5,0,0:0:0:0:
305,110,106412,1,0,0:0:0:0:
62,365,106566,1,0,0:0:0:0:
105,99,106720,5,0,0:0:0:0:
200,333,106874,1,0,0:0:0:0:
346,25,107028,1,0,0:0:0:0:
390,322,107181,6,0,P|411:191|474:74,1,266.666666666667,0|0,0:0|0:0,0:0:0:0:
122,321,107643,2,0,P|100:190|37:73,1,266.666666666667,0|0,0:0|0:0,0:0:0:0:
437,351,108105,6,0,P|424:219|470:95,1,266.666666666667,0|0,0:0|0:0,0:0:0:0:
75,351,108566,2,0,P|87:219|41:95,1,266.666666666667,0|0,0:0|0:0,0:0:0:0:
320,366,109028,5,0,0:0:0:0:
384,35,109181,1,0,0:0:0:0:
66,145,109335,1,0,0:0:0:0:
351,352,109489,1,0,0:0:0:0:
357,15,109643,1,0,0:0:0:0:
63,179,109797,1,0,0:0:0:0:
474,246,109951,5,0,0:0:0:0:
429,187,110028,1,0,0:0:0:0:
358,165,110105,1,0,0:0:0:0:
96,340,110258,5,0,0:0:0:0:
140,334,110335,1,0,0:0:0:0:
172,304,110412,1,0,0:0:0:0:
190,0,110566,5,0,0:0:0:0:
167,54,110643,1,0,0:0:0:0:
180,112,110720,1,0,0:0:0:0:
488,325,110874,6,0,P|377:314|198:363,1,266.666666666667
488,59,111335,2,0,P|377:70|198:21,1,266.666666666667
512,384,111797,6,0,P|407:344|222:345,1,266.666666666667
512,0,112258,2,0,P|407:39|222:38,1,266.666666666667
420,251,112720,5,0,0:0:0:0:
253,44,112874,1,0,0:0:0:0:
77,365,113028,1,0,0:0:0:0:
343,158,113181,1,0,0:0:0:0:
343,158,113258,1,0,0:0:0:0:
343,158,113335,1,0,0:0:0:0:
62,234,113489,1,0,0:0:0:0:
265,372,113643,5,0,0:0:0:0:
77,103,113797,1,0,0:0:0:0:
457,68,113951,1,0,0:0:0:0:
203,196,114105,5,0,0:0:0:0:
380,8,114258,1,0,0:0:0:0:
494,333,114412,1,0,0:0:0:0:
256,47,114566,6,0,P|124:49|-27:19,1,266.666666666667
256,337,115028,2,0,P|124:334|-27:365,1,266.666666666667
512,0,115489,6,0,P|373:-13|240:7,1,266.666666666667,0|0,3:0|0:0,0:0:0:0:
512,383,115951,2,0,P|373:397|240:377,1,266.666666666667,0|0,3:0|0:0,0:0:0:0:
46,119,116412,5,0,0:0:0:0:
300,236,116566,1,0,0:0:0:0:
161,16,116720,1,0,0:0:0:0:
311,238,116874,1,0,0:0:0:0:
90,52,117028,1,0,0:0:0:0:
323,239,117181,1,0,0:0:0:0:
39,257,117335,5,0,0:0:0:0:
342,92,117490,1,0,0:0:0:0:
169,373,117643,1,0,0:0:0:0:
343,78,117797,1,0,0:0:0:0:
89,332,117951,1,0,0:0:0:0:
346,66,118104,1,0,0:0:0:0:
335,379,118258,5,0,0:0:0:0:
136,65,118412,1,0,0:0:0:0:
479,250,118566,1,0,0:0:0:0:
135,50,118719,1,0,0:0:0:0:
424,334,118874,1,0,0:0:0:0:
132,37,119027,1,0,0:0:0:0:
480,135,119181,5,0,0:0:0:0:
68,357,119336,1,0,0:0:0:0:
332,3,119489,1,0,0:0:0:0:
51,358,119643,1,0,0:0:0:0:
424,49,119797,1,0,0:0:0:0:
37,362,119950,1,0,0:0:0:0:
89,47,120105,5,0,0:0:0:0:
218,341,120258,1,0,0:0:0:0:
325,129,120412,1,0,0:0:0:0:
41,266,120566,5,0,0:0:0:0:
380,303,120720,1,0,0:0:0:0:
260,58,120874,1,0,0:0:0:0:
135,379,121028,5,0,0:0:0:0:
0,0,121181,1,0,0:0:0:0:
349,43,121335,1,0,0:0:0:0:
44,351,121489,5,0,0:0:0:0:
438,29,121643,1,0,0:0:0:0:
511,371,121797,1,0,0:0:0:0:
187,0,121951,5,0,0:0:0:0:
187,0,122412,1,0,0:0:0:0:
187,0,122874,1,0,0:0:0:0:
256,91,123181,5,0,0:0:0:0:
13,23,123335,5,0,0:0:0:0:
388,67,123489,1,0,0:0:0:0:
101,146,123643,1,0,0:0:0:0:
506,330,123797,5,0,0:0:0:0:
