osu file format v14

[General]
AudioFilename: zone1_3.mp3
AudioLeadIn: 0
PreviewTime: 25610
Countdown: 0
SampleSet: Normal
StackLeniency: 0.7
Mode: 3
LetterboxInBreaks: 0
SpecialStyle: 0
WidescreenStoryboard: 1

[Editor]
DistanceSpacing: 1.6
BeatDivisor: 4
GridSize: 8
TimelineZoom: 1.7

[Metadata]
Title:Crypt of the Necrodancer - Zone 1-3
TitleUnicode:Crypt of the Necrodancer - Zone 1-3
Artist:Danny Baranowsky
ArtistUnicode:Danny Baranowsky
Creator:CircusGalop
Version:10K NM
Source:Crypt of the Necrodancer
Tags:
BeatmapID:733798
BeatmapSetID:330793

[Difficulty]
HPDrainRate:5
CircleSize:10
OverallDifficulty:5
ApproachRate:5
SliderMultiplier:1.4
SliderTickRate:1

[Events]
//Background and Video events
0,0,"mainmenu.png",0,0
//Break Periods
//Storyboard Layer 0 (Background)
//Storyboard Layer 1 (Fail)
//Storyboard Layer 2 (Pass)
//Storyboard Layer 3 (Foreground)
//Storyboard Sound Samples

[TimingPoints]
10,400,4,1,0,50,1,0

[HitObjects]
486,192,10,5,0,0:0:0:0:
486,192,410,1,0,0:0:0:0:
486,192,810,1,0,0:0:0:0:
486,192,1110,1,0,0:0:0:0:
281,192,1410,1,0,0:0:0:0:
486,192,1610,1,0,0:0:0:0:
486,192,2010,1,0,0:0:0:0:
486,192,2510,1,0,0:0:0:0:
435,192,2610,1,0,0:0:0:0:
332,192,2710,1,0,0:0:0:0:
179,192,2910,1,0,0:0:0:0:
128,192,3010,1,0,0:0:0:0:
76,192,3110,1,0,0:0:0:0:
25,192,3210,1,0,0:0:0:0:
25,192,3610,1,0,0:0:0:0:
25,192,4010,1,0,0:0:0:0:
25,192,4310,1,0,0:0:0:0:
230,192,4610,1,0,0:0:0:0:
25,192,4810,1,0,0:0:0:0:
25,192,5210,1,0,0:0:0:0:
25,192,5710,1,0,0:0:0:0:
76,192,5810,1,0,0:0:0:0:
179,192,5910,1,0,0:0:0:0:
332,192,6110,1,0,0:0:0:0:
384,192,6210,1,0,0:0:0:0:
435,192,6310,1,0,0:0:0:0:
486,192,6410,5,0,0:0:0:0:
486,192,6810,1,0,0:0:0:0:
486,192,7210,1,0,0:0:0:0:
486,192,7510,1,0,0:0:0:0:
281,192,7810,1,0,0:0:0:0:
486,192,8010,1,0,0:0:0:0:
486,192,8410,1,0,0:0:0:0:
486,192,8910,1,0,0:0:0:0:
435,192,9010,1,0,0:0:0:0:
332,192,9110,1,0,0:0:0:0:
179,192,9310,1,0,0:0:0:0:
128,192,9410,1,0,0:0:0:0:
76,192,9510,1,0,0:0:0:0:
25,192,9610,1,0,0:0:0:0:
25,192,10010,1,0,0:0:0:0:
25,192,10410,1,0,0:0:0:0:
25,192,10710,1,0,0:0:0:0:
230,192,11010,1,0,0:0:0:0:
25,192,11210,1,0,0:0:0:0:
25,192,11610,1,0,0:0:0:0:
25,192,12110,1,0,0:0:0:0:
76,192,12210,1,0,0:0:0:0:
179,192,12310,1,0,0:0:0:0:
332,192,12510,1,0,0:0:0:0:
384,192,12610,1,0,0:0:0:0:
435,192,12710,1,0,0:0:0:0:
76,192,12810,1,0,0:0:0:0:
486,192,12810,1,0,0:0:0:0:
486,192,13210,1,0,0:0:0:0:
128,192,13210,1,0,0:0:0:0:
486,192,13610,1,0,0:0:0:0:
179,192,13610,1,0,0:0:0:0:
486,192,14010,1,0,0:0:0:0:
486,192,14410,1,0,0:0:0:0:
128,192,14410,1,0,0:0:0:0:
486,192,14810,1,0,0:0:0:0:
179,192,14810,1,0,0:0:0:0:
128,192,15010,1,0,0:0:0:0:
486,192,15210,1,0,0:0:0:0:
486,192,15610,1,0,0:0:0:0:
76,192,15610,1,0,0:0:0:0:
25,192,16010,1,0,0:0:0:0:
25,192,16410,1,0,0:0:0:0:
384,192,16410,1,0,0:0:0:0:
25,192,16810,1,0,0:0:0:0:
435,192,16810,1,0,0:0:0:0:
25,192,17210,1,0,0:0:0:0:
25,192,17610,1,0,0:0:0:0:
384,192,17610,1,0,0:0:0:0:
281,192,17810,1,0,0:0:0:0:
25,192,18010,1,0,0:0:0:0:
384,192,18010,1,0,0:0:0:0:
332,192,18210,1,0,0:0:0:0:
25,192,18410,1,0,0:0:0:0:
25,192,18810,1,0,0:0:0:0:
281,192,18810,1,0,0:0:0:0:
486,192,19210,1,0,0:0:0:0:
76,192,19210,1,0,0:0:0:0:
486,192,19610,1,0,0:0:0:0:
128,192,19610,1,0,0:0:0:0:
486,192,20010,1,0,0:0:0:0:
179,192,20010,1,0,0:0:0:0:
486,192,20410,1,0,0:0:0:0:
179,192,20410,1,0,0:0:0:0:
486,192,20810,1,0,0:0:0:0:
128,192,20810,1,0,0:0:0:0:
486,192,21210,1,0,0:0:0:0:
230,192,21210,1,0,0:0:0:0:
179,192,21410,1,0,0:0:0:0:
486,192,21610,1,0,0:0:0:0:
486,192,22010,1,0,0:0:0:0:
128,192,22010,1,0,0:0:0:0:
25,192,22410,1,0,0:0:0:0:
435,192,22410,1,0,0:0:0:0:
25,192,22810,1,0,0:0:0:0:
25,192,23210,1,0,0:0:0:0:
25,192,23610,1,0,0:0:0:0:
25,192,24010,1,0,0:0:0:0:
384,192,24010,1,0,0:0:0:0:
25,192,24410,1,0,0:0:0:0:
332,192,24810,1,0,0:0:0:0:
384,192,25610,1,0,0:0:0:0:
281,192,25810,128,0,26110:0:0:0:0:
76,192,26010,1,8,0:0:0:0:
332,192,26210,1,0,0:0:0:0:
384,192,26310,1,0,0:0:0:0:
435,192,26410,1,0,0:0:0:0:
486,192,26610,128,0,26910:0:0:0:0:
76,192,26810,1,8,0:0:0:0:
435,192,27010,1,0,0:0:0:0:
384,192,27210,1,0,0:0:0:0:
435,192,27310,1,0,0:0:0:0:
384,192,27410,1,0,0:0:0:0:
332,192,27510,1,0,0:0:0:0:
384,192,27610,1,0,0:0:0:0:
76,192,27610,1,8,0:0:0:0:
281,192,27810,1,0,0:0:0:0:
384,192,28010,1,0,0:0:0:0:
435,192,28210,1,0,0:0:0:0:
384,192,28410,1,0,0:0:0:0:
76,192,28410,1,8,0:0:0:0:
332,192,28610,1,0,0:0:0:0:
486,192,28810,1,0,0:0:0:0:
281,192,29010,1,0,0:0:0:0:
332,192,29210,1,0,0:0:0:0:
76,192,29210,1,8,0:0:0:0:
384,192,29410,1,0,0:0:0:0:
435,192,29610,1,0,0:0:0:0:
486,192,29810,1,0,0:0:0:0:
435,192,30010,1,0,0:0:0:0:
76,192,30010,1,8,0:0:0:0:
384,192,30210,1,0,0:0:0:0:
435,192,30410,1,0,0:0:0:0:
384,192,30610,1,0,0:0:0:0:
332,192,30810,1,0,0:0:0:0:
76,192,30810,1,8,0:0:0:0:
384,192,31010,1,0,0:0:0:0:
435,192,31210,1,0,0:0:0:0:
384,192,31410,1,0,0:0:0:0:
486,192,31610,1,0,0:0:0:0:
76,192,31610,1,8,0:0:0:0:
384,192,31810,1,0,0:0:0:0:
230,192,32010,128,0,32410:0:0:0:0:
25,192,32410,1,0,0:0:0:0:
435,192,32410,1,8,0:0:0:0:
76,192,32610,1,0,0:0:0:0:
128,192,32810,128,0,33110:0:0:0:0:
179,192,33210,1,0,0:0:0:0:
435,192,33210,1,8,0:0:0:0:
128,192,33410,1,0,0:0:0:0:
179,192,33510,1,0,0:0:0:0:
230,192,33610,1,0,0:0:0:0:
25,192,33810,1,0,0:0:0:0:
76,192,34010,1,0,0:0:0:0:
435,192,34010,1,8,0:0:0:0:
128,192,34210,1,0,0:0:0:0:
179,192,34410,128,0,34710:0:0:0:0:
230,192,34810,128,0,35110:0:0:0:0:
435,192,34810,1,8,0:0:0:0:
25,192,35210,1,0,0:0:0:0:
76,192,35410,1,0,0:0:0:0:
128,192,35610,1,0,0:0:0:0:
435,192,35610,1,8,0:0:0:0:
179,192,35810,1,0,0:0:0:0:
128,192,36010,128,0,36310:0:0:0:0:
179,192,36410,128,0,36710:0:0:0:0:
435,192,36410,1,8,0:0:0:0:
230,192,36810,128,0,37310:0:0:0:0:
435,192,37210,1,8,0:0:0:0:
179,192,37410,1,0,0:0:0:0:
128,192,37510,1,0,0:0:0:0:
179,192,37610,128,0,38110:0:0:0:0:
435,192,38010,1,8,0:0:0:0:
128,192,38210,1,0,0:0:0:0:
76,192,38310,1,0,0:0:0:0:
25,192,38410,1,0,0:0:0:0:
281,192,38610,1,0,0:0:0:0:
384,192,38710,1,0,0:0:0:0:
281,192,38810,1,0,0:0:0:0:
128,192,39010,1,0,0:0:0:0:
230,192,39110,1,0,0:0:0:0:
128,192,39210,1,0,0:0:0:0:
281,192,39410,1,0,0:0:0:0:
384,192,39510,1,0,0:0:0:0:
435,192,39610,128,0,40010:0:0:0:0:
230,192,40010,1,0,0:0:0:0:
179,192,40110,1,0,0:0:0:0:
128,192,40210,1,0,0:0:0:0:
76,192,40310,1,0,0:0:0:0:
25,192,40410,1,0,0:0:0:0:
281,192,40610,1,0,0:0:0:0:
332,192,40710,1,0,0:0:0:0:
384,192,40810,1,0,0:0:0:0:
435,192,40910,1,0,0:0:0:0:
486,192,41010,1,0,0:0:0:0:
230,192,41210,128,0,41610:0:0:0:0:
25,192,41610,1,0,0:0:0:0:
332,192,41810,1,0,0:0:0:0:
435,192,41910,1,0,0:0:0:0:
332,192,42010,1,0,0:0:0:0:
76,192,42210,1,0,0:0:0:0:
179,192,42310,1,0,0:0:0:0:
76,192,42410,1,0,0:0:0:0:
332,192,42610,1,0,0:0:0:0:
435,192,42710,1,0,0:0:0:0:
486,192,42810,128,0,43210:0:0:0:0:
230,192,43210,1,0,0:0:0:0:
179,192,43310,1,0,0:0:0:0:
128,192,43410,1,0,0:0:0:0:
76,192,43510,1,0,0:0:0:0:
25,192,43610,1,0,0:0:0:0:
281,192,43810,1,0,0:0:0:0:
332,192,43910,1,0,0:0:0:0:
384,192,44010,1,0,0:0:0:0:
435,192,44110,1,0,0:0:0:0:
486,192,44210,1,0,0:0:0:0:
179,192,44410,1,0,0:0:0:0:
76,192,44510,1,0,0:0:0:0:
179,192,44610,1,0,0:0:0:0:
76,192,44710,1,0,0:0:0:0:
281,192,44810,128,0,45310:0:0:0:0:
281,192,45410,1,0,0:0:0:0:
76,192,45610,1,0,0:0:0:0:
179,192,45710,1,0,0:0:0:0:
76,192,45810,1,0,0:0:0:0:
435,192,46010,1,0,0:0:0:0:
332,192,46110,1,0,0:0:0:0:
435,192,46210,1,0,0:0:0:0:
230,192,46410,128,0,46910:0:0:0:0:
281,192,47010,1,0,0:0:0:0:
332,192,47110,1,0,0:0:0:0:
384,192,47210,1,0,0:0:0:0:
435,192,47310,1,0,0:0:0:0:
486,192,47410,1,0,0:0:0:0:
230,192,47510,1,0,0:0:0:0:
179,192,47610,1,0,0:0:0:0:
128,192,47710,1,0,0:0:0:0:
76,192,47810,1,0,0:0:0:0:
25,192,47910,1,0,0:0:0:0:
281,192,48010,128,0,48510:0:0:0:0:
281,192,48610,1,0,0:0:0:0:
76,192,48810,1,0,0:0:0:0:
179,192,48910,1,0,0:0:0:0:
76,192,49010,1,0,0:0:0:0:
435,192,49210,1,0,0:0:0:0:
332,192,49310,1,0,0:0:0:0:
435,192,49410,1,0,0:0:0:0:
25,192,49610,1,0,0:0:0:0:
25,192,49810,1,0,0:0:0:0:
25,192,50010,1,0,0:0:0:0:
281,192,50210,1,0,0:0:0:0:
281,192,50410,1,0,0:0:0:0:
281,192,50610,1,0,0:0:0:0:
128,192,50810,1,0,0:0:0:0:
384,192,50910,1,0,0:0:0:0:
128,192,51010,1,0,0:0:0:0:
384,192,51110,1,0,0:0:0:0:
230,192,51210,128,0,51710:0:0:0:0:
486,192,51610,1,8,0:0:0:0:
25,192,51810,1,0,0:0:0:0:
128,192,52010,1,0,0:0:0:0:
179,192,52110,1,0,0:0:0:0:
230,192,52210,1,0,0:0:0:0:
486,192,52410,1,8,0:0:0:0:
384,192,52410,1,0,0:0:0:0:
332,192,52510,1,0,0:0:0:0:
281,192,52610,1,0,0:0:0:0:
25,192,52810,128,0,53310:0:0:0:0:
486,192,53210,1,8,0:0:0:0:
230,192,53410,1,0,0:0:0:0:
179,192,53510,1,0,0:0:0:0:
128,192,53610,1,0,0:0:0:0:
76,192,53710,1,0,0:0:0:0:
25,192,53810,1,0,0:0:0:0:
486,192,53910,1,0,0:0:0:0:
230,192,54010,1,8,0:0:0:0:
435,192,54010,1,0,0:0:0:0:
384,192,54110,1,0,0:0:0:0:
332,192,54210,1,0,0:0:0:0:
281,192,54310,1,0,0:0:0:0:
486,192,54410,128,0,54910:0:0:0:0:
230,192,54810,1,8,0:0:0:0:
486,192,55010,1,0,0:0:0:0:
281,192,55210,1,0,0:0:0:0:
332,192,55310,1,0,0:0:0:0:
384,192,55410,1,0,0:0:0:0:
230,192,55610,1,8,0:0:0:0:
128,192,55610,1,0,0:0:0:0:
76,192,55710,1,0,0:0:0:0:
25,192,55810,1,0,0:0:0:0:
384,192,56010,1,0,0:0:0:0:
384,192,56210,1,0,0:0:0:0:
230,192,56410,1,8,0:0:0:0:
384,192,56410,1,0,0:0:0:0:
128,192,56610,1,0,0:0:0:0:
128,192,56810,1,0,0:0:0:0:
128,192,57010,1,0,0:0:0:0:
230,192,57210,1,8,0:0:0:0:
332,192,57210,1,0,0:0:0:0:
435,192,57310,1,0,0:0:0:0:
332,192,57410,1,0,0:0:0:0:
435,192,57510,1,0,0:0:0:0:
76,192,57610,128,0,59210:0:0:0:0:
281,192,57810,1,0,0:0:0:0:
384,192,57810,1,0,0:0:0:0:
281,192,58210,1,0,0:0:0:0:
384,192,58210,1,0,0:0:0:0:
281,192,58610,1,0,0:0:0:0:
384,192,58610,1,0,0:0:0:0:
281,192,59010,1,0,0:0:0:0:
384,192,59010,1,0,0:0:0:0:
128,192,59210,128,0,59810:0:0:0:0:
281,192,59410,1,0,0:0:0:0:
384,192,59410,1,0,0:0:0:0:
281,192,59810,1,0,0:0:0:0:
179,192,59810,128,0,60410:0:0:0:0:
384,192,59810,1,0,0:0:0:0:
281,192,60210,1,0,0:0:0:0:
384,192,60210,1,0,0:0:0:0:
76,192,60410,1,0,0:0:0:0:
281,192,60610,1,0,0:0:0:0:
384,192,60610,1,0,0:0:0:0:
25,192,60610,1,0,0:0:0:0:
128,192,60810,128,0,61410:0:0:0:0:
435,192,61010,1,0,0:0:0:0:
486,192,61010,1,0,0:0:0:0:
76,192,61410,128,0,62010:0:0:0:0:
384,192,61610,1,0,0:0:0:0:
435,192,61610,1,0,0:0:0:0:
128,192,62010,128,0,62410:0:0:0:0:
230,192,62410,128,0,63010:0:0:0:0:
486,192,62610,1,0,0:0:0:0:
384,192,62610,1,0,0:0:0:0:
179,192,63010,128,0,63610:0:0:0:0:
332,192,63210,1,0,0:0:0:0:
435,192,63210,1,0,0:0:0:0:
76,192,63610,1,0,0:0:0:0:
25,192,63810,1,0,0:0:0:0:
128,192,64010,128,0,64610:0:0:0:0:
281,192,64210,1,0,0:0:0:0:
384,192,64210,1,0,0:0:0:0:
179,192,64610,128,0,65210:0:0:0:0:
332,192,64810,1,0,0:0:0:0:
435,192,64810,1,0,0:0:0:0:
76,192,65210,1,0,0:0:0:0:
128,192,65410,1,0,0:0:0:0:
230,192,65610,128,0,66210:0:0:0:0:
332,192,65810,1,0,0:0:0:0:
486,192,65810,1,0,0:0:0:0:
179,192,66210,128,0,66810:0:0:0:0:
281,192,66410,1,0,0:0:0:0:
435,192,66410,1,0,0:0:0:0:
128,192,66810,1,0,0:0:0:0:
76,192,67010,1,0,0:0:0:0:
179,192,67210,128,0,67810:0:0:0:0:
281,192,67410,1,0,0:0:0:0:
332,192,67410,1,0,0:0:0:0:
281,192,67810,1,0,0:0:0:0:
230,192,67810,128,0,68410:0:0:0:0:
332,192,67810,1,0,0:0:0:0:
281,192,68210,1,0,0:0:0:0:
332,192,68210,1,0,0:0:0:0:
25,192,68410,1,0,0:0:0:0:
281,192,68610,1,0,0:0:0:0:
332,192,68610,1,0,0:0:0:0:
76,192,68610,1,0,0:0:0:0:
128,192,68810,128,0,70010:0:0:0:0:
281,192,69010,1,0,0:0:0:0:
384,192,69010,1,0,0:0:0:0:
281,192,69410,1,0,0:0:0:0:
384,192,69410,1,0,0:0:0:0:
281,192,69810,1,0,0:0:0:0:
435,192,69810,1,0,0:0:0:0:
25,192,70010,1,0,0:0:0:0:
281,192,70210,1,0,0:0:0:0:
435,192,70210,1,0,0:0:0:0:
25,192,70310,1,0,0:0:0:0:
179,192,70410,128,0,71610:0:0:0:0:
384,192,70610,1,0,0:0:0:0:
332,192,70610,1,0,0:0:0:0:
384,192,71010,1,0,0:0:0:0:
332,192,71010,1,0,0:0:0:0:
435,192,71410,1,0,0:0:0:0:
332,192,71410,1,0,0:0:0:0:
76,192,71610,1,0,0:0:0:0:
435,192,71810,1,0,0:0:0:0:
332,192,71810,1,0,0:0:0:0:
76,192,71910,1,0,0:0:0:0:
230,192,72010,128,0,72610:0:0:0:0:
435,192,72210,1,0,0:0:0:0:
281,192,72210,1,0,0:0:0:0:
435,192,72610,1,0,0:0:0:0:
179,192,72610,128,0,73210:0:0:0:0:
281,192,72610,1,0,0:0:0:0:
486,192,73010,1,0,0:0:0:0:
332,192,73010,1,0,0:0:0:0:
128,192,73210,128,0,73510:0:0:0:0:
486,192,73410,1,0,0:0:0:0:
332,192,73410,1,0,0:0:0:0:
76,192,73510,1,0,0:0:0:0:
230,192,73610,128,0,74810:0:0:0:0:
486,192,73810,1,0,0:0:0:0:
384,192,73810,1,0,0:0:0:0:
486,192,74210,1,0,0:0:0:0:
384,192,74210,1,0,0:0:0:0:
486,192,74610,1,0,0:0:0:0:
384,192,74610,1,0,0:0:0:0:
25,192,74810,1,4,0:0:0:0:
384,192,75210,1,0,0:0:0:0:
281,192,75410,128,0,75710:0:0:0:0:
76,192,75610,1,8,0:0:0:0:
332,192,75810,1,0,0:0:0:0:
384,192,75910,1,0,0:0:0:0:
435,192,76010,1,0,0:0:0:0:
486,192,76210,128,0,76510:0:0:0:0:
76,192,76410,1,8,0:0:0:0:
435,192,76610,1,0,0:0:0:0:
384,192,76810,1,0,0:0:0:0:
435,192,76910,1,0,0:0:0:0:
384,192,77010,1,0,0:0:0:0:
332,192,77110,1,0,0:0:0:0:
384,192,77210,1,0,0:0:0:0:
76,192,77210,1,8,0:0:0:0:
281,192,77410,1,0,0:0:0:0:
384,192,77610,1,0,0:0:0:0:
435,192,77810,1,0,0:0:0:0:
76,192,78010,1,8,0:0:0:0:
384,192,78010,1,0,0:0:0:0:
332,192,78210,1,0,0:0:0:0:
486,192,78410,1,0,0:0:0:0:
281,192,78610,1,0,0:0:0:0:
332,192,78810,1,0,0:0:0:0:
76,192,78810,1,8,0:0:0:0:
384,192,79010,1,0,0:0:0:0:
435,192,79210,1,0,0:0:0:0:
486,192,79410,1,0,0:0:0:0:
435,192,79610,1,0,0:0:0:0:
76,192,79610,1,8,0:0:0:0:
384,192,79810,1,0,0:0:0:0:
435,192,80010,1,0,0:0:0:0:
384,192,80210,1,0,0:0:0:0:
332,192,80410,1,0,0:0:0:0:
76,192,80410,1,8,0:0:0:0:
384,192,80610,1,0,0:0:0:0:
435,192,80810,1,0,0:0:0:0:
384,192,81010,1,0,0:0:0:0:
76,192,81210,1,8,0:0:0:0:
486,192,81210,1,0,0:0:0:0:
384,192,81410,1,0,0:0:0:0:
230,192,81610,128,0,82010:0:0:0:0:
435,192,82010,1,8,0:0:0:0:
25,192,82010,1,0,0:0:0:0:
76,192,82210,1,0,0:0:0:0:
128,192,82410,128,0,82710:0:0:0:0:
179,192,82810,1,0,0:0:0:0:
435,192,82810,1,8,0:0:0:0:
128,192,83010,1,0,0:0:0:0:
179,192,83110,1,0,0:0:0:0:
230,192,83210,1,0,0:0:0:0:
25,192,83410,1,0,0:0:0:0:
76,192,83610,1,0,0:0:0:0:
435,192,83610,1,8,0:0:0:0:
128,192,83810,1,0,0:0:0:0:
179,192,84010,128,0,84310:0:0:0:0:
230,192,84410,128,0,84710:0:0:0:0:
435,192,84410,1,8,0:0:0:0:
25,192,84810,1,0,0:0:0:0:
76,192,85010,1,0,0:0:0:0:
435,192,85210,1,8,0:0:0:0:
128,192,85210,1,0,0:0:0:0:
179,192,85410,1,0,0:0:0:0:
128,192,85610,128,0,85910:0:0:0:0:
435,192,86010,1,8,0:0:0:0:
179,192,86010,128,0,86310:0:0:0:0:
486,192,86410,128,0,86910:0:0:0:0:
25,192,86810,1,8,0:0:0:0:
435,192,87010,1,0,0:0:0:0:
384,192,87110,1,0,0:0:0:0:
435,192,87210,128,0,87710:0:0:0:0:
128,192,87410,1,0,0:0:0:0:
25,192,87610,1,8,0:0:0:0:
384,192,87810,1,0,0:0:0:0:
128,192,87810,1,0,0:0:0:0:
332,192,87910,1,0,0:0:0:0:
384,192,88010,128,0,88510:0:0:0:0:
179,192,88210,1,0,0:0:0:0:
25,192,88410,1,8,0:0:0:0:
384,192,88610,1,0,0:0:0:0:
179,192,88610,1,0,0:0:0:0:
332,192,88710,1,0,0:0:0:0:
281,192,88810,128,0,89310:0:0:0:0:
230,192,89010,1,0,0:0:0:0:
25,192,89210,1,8,0:0:0:0:
332,192,89410,1,0,0:0:0:0:
230,192,89410,1,0,0:0:0:0:
384,192,89510,1,0,0:0:0:0:
435,192,89610,128,0,90110:0:0:0:0:
179,192,89810,1,0,0:0:0:0:
25,192,90010,1,8,0:0:0:0:
384,192,90210,1,0,0:0:0:0:
179,192,90210,1,0,0:0:0:0:
332,192,90310,1,0,0:0:0:0:
281,192,90410,128,0,91010:0:0:0:0:
230,192,90610,1,0,0:0:0:0:
25,192,90810,1,8,0:0:0:0:
179,192,91010,1,0,0:0:0:0:
332,192,91110,1,0,0:0:0:0:
384,192,91210,128,0,91810:0:0:0:0:
128,192,91410,1,0,0:0:0:0:
25,192,91610,1,8,0:0:0:0:
128,192,91810,1,0,0:0:0:0:
384,192,91910,1,0,0:0:0:0:
435,192,92010,128,0,92310:0:0:0:0:
128,192,92210,1,0,0:0:0:0:
25,192,92410,1,8,0:0:0:0:
486,192,92410,128,0,92710:0:0:0:0:
128,192,92610,1,0,0:0:0:0:
179,192,92810,128,0,93710:0:0:0:0:
384,192,93010,1,0,0:0:0:0:
281,192,93210,1,8,0:0:0:0:
384,192,93410,1,0,0:0:0:0:
25,192,93810,1,0,0:0:0:0:
384,192,93810,1,0,0:0:0:0:
281,192,94010,1,8,0:0:0:0:
76,192,94010,1,0,0:0:0:0:
128,192,94210,1,0,0:0:0:0:
384,192,94210,1,0,0:0:0:0:
179,192,94410,128,0,94710:0:0:0:0:
332,192,94610,1,0,0:0:0:0:
281,192,94810,1,8,0:0:0:0:
128,192,94810,128,0,95110:0:0:0:0:
384,192,95010,1,0,0:0:0:0:
230,192,95210,128,0,95510:0:0:0:0:
435,192,95410,1,0,0:0:0:0:
281,192,95610,1,8,0:0:0:0:
179,192,95610,128,0,95910:0:0:0:0:
384,192,95810,1,0,0:0:0:0:
230,192,96010,128,0,96610:0:0:0:0:
435,192,96210,1,0,0:0:0:0:
281,192,96410,1,8,0:0:0:0:
435,192,96610,1,0,0:0:0:0:
179,192,96710,1,0,0:0:0:0:
230,192,96810,128,0,97110:0:0:0:0:
486,192,97010,1,0,0:0:0:0:
281,192,97210,1,8,0:0:0:0:
179,192,97210,128,0,97510:0:0:0:0:
435,192,97410,1,0,0:0:0:0:
128,192,97610,128,0,97910:0:0:0:0:
384,192,97810,1,0,0:0:0:0:
281,192,98010,1,8,0:0:0:0:
76,192,98010,128,0,98310:0:0:0:0:
435,192,98210,1,0,0:0:0:0:
25,192,98410,128,0,98710:0:0:0:0:
486,192,98610,1,0,0:0:0:0:
281,192,98810,1,8,0:0:0:0:
76,192,98810,128,0,99110:0:0:0:0:
435,192,99010,1,0,0:0:0:0:
486,192,99210,128,0,99910:0:0:0:0:
128,192,99410,1,0,0:0:0:0:
230,192,99610,1,8,0:0:0:0:
128,192,99810,1,0,0:0:0:0:
281,192,100010,128,0,100710:0:0:0:0:
128,192,100210,1,0,0:0:0:0:
230,192,100410,1,8,0:0:0:0:
128,192,100610,1,0,0:0:0:0:
332,192,100810,128,0,101510:0:0:0:0:
128,192,101010,1,0,0:0:0:0:
230,192,101210,1,8,0:0:0:0:
128,192,101410,1,0,0:0:0:0:
384,192,101610,128,0,101910:0:0:0:0:
128,192,101810,1,0,0:0:0:0:
230,192,102010,1,8,0:0:0:0:
435,192,102010,128,0,102310:0:0:0:0:
128,192,102210,1,0,0:0:0:0:
486,192,102410,128,0,103910:0:0:0:0:
128,192,102610,1,0,0:0:0:0:
230,192,102810,1,8,0:0:0:0:
128,192,103010,1,0,0:0:0:0:
128,192,103410,1,0,0:0:0:0:
230,192,103610,1,8,0:0:0:0:
128,192,103810,1,0,0:0:0:0:
435,192,104010,128,0,105110:0:0:0:0:
128,192,104210,1,0,0:0:0:0:
230,192,104410,1,8,0:0:0:0:
128,192,104610,1,0,0:0:0:0:
128,192,105010,1,0,0:0:0:0:
281,192,105210,1,4,0:0:0:0:
25,192,105210,1,0,0:0:0:0:
