osu file format v14

[General]
AudioFilename: zone1_3_3.mp3
AudioLeadIn: 0
PreviewTime: 25610
Countdown: 0
SampleSet: Soft
StackLeniency: 0.7
Mode: 3
LetterboxInBreaks: 0
SpecialStyle: 0
WidescreenStoryboard: 1

[Editor]
DistanceSpacing: 1.6
BeatDivisor: 4
GridSize: 8
TimelineZoom: 2.1

[Metadata]
Title:Crypt of the Necrodancer - Zone 1-3
TitleUnicode:Crypt of the Necrodancer - Zone 1-3
Artist:Danny Baranowsky
ArtistUnicode:Danny Baranowsky
Creator:CircusGalop
Version:10K EX
Source:Crypt of the Necrodancer
Tags:
BeatmapID:1563265
BeatmapSetID:330793

[Difficulty]
HPDrainRate:9
CircleSize:10
OverallDifficulty:5
ApproachRate:5
SliderMultiplier:1.4
SliderTickRate:1

[Events]
//Background and Video events
0,0,"mainmenu.png",0,0
//Break Periods
//Storyboard Layer 0 (Background)
//Storyboard Layer 1 (Fail)
//Storyboard Layer 2 (Pass)
//Storyboard Layer 3 (Foreground)
//Storyboard Sound Samples

[TimingPoints]
10,400,4,2,0,5,1,0

[HitObjects]
25,192,10,5,0,0:0:0:0:
281,192,10,1,0,0:0:0:0:
384,192,110,1,0,0:0:0:0:
435,192,210,1,0,0:0:0:0:
332,192,310,1,0,0:0:0:0:
25,192,410,1,0,0:0:0:0:
281,192,410,1,0,0:0:0:0:
384,192,510,1,0,0:0:0:0:
435,192,610,1,0,0:0:0:0:
332,192,710,1,0,0:0:0:0:
25,192,810,1,0,0:0:0:0:
281,192,810,1,0,0:0:0:0:
384,192,910,1,0,0:0:0:0:
435,192,1010,1,0,0:0:0:0:
332,192,1110,1,0,0:0:0:0:
25,192,1210,1,0,0:0:0:0:
486,192,1410,1,0,0:0:0:0:
25,192,1610,1,0,0:0:0:0:
384,192,1710,1,0,0:0:0:0:
230,192,1810,1,0,0:0:0:0:
435,192,1810,1,0,0:0:0:0:
179,192,1910,1,0,0:0:0:0:
332,192,1910,1,0,0:0:0:0:
25,192,2010,1,0,0:0:0:0:
281,192,2010,1,0,0:0:0:0:
384,192,2110,1,0,0:0:0:0:
230,192,2210,1,0,0:0:0:0:
435,192,2210,1,0,0:0:0:0:
332,192,2310,1,0,0:0:0:0:
128,192,2310,1,0,0:0:0:0:
25,192,2410,1,0,0:0:0:0:
384,192,2510,1,0,0:0:0:0:
486,192,2610,1,0,0:0:0:0:
179,192,2610,1,0,0:0:0:0:
435,192,2710,1,0,0:0:0:0:
76,192,2710,1,0,0:0:0:0:
25,192,2810,1,0,0:0:0:0:
435,192,2910,1,0,0:0:0:0:
384,192,3010,1,0,0:0:0:0:
128,192,3010,1,0,0:0:0:0:
332,192,3110,1,0,0:0:0:0:
76,192,3110,1,0,0:0:0:0:
25,192,3210,1,0,0:0:0:0:
281,192,3210,1,0,0:0:0:0:
384,192,3310,1,0,0:0:0:0:
230,192,3410,1,0,0:0:0:0:
435,192,3410,1,0,0:0:0:0:
128,192,3510,1,0,0:0:0:0:
332,192,3510,1,0,0:0:0:0:
25,192,3610,1,0,0:0:0:0:
281,192,3610,1,0,0:0:0:0:
384,192,3710,1,0,0:0:0:0:
76,192,3810,1,0,0:0:0:0:
435,192,3810,1,0,0:0:0:0:
179,192,3910,1,0,0:0:0:0:
332,192,3910,1,0,0:0:0:0:
25,192,4010,1,0,0:0:0:0:
281,192,4010,1,0,0:0:0:0:
384,192,4110,1,0,0:0:0:0:
230,192,4210,1,0,0:0:0:0:
435,192,4210,1,0,0:0:0:0:
128,192,4310,1,0,0:0:0:0:
332,192,4310,1,0,0:0:0:0:
25,192,4410,1,0,0:0:0:0:
76,192,4610,1,0,0:0:0:0:
486,192,4610,1,0,0:0:0:0:
179,192,4710,1,0,0:0:0:0:
25,192,4810,1,0,0:0:0:0:
384,192,4910,1,0,0:0:0:0:
230,192,5010,1,0,0:0:0:0:
435,192,5010,1,0,0:0:0:0:
128,192,5110,1,0,0:0:0:0:
332,192,5110,1,0,0:0:0:0:
25,192,5210,1,0,0:0:0:0:
281,192,5210,1,0,0:0:0:0:
384,192,5310,1,0,0:0:0:0:
76,192,5410,1,0,0:0:0:0:
435,192,5410,1,0,0:0:0:0:
179,192,5510,1,0,0:0:0:0:
332,192,5510,1,0,0:0:0:0:
25,192,5610,1,0,0:0:0:0:
384,192,5710,1,0,0:0:0:0:
179,192,5810,1,0,0:0:0:0:
486,192,5810,1,0,0:0:0:0:
230,192,5910,1,0,0:0:0:0:
435,192,5910,1,0,0:0:0:0:
25,192,6010,1,0,0:0:0:0:
435,192,6110,1,0,0:0:0:0:
128,192,6210,1,0,0:0:0:0:
384,192,6210,1,0,0:0:0:0:
179,192,6310,1,0,0:0:0:0:
332,192,6310,1,0,0:0:0:0:
25,192,6410,1,0,0:0:0:0:
281,192,6410,1,0,0:0:0:0:
384,192,6510,1,0,0:0:0:0:
230,192,6610,1,0,0:0:0:0:
435,192,6610,1,0,0:0:0:0:
128,192,6710,1,0,0:0:0:0:
332,192,6710,1,0,0:0:0:0:
25,192,6810,1,0,0:0:0:0:
281,192,6810,1,0,0:0:0:0:
384,192,6910,1,0,0:0:0:0:
76,192,7010,1,0,0:0:0:0:
435,192,7010,1,0,0:0:0:0:
179,192,7110,1,0,0:0:0:0:
332,192,7110,1,0,0:0:0:0:
25,192,7210,1,0,0:0:0:0:
281,192,7210,1,0,0:0:0:0:
384,192,7310,1,0,0:0:0:0:
230,192,7410,1,0,0:0:0:0:
435,192,7410,1,0,0:0:0:0:
128,192,7510,1,0,0:0:0:0:
332,192,7510,1,0,0:0:0:0:
25,192,7610,1,0,0:0:0:0:
76,192,7810,1,0,0:0:0:0:
486,192,7810,1,0,0:0:0:0:
179,192,7910,1,0,0:0:0:0:
25,192,8010,1,0,0:0:0:0:
384,192,8110,1,0,0:0:0:0:
230,192,8210,1,0,0:0:0:0:
435,192,8210,1,0,0:0:0:0:
128,192,8310,1,0,0:0:0:0:
332,192,8310,1,0,0:0:0:0:
25,192,8410,1,0,0:0:0:0:
281,192,8410,1,0,0:0:0:0:
384,192,8510,1,0,0:0:0:0:
76,192,8610,1,0,0:0:0:0:
435,192,8610,1,0,0:0:0:0:
179,192,8710,1,0,0:0:0:0:
332,192,8710,1,0,0:0:0:0:
25,192,8810,1,0,0:0:0:0:
384,192,8910,1,0,0:0:0:0:
179,192,9010,1,0,0:0:0:0:
486,192,9010,1,0,0:0:0:0:
230,192,9110,1,0,0:0:0:0:
435,192,9110,1,0,0:0:0:0:
25,192,9210,1,0,0:0:0:0:
435,192,9310,1,0,0:0:0:0:
128,192,9410,1,0,0:0:0:0:
384,192,9410,1,0,0:0:0:0:
179,192,9510,1,0,0:0:0:0:
332,192,9510,1,0,0:0:0:0:
25,192,9610,1,0,0:0:0:0:
281,192,9610,1,0,0:0:0:0:
384,192,9710,1,0,0:0:0:0:
230,192,9810,1,0,0:0:0:0:
435,192,9810,1,0,0:0:0:0:
128,192,9910,1,0,0:0:0:0:
332,192,9910,1,0,0:0:0:0:
25,192,10010,1,0,0:0:0:0:
281,192,10010,1,0,0:0:0:0:
384,192,10110,1,0,0:0:0:0:
76,192,10210,1,0,0:0:0:0:
435,192,10210,1,0,0:0:0:0:
179,192,10310,1,0,0:0:0:0:
332,192,10310,1,0,0:0:0:0:
25,192,10410,1,0,0:0:0:0:
281,192,10410,1,0,0:0:0:0:
384,192,10510,1,0,0:0:0:0:
230,192,10610,1,0,0:0:0:0:
435,192,10610,1,0,0:0:0:0:
128,192,10710,1,0,0:0:0:0:
332,192,10710,1,0,0:0:0:0:
25,192,10810,1,0,0:0:0:0:
76,192,11010,1,0,0:0:0:0:
486,192,11010,1,0,0:0:0:0:
179,192,11110,1,0,0:0:0:0:
25,192,11210,1,0,0:0:0:0:
384,192,11310,1,0,0:0:0:0:
230,192,11410,1,0,0:0:0:0:
435,192,11410,1,0,0:0:0:0:
128,192,11510,1,0,0:0:0:0:
332,192,11510,1,0,0:0:0:0:
25,192,11610,1,0,0:0:0:0:
281,192,11610,1,0,0:0:0:0:
384,192,11710,1,0,0:0:0:0:
76,192,11810,1,0,0:0:0:0:
435,192,11810,1,0,0:0:0:0:
179,192,11910,1,0,0:0:0:0:
332,192,11910,1,0,0:0:0:0:
25,192,12010,1,0,0:0:0:0:
384,192,12110,1,0,0:0:0:0:
179,192,12210,1,0,0:0:0:0:
486,192,12210,1,0,0:0:0:0:
230,192,12310,1,0,0:0:0:0:
435,192,12310,1,0,0:0:0:0:
25,192,12410,1,0,0:0:0:0:
384,192,12510,1,0,0:0:0:0:
128,192,12610,1,0,0:0:0:0:
332,192,12610,1,0,0:0:0:0:
179,192,12710,1,0,0:0:0:0:
281,192,12710,1,0,0:0:0:0:
25,192,12810,1,0,0:0:0:0:
486,192,12810,1,0,0:0:0:0:
76,192,12810,1,0,0:0:0:0:
384,192,12810,1,0,0:0:0:0:
179,192,12910,1,0,0:0:0:0:
281,192,13010,1,0,0:0:0:0:
435,192,13010,1,0,0:0:0:0:
230,192,13010,1,0,0:0:0:0:
128,192,13110,1,0,0:0:0:0:
25,192,13210,1,0,0:0:0:0:
384,192,13210,1,0,0:0:0:0:
76,192,13210,1,0,0:0:0:0:
486,192,13210,1,0,0:0:0:0:
179,192,13310,1,0,0:0:0:0:
332,192,13410,1,0,0:0:0:0:
281,192,13410,1,0,0:0:0:0:
230,192,13410,1,0,0:0:0:0:
128,192,13510,1,0,0:0:0:0:
25,192,13610,1,0,0:0:0:0:
435,192,13610,1,0,0:0:0:0:
76,192,13610,1,0,0:0:0:0:
486,192,13610,1,0,0:0:0:0:
179,192,13710,1,0,0:0:0:0:
384,192,13810,1,0,0:0:0:0:
281,192,13810,1,0,0:0:0:0:
230,192,13810,1,0,0:0:0:0:
128,192,13910,1,0,0:0:0:0:
25,192,14010,1,0,0:0:0:0:
332,192,14010,1,0,0:0:0:0:
435,192,14210,1,0,0:0:0:0:
281,192,14210,1,0,0:0:0:0:
179,192,14210,1,0,0:0:0:0:
25,192,14410,1,0,0:0:0:0:
384,192,14410,1,0,0:0:0:0:
486,192,14410,1,0,0:0:0:0:
179,192,14510,1,0,0:0:0:0:
332,192,14610,1,0,0:0:0:0:
281,192,14610,1,0,0:0:0:0:
230,192,14610,1,0,0:0:0:0:
128,192,14710,1,0,0:0:0:0:
25,192,14810,1,0,0:0:0:0:
435,192,14810,1,0,0:0:0:0:
76,192,14810,1,0,0:0:0:0:
486,192,14810,1,0,0:0:0:0:
179,192,14910,1,0,0:0:0:0:
384,192,15010,1,0,0:0:0:0:
281,192,15010,1,0,0:0:0:0:
230,192,15010,1,0,0:0:0:0:
486,192,15010,1,0,0:0:0:0:
128,192,15110,1,0,0:0:0:0:
25,192,15210,1,0,0:0:0:0:
332,192,15210,1,0,0:0:0:0:
128,192,15310,1,0,0:0:0:0:
435,192,15410,1,0,0:0:0:0:
281,192,15410,1,0,0:0:0:0:
230,192,15410,1,0,0:0:0:0:
179,192,15510,1,0,0:0:0:0:
25,192,15610,1,0,0:0:0:0:
384,192,15610,1,0,0:0:0:0:
486,192,15610,1,0,0:0:0:0:
179,192,15710,1,0,0:0:0:0:
281,192,15810,1,0,0:0:0:0:
332,192,15810,1,0,0:0:0:0:
230,192,15810,1,0,0:0:0:0:
128,192,15910,1,0,0:0:0:0:
25,192,16010,1,0,0:0:0:0:
435,192,16010,1,0,0:0:0:0:
76,192,16010,1,0,0:0:0:0:
179,192,16110,1,0,0:0:0:0:
384,192,16210,1,0,0:0:0:0:
281,192,16210,1,0,0:0:0:0:
230,192,16210,1,0,0:0:0:0:
128,192,16310,1,0,0:0:0:0:
25,192,16410,1,0,0:0:0:0:
332,192,16410,1,0,0:0:0:0:
76,192,16410,1,0,0:0:0:0:
486,192,16410,1,0,0:0:0:0:
179,192,16510,1,0,0:0:0:0:
435,192,16610,1,0,0:0:0:0:
281,192,16610,1,0,0:0:0:0:
230,192,16610,1,0,0:0:0:0:
128,192,16710,1,0,0:0:0:0:
25,192,16810,1,0,0:0:0:0:
384,192,16810,1,0,0:0:0:0:
76,192,16810,1,0,0:0:0:0:
486,192,16810,1,0,0:0:0:0:
179,192,16910,1,0,0:0:0:0:
332,192,17010,1,0,0:0:0:0:
281,192,17010,1,0,0:0:0:0:
230,192,17010,1,0,0:0:0:0:
128,192,17110,1,0,0:0:0:0:
25,192,17210,1,0,0:0:0:0:
435,192,17210,1,0,0:0:0:0:
384,192,17410,1,0,0:0:0:0:
281,192,17410,1,0,0:0:0:0:
179,192,17410,1,0,0:0:0:0:
25,192,17610,1,0,0:0:0:0:
332,192,17610,1,0,0:0:0:0:
486,192,17610,1,0,0:0:0:0:
179,192,17710,1,0,0:0:0:0:
435,192,17810,1,0,0:0:0:0:
281,192,17810,1,0,0:0:0:0:
230,192,17810,1,0,0:0:0:0:
384,192,17810,1,0,0:0:0:0:
128,192,17910,1,0,0:0:0:0:
25,192,18010,1,0,0:0:0:0:
76,192,18010,1,0,0:0:0:0:
486,192,18010,1,0,0:0:0:0:
435,192,18010,1,0,0:0:0:0:
179,192,18110,1,0,0:0:0:0:
281,192,18210,1,0,0:0:0:0:
332,192,18210,1,0,0:0:0:0:
230,192,18210,1,0,0:0:0:0:
384,192,18210,1,0,0:0:0:0:
128,192,18310,1,0,0:0:0:0:
25,192,18410,1,0,0:0:0:0:
435,192,18410,1,0,0:0:0:0:
128,192,18510,1,0,0:0:0:0:
384,192,18610,1,0,0:0:0:0:
281,192,18610,1,0,0:0:0:0:
230,192,18610,1,0,0:0:0:0:
179,192,18710,1,0,0:0:0:0:
25,192,18810,1,0,0:0:0:0:
435,192,18810,1,0,0:0:0:0:
486,192,18810,1,0,0:0:0:0:
179,192,18910,1,0,0:0:0:0:
281,192,19010,1,0,0:0:0:0:
332,192,19010,1,0,0:0:0:0:
230,192,19010,1,0,0:0:0:0:
128,192,19110,1,0,0:0:0:0:
25,192,19210,1,0,0:0:0:0:
435,192,19210,1,0,0:0:0:0:
76,192,19210,1,0,0:0:0:0:
281,192,19210,1,0,0:0:0:0:
179,192,19310,1,0,0:0:0:0:
384,192,19410,1,0,0:0:0:0:
332,192,19410,1,0,0:0:0:0:
230,192,19410,1,0,0:0:0:0:
128,192,19510,1,0,0:0:0:0:
25,192,19610,1,0,0:0:0:0:
486,192,19610,1,0,0:0:0:0:
76,192,19610,1,0,0:0:0:0:
281,192,19610,1,0,0:0:0:0:
179,192,19710,1,0,0:0:0:0:
332,192,19810,1,0,0:0:0:0:
435,192,19810,1,0,0:0:0:0:
230,192,19810,1,0,0:0:0:0:
128,192,19910,1,0,0:0:0:0:
25,192,20010,1,0,0:0:0:0:
384,192,20010,1,0,0:0:0:0:
76,192,20010,1,0,0:0:0:0:
281,192,20010,1,0,0:0:0:0:
179,192,20110,1,0,0:0:0:0:
332,192,20210,1,0,0:0:0:0:
486,192,20210,1,0,0:0:0:0:
230,192,20210,1,0,0:0:0:0:
128,192,20310,1,0,0:0:0:0:
25,192,20410,1,0,0:0:0:0:
435,192,20410,1,0,0:0:0:0:
281,192,20410,1,0,0:0:0:0:
179,192,20410,1,0,0:0:0:0:
384,192,20610,1,0,0:0:0:0:
332,192,20610,1,0,0:0:0:0:
128,192,20610,1,0,0:0:0:0:
25,192,20810,1,0,0:0:0:0:
486,192,20810,1,0,0:0:0:0:
281,192,20810,1,0,0:0:0:0:
76,192,20810,1,0,0:0:0:0:
179,192,20910,1,0,0:0:0:0:
332,192,21010,1,0,0:0:0:0:
435,192,21010,1,0,0:0:0:0:
230,192,21010,1,0,0:0:0:0:
128,192,21110,1,0,0:0:0:0:
25,192,21210,1,0,0:0:0:0:
384,192,21210,1,0,0:0:0:0:
76,192,21210,1,0,0:0:0:0:
281,192,21210,1,0,0:0:0:0:
179,192,21310,1,0,0:0:0:0:
486,192,21410,1,0,0:0:0:0:
332,192,21410,1,0,0:0:0:0:
230,192,21410,1,0,0:0:0:0:
281,192,21410,1,0,0:0:0:0:
128,192,21510,1,0,0:0:0:0:
25,192,21610,1,0,0:0:0:0:
435,192,21610,1,0,0:0:0:0:
76,192,21610,1,0,0:0:0:0:
179,192,21710,1,0,0:0:0:0:
384,192,21810,1,0,0:0:0:0:
332,192,21810,1,0,0:0:0:0:
230,192,21810,1,0,0:0:0:0:
281,192,21810,1,0,0:0:0:0:
179,192,21910,1,0,0:0:0:0:
25,192,22010,1,0,0:0:0:0:
486,192,22010,1,0,0:0:0:0:
281,192,22010,1,0,0:0:0:0:
230,192,22110,1,0,0:0:0:0:
435,192,22210,1,0,0:0:0:0:
332,192,22210,1,0,0:0:0:0:
179,192,22210,1,0,0:0:0:0:
128,192,22310,1,0,0:0:0:0:
25,192,22410,1,0,0:0:0:0:
281,192,22410,1,0,0:0:0:0:
76,192,22410,1,0,0:0:0:0:
435,192,22410,1,0,0:0:0:0:
179,192,22510,1,0,0:0:0:0:
384,192,22610,1,0,0:0:0:0:
486,192,22610,1,0,0:0:0:0:
230,192,22610,1,0,0:0:0:0:
128,192,22710,1,0,0:0:0:0:
25,192,22810,1,0,0:0:0:0:
332,192,22810,1,0,0:0:0:0:
76,192,22810,1,0,0:0:0:0:
179,192,22910,1,0,0:0:0:0:
281,192,23010,1,0,0:0:0:0:
486,192,23010,1,0,0:0:0:0:
230,192,23010,1,0,0:0:0:0:
128,192,23110,1,0,0:0:0:0:
25,192,23210,1,0,0:0:0:0:
384,192,23210,1,0,0:0:0:0:
76,192,23210,1,0,0:0:0:0:
179,192,23310,1,0,0:0:0:0:
332,192,23410,1,0,0:0:0:0:
486,192,23410,1,0,0:0:0:0:
230,192,23410,1,0,0:0:0:0:
128,192,23510,1,0,0:0:0:0:
25,192,23610,1,0,0:0:0:0:
281,192,23610,1,0,0:0:0:0:
179,192,23610,1,0,0:0:0:0:
384,192,23810,1,0,0:0:0:0:
486,192,23810,1,0,0:0:0:0:
128,192,23810,1,0,0:0:0:0:
25,192,24010,1,0,0:0:0:0:
332,192,24010,1,0,0:0:0:0:
486,192,24010,1,0,0:0:0:0:
76,192,24010,1,0,0:0:0:0:
179,192,24110,1,0,0:0:0:0:
435,192,24210,1,0,0:0:0:0:
281,192,24210,1,0,0:0:0:0:
230,192,24210,1,0,0:0:0:0:
128,192,24310,1,0,0:0:0:0:
25,192,24410,1,0,0:0:0:0:
332,192,24410,1,0,0:0:0:0:
76,192,24410,1,0,0:0:0:0:
179,192,24510,1,0,0:0:0:0:
435,192,24610,1,0,0:0:0:0:
384,192,24610,1,0,0:0:0:0:
230,192,24610,1,0,0:0:0:0:
486,192,24810,1,0,0:0:0:0:
435,192,25010,1,0,0:0:0:0:
435,192,25410,1,0,0:0:0:0:
25,192,25610,1,0,0:0:0:0:
486,192,25610,1,0,0:0:0:0:
281,192,25810,1,0,0:0:0:0:
384,192,25810,128,0,26110:0:0:0:0:
128,192,25810,1,0,0:0:0:0:
179,192,25810,1,0,0:0:0:0:
25,192,26010,1,0,0:0:0:0:
281,192,26210,1,0,0:0:0:0:
332,192,26210,1,0,0:0:0:0:
128,192,26210,1,0,0:0:0:0:
179,192,26210,1,0,0:0:0:0:
384,192,26310,1,0,0:0:0:0:
25,192,26410,1,0,0:0:0:0:
435,192,26410,1,0,0:0:0:0:
281,192,26610,1,0,0:0:0:0:
486,192,26610,128,0,26910:0:0:0:0:
128,192,26610,1,0,0:0:0:0:
179,192,26610,1,0,0:0:0:0:
25,192,26810,1,0,0:0:0:0:
281,192,27010,1,0,0:0:0:0:
128,192,27010,1,0,0:0:0:0:
179,192,27010,1,0,0:0:0:0:
384,192,27010,1,0,0:0:0:0:
25,192,27210,1,0,0:0:0:0:
435,192,27210,1,0,0:0:0:0:
486,192,27310,1,0,0:0:0:0:
281,192,27410,1,0,0:0:0:0:
435,192,27410,1,0,0:0:0:0:
128,192,27410,1,0,0:0:0:0:
179,192,27410,1,0,0:0:0:0:
384,192,27510,1,0,0:0:0:0:
25,192,27610,1,0,0:0:0:0:
435,192,27610,1,0,0:0:0:0:
281,192,27810,1,0,0:0:0:0:
128,192,27810,1,0,0:0:0:0:
179,192,27810,1,0,0:0:0:0:
332,192,27810,1,0,0:0:0:0:
25,192,28010,1,0,0:0:0:0:
384,192,28010,1,0,0:0:0:0:
281,192,28210,1,0,0:0:0:0:
230,192,28210,1,0,0:0:0:0:
179,192,28210,1,0,0:0:0:0:
435,192,28210,1,0,0:0:0:0:
25,192,28410,1,0,0:0:0:0:
384,192,28410,1,0,0:0:0:0:
281,192,28610,1,0,0:0:0:0:
230,192,28610,1,0,0:0:0:0:
179,192,28610,1,0,0:0:0:0:
332,192,28610,1,0,0:0:0:0:
25,192,28810,1,0,0:0:0:0:
435,192,28810,1,0,0:0:0:0:
486,192,29010,1,0,0:0:0:0:
128,192,29010,1,0,0:0:0:0:
179,192,29010,1,0,0:0:0:0:
332,192,29010,1,0,0:0:0:0:
25,192,29210,1,0,0:0:0:0:
281,192,29210,1,0,0:0:0:0:
486,192,29410,1,0,0:0:0:0:
128,192,29410,1,0,0:0:0:0:
179,192,29410,1,0,0:0:0:0:
332,192,29410,1,0,0:0:0:0:
281,192,29510,1,0,0:0:0:0:
25,192,29610,1,0,0:0:0:0:
384,192,29610,1,0,0:0:0:0:
486,192,29810,1,0,0:0:0:0:
128,192,29810,1,0,0:0:0:0:
179,192,29810,1,0,0:0:0:0:
435,192,29810,1,0,0:0:0:0:
281,192,29910,1,0,0:0:0:0:
25,192,30010,1,0,0:0:0:0:
384,192,30010,1,0,0:0:0:0:
486,192,30210,1,0,0:0:0:0:
128,192,30210,1,0,0:0:0:0:
179,192,30210,1,0,0:0:0:0:
332,192,30210,1,0,0:0:0:0:
281,192,30310,1,0,0:0:0:0:
25,192,30410,1,0,0:0:0:0:
435,192,30410,1,0,0:0:0:0:
486,192,30610,1,0,0:0:0:0:
128,192,30610,1,0,0:0:0:0:
179,192,30610,1,0,0:0:0:0:
384,192,30610,1,0,0:0:0:0:
281,192,30710,1,0,0:0:0:0:
25,192,30810,1,0,0:0:0:0:
332,192,30810,1,0,0:0:0:0:
486,192,31010,1,0,0:0:0:0:
128,192,31010,1,0,0:0:0:0:
179,192,31010,1,0,0:0:0:0:
384,192,31010,1,0,0:0:0:0:
281,192,31110,1,0,0:0:0:0:
25,192,31210,1,0,0:0:0:0:
435,192,31210,1,0,0:0:0:0:
332,192,31343,1,0,0:0:0:0:
486,192,31410,1,0,0:0:0:0:
230,192,31410,1,0,0:0:0:0:
128,192,31410,1,0,0:0:0:0:
384,192,31476,1,0,0:0:0:0:
25,192,31610,1,0,0:0:0:0:
435,192,31610,1,0,0:0:0:0:
384,192,31743,1,0,0:0:0:0:
486,192,31810,1,0,0:0:0:0:
230,192,31810,1,0,0:0:0:0:
128,192,31810,1,0,0:0:0:0:
435,192,31876,1,0,0:0:0:0:
230,192,32010,1,0,0:0:0:0:
384,192,32010,128,0,32310:0:0:0:0:
128,192,32210,1,0,0:0:0:0:
76,192,32210,1,0,0:0:0:0:
281,192,32210,1,0,0:0:0:0:
230,192,32410,1,0,0:0:0:0:
332,192,32410,1,0,0:0:0:0:
128,192,32610,1,0,0:0:0:0:
76,192,32610,1,0,0:0:0:0:
384,192,32610,1,0,0:0:0:0:
281,192,32610,1,0,0:0:0:0:
230,192,32810,1,0,0:0:0:0:
435,192,32810,128,0,33110:0:0:0:0:
128,192,33010,1,0,0:0:0:0:
76,192,33010,1,0,0:0:0:0:
281,192,33010,1,0,0:0:0:0:
230,192,33210,1,0,0:0:0:0:
486,192,33210,1,0,0:0:0:0:
128,192,33410,1,0,0:0:0:0:
76,192,33410,1,0,0:0:0:0:
332,192,33410,1,0,0:0:0:0:
281,192,33410,1,0,0:0:0:0:
384,192,33510,1,0,0:0:0:0:
230,192,33610,1,0,0:0:0:0:
435,192,33610,1,0,0:0:0:0:
128,192,33810,1,0,0:0:0:0:
76,192,33810,1,0,0:0:0:0:
486,192,33810,1,0,0:0:0:0:
281,192,33810,1,0,0:0:0:0:
230,192,34010,1,0,0:0:0:0:
332,192,34010,1,0,0:0:0:0:
128,192,34210,1,0,0:0:0:0:
76,192,34210,1,0,0:0:0:0:
384,192,34210,1,0,0:0:0:0:
281,192,34210,1,0,0:0:0:0:
230,192,34410,1,0,0:0:0:0:
435,192,34410,128,0,34710:0:0:0:0:
128,192,34610,1,0,0:0:0:0:
25,192,34610,1,0,0:0:0:0:
281,192,34610,1,0,0:0:0:0:
230,192,34810,1,0,0:0:0:0:
486,192,34810,128,0,35110:0:0:0:0:
128,192,35010,1,0,0:0:0:0:
25,192,35010,1,0,0:0:0:0:
281,192,35010,1,0,0:0:0:0:
230,192,35210,1,0,0:0:0:0:
384,192,35210,1,0,0:0:0:0:
128,192,35410,1,0,0:0:0:0:
76,192,35410,1,0,0:0:0:0:
486,192,35410,1,0,0:0:0:0:
281,192,35410,1,0,0:0:0:0:
435,192,35510,1,0,0:0:0:0:
230,192,35610,1,0,0:0:0:0:
332,192,35610,1,0,0:0:0:0:
128,192,35810,1,0,0:0:0:0:
76,192,35810,1,0,0:0:0:0:
486,192,35810,1,0,0:0:0:0:
384,192,35810,1,0,0:0:0:0:
230,192,36010,1,0,0:0:0:0:
435,192,36010,1,0,0:0:0:0:
128,192,36210,1,0,0:0:0:0:
76,192,36210,1,0,0:0:0:0:
486,192,36210,1,0,0:0:0:0:
281,192,36210,1,0,0:0:0:0:
230,192,36410,1,0,0:0:0:0:
332,192,36410,1,0,0:0:0:0:
128,192,36610,1,0,0:0:0:0:
76,192,36610,1,0,0:0:0:0:
486,192,36610,1,0,0:0:0:0:
384,192,36610,1,0,0:0:0:0:
230,192,36810,1,0,0:0:0:0:
332,192,36810,1,0,0:0:0:0:
435,192,36885,1,0,0:0:0:0:
332,192,36976,1,0,0:0:0:0:
179,192,37010,1,0,0:0:0:0:
76,192,37010,1,0,0:0:0:0:
486,192,37010,1,0,0:0:0:0:
435,192,37060,1,0,0:0:0:0:
332,192,37143,1,0,0:0:0:0:
230,192,37210,1,0,0:0:0:0:
435,192,37235,1,0,0:0:0:0:
384,192,37310,1,0,0:0:0:0:
179,192,37410,1,0,0:0:0:0:
76,192,37410,1,0,0:0:0:0:
486,192,37410,1,0,0:0:0:0:
332,192,37410,1,0,0:0:0:0:
281,192,37510,1,0,0:0:0:0:
230,192,37610,1,0,0:0:0:0:
384,192,37610,128,0,38210:0:0:0:0:
76,192,37810,1,0,0:0:0:0:
179,192,37810,1,0,0:0:0:0:
486,192,37810,1,0,0:0:0:0:
230,192,38010,1,0,0:0:0:0:
76,192,38210,1,0,0:0:0:0:
179,192,38210,1,0,0:0:0:0:
486,192,38210,1,0,0:0:0:0:
281,192,38410,128,0,38810:0:0:0:0:
25,192,38410,1,0,0:0:0:0:
384,192,38610,1,0,0:0:0:0:
128,192,38610,1,0,0:0:0:0:
435,192,38710,1,0,0:0:0:0:
25,192,38810,1,0,0:0:0:0:
486,192,38810,1,0,0:0:0:0:
486,192,39010,1,0,0:0:0:0:
281,192,39010,1,0,0:0:0:0:
128,192,39010,1,0,0:0:0:0:
435,192,39110,1,0,0:0:0:0:
25,192,39210,1,0,0:0:0:0:
384,192,39210,1,0,0:0:0:0:
179,192,39210,1,0,0:0:0:0:
230,192,39310,1,0,0:0:0:0:
435,192,39410,1,0,0:0:0:0:
128,192,39410,1,0,0:0:0:0:
281,192,39410,1,0,0:0:0:0:
486,192,39510,1,0,0:0:0:0:
25,192,39610,1,0,0:0:0:0:
332,192,39610,1,0,0:0:0:0:
230,192,39610,1,0,0:0:0:0:
384,192,39643,1,0,0:0:0:0:
435,192,39676,1,0,0:0:0:0:
486,192,39710,1,0,0:0:0:0:
332,192,39743,1,0,0:0:0:0:
384,192,39776,1,0,0:0:0:0:
179,192,39810,1,0,0:0:0:0:
435,192,39810,1,0,0:0:0:0:
128,192,39810,1,0,0:0:0:0:
486,192,39843,1,0,0:0:0:0:
332,192,39876,1,0,0:0:0:0:
384,192,39910,1,0,0:0:0:0:
435,192,39943,1,0,0:0:0:0:
486,192,39976,1,0,0:0:0:0:
281,192,40010,1,0,0:0:0:0:
230,192,40010,128,0,40410:0:0:0:0:
25,192,40010,1,0,0:0:0:0:
384,192,40110,1,0,0:0:0:0:
281,192,40210,1,0,0:0:0:0:
76,192,40210,1,0,0:0:0:0:
384,192,40310,1,0,0:0:0:0:
281,192,40410,1,0,0:0:0:0:
25,192,40410,1,0,0:0:0:0:
332,192,40610,1,0,0:0:0:0:
76,192,40610,1,0,0:0:0:0:
230,192,40610,1,0,0:0:0:0:
435,192,40710,1,0,0:0:0:0:
179,192,40710,1,0,0:0:0:0:
332,192,40810,1,0,0:0:0:0:
25,192,40810,1,0,0:0:0:0:
230,192,40810,1,0,0:0:0:0:
435,192,40910,1,0,0:0:0:0:
128,192,40910,1,0,0:0:0:0:
332,192,41010,1,0,0:0:0:0:
76,192,41010,1,0,0:0:0:0:
230,192,41010,1,0,0:0:0:0:
179,192,41110,1,0,0:0:0:0:
384,192,41210,1,0,0:0:0:0:
25,192,41210,1,0,0:0:0:0:
128,192,41210,1,0,0:0:0:0:
435,192,41243,1,0,0:0:0:0:
486,192,41276,1,0,0:0:0:0:
384,192,41310,1,0,0:0:0:0:
230,192,41310,1,0,0:0:0:0:
435,192,41343,1,0,0:0:0:0:
486,192,41376,1,0,0:0:0:0:
332,192,41410,1,0,0:0:0:0:
76,192,41410,1,0,0:0:0:0:
179,192,41410,1,0,0:0:0:0:
384,192,41443,1,0,0:0:0:0:
435,192,41476,1,0,0:0:0:0:
332,192,41510,1,0,0:0:0:0:
128,192,41510,1,0,0:0:0:0:
384,192,41543,1,0,0:0:0:0:
435,192,41576,1,0,0:0:0:0:
25,192,41610,1,0,0:0:0:0:
281,192,41610,128,0,42010:0:0:0:0:
128,192,41810,1,0,0:0:0:0:
384,192,41810,1,0,0:0:0:0:
435,192,41910,1,0,0:0:0:0:
25,192,42010,1,0,0:0:0:0:
486,192,42010,1,0,0:0:0:0:
435,192,42210,1,0,0:0:0:0:
128,192,42210,1,0,0:0:0:0:
281,192,42210,1,0,0:0:0:0:
384,192,42310,1,0,0:0:0:0:
25,192,42410,1,0,0:0:0:0:
332,192,42410,1,0,0:0:0:0:
179,192,42410,1,0,0:0:0:0:
230,192,42510,1,0,0:0:0:0:
435,192,42610,1,0,0:0:0:0:
128,192,42610,1,0,0:0:0:0:
281,192,42610,1,0,0:0:0:0:
486,192,42710,1,0,0:0:0:0:
332,192,42810,1,0,0:0:0:0:
25,192,42810,1,0,0:0:0:0:
230,192,42810,1,0,0:0:0:0:
384,192,42843,1,0,0:0:0:0:
435,192,42876,1,0,0:0:0:0:
486,192,42910,1,0,0:0:0:0:
332,192,42943,1,0,0:0:0:0:
384,192,42976,1,0,0:0:0:0:
435,192,43010,1,0,0:0:0:0:
128,192,43010,1,0,0:0:0:0:
179,192,43010,1,0,0:0:0:0:
486,192,43043,1,0,0:0:0:0:
332,192,43076,1,0,0:0:0:0:
384,192,43110,1,0,0:0:0:0:
435,192,43143,1,0,0:0:0:0:
486,192,43176,1,0,0:0:0:0:
25,192,43210,1,0,0:0:0:0:
281,192,43210,1,0,0:0:0:0:
76,192,43210,1,0,0:0:0:0:
332,192,43243,1,0,0:0:0:0:
384,192,43276,1,0,0:0:0:0:
179,192,43310,1,0,0:0:0:0:
435,192,43310,1,0,0:0:0:0:
281,192,43343,1,0,0:0:0:0:
332,192,43376,1,0,0:0:0:0:
25,192,43410,1,0,0:0:0:0:
384,192,43410,1,0,0:0:0:0:
76,192,43410,1,0,0:0:0:0:
435,192,43443,1,0,0:0:0:0:
281,192,43476,1,0,0:0:0:0:
179,192,43510,1,0,0:0:0:0:
332,192,43510,1,0,0:0:0:0:
384,192,43543,1,0,0:0:0:0:
435,192,43576,1,0,0:0:0:0:
25,192,43610,1,0,0:0:0:0:
281,192,43610,1,0,0:0:0:0:
76,192,43610,1,0,0:0:0:0:
332,192,43643,1,0,0:0:0:0:
384,192,43676,1,0,0:0:0:0:
435,192,43710,1,0,0:0:0:0:
281,192,43743,1,0,0:0:0:0:
332,192,43776,1,0,0:0:0:0:
179,192,43810,1,0,0:0:0:0:
384,192,43810,1,0,0:0:0:0:
128,192,43810,1,0,0:0:0:0:
435,192,43843,1,0,0:0:0:0:
281,192,43876,1,0,0:0:0:0:
25,192,43910,1,0,0:0:0:0:
332,192,43910,1,0,0:0:0:0:
384,192,43943,1,0,0:0:0:0:
435,192,43976,1,0,0:0:0:0:
179,192,44010,1,0,0:0:0:0:
128,192,44010,1,0,0:0:0:0:
281,192,44010,1,0,0:0:0:0:
332,192,44043,1,0,0:0:0:0:
384,192,44076,1,0,0:0:0:0:
25,192,44110,1,0,0:0:0:0:
435,192,44110,1,0,0:0:0:0:
281,192,44143,1,0,0:0:0:0:
332,192,44176,1,0,0:0:0:0:
179,192,44210,1,0,0:0:0:0:
384,192,44210,1,0,0:0:0:0:
128,192,44210,1,0,0:0:0:0:
435,192,44243,1,0,0:0:0:0:
281,192,44276,1,0,0:0:0:0:
332,192,44310,1,0,0:0:0:0:
384,192,44343,1,0,0:0:0:0:
435,192,44376,1,0,0:0:0:0:
76,192,44410,1,0,0:0:0:0:
281,192,44410,1,0,0:0:0:0:
25,192,44410,1,0,0:0:0:0:
332,192,44443,1,0,0:0:0:0:
384,192,44476,1,0,0:0:0:0:
179,192,44510,1,0,0:0:0:0:
435,192,44510,1,0,0:0:0:0:
230,192,44510,1,0,0:0:0:0:
281,192,44543,1,0,0:0:0:0:
332,192,44576,1,0,0:0:0:0:
76,192,44610,1,0,0:0:0:0:
384,192,44610,1,0,0:0:0:0:
25,192,44610,1,0,0:0:0:0:
435,192,44643,1,0,0:0:0:0:
281,192,44676,1,0,0:0:0:0:
179,192,44710,1,0,0:0:0:0:
332,192,44710,1,0,0:0:0:0:
230,192,44710,1,0,0:0:0:0:
384,192,44743,1,0,0:0:0:0:
435,192,44776,1,0,0:0:0:0:
25,192,44810,1,0,0:0:0:0:
281,192,44810,128,0,45310:0:0:0:0:
128,192,44810,128,0,46310:0:0:0:0:
179,192,45010,1,0,0:0:0:0:
25,192,45210,1,0,0:0:0:0:
281,192,45410,1,0,0:0:0:0:
179,192,45410,1,0,0:0:0:0:
25,192,45610,1,0,0:0:0:0:
281,192,45610,1,0,0:0:0:0:
384,192,45710,1,0,0:0:0:0:
281,192,45810,1,0,0:0:0:0:
179,192,45810,1,0,0:0:0:0:
25,192,46010,1,0,0:0:0:0:
384,192,46010,1,0,0:0:0:0:
281,192,46210,1,0,0:0:0:0:
179,192,46210,1,0,0:0:0:0:
332,192,46410,128,0,46910:0:0:0:0:
230,192,46410,128,0,46910:0:0:0:0:
25,192,46410,1,0,0:0:0:0:
179,192,46610,1,0,0:0:0:0:
25,192,46810,1,0,0:0:0:0:
332,192,47010,1,0,0:0:0:0:
384,192,47010,1,0,0:0:0:0:
179,192,47010,1,0,0:0:0:0:
435,192,47110,1,0,0:0:0:0:
486,192,47110,1,0,0:0:0:0:
332,192,47210,1,0,0:0:0:0:
384,192,47210,1,0,0:0:0:0:
76,192,47210,1,0,0:0:0:0:
435,192,47310,1,0,0:0:0:0:
332,192,47410,1,0,0:0:0:0:
281,192,47410,1,0,0:0:0:0:
230,192,47410,1,0,0:0:0:0:
435,192,47510,1,0,0:0:0:0:
486,192,47510,1,0,0:0:0:0:
332,192,47610,1,0,0:0:0:0:
281,192,47610,1,0,0:0:0:0:
76,192,47610,1,0,0:0:0:0:
435,192,47710,1,0,0:0:0:0:
486,192,47710,1,0,0:0:0:0:
332,192,47810,1,0,0:0:0:0:
281,192,47810,1,0,0:0:0:0:
230,192,47810,1,0,0:0:0:0:
435,192,47910,1,0,0:0:0:0:
486,192,47910,1,0,0:0:0:0:
25,192,48010,1,0,0:0:0:0:
281,192,48010,128,0,48510:0:0:0:0:
179,192,48010,128,0,49510:0:0:0:0:
128,192,48210,1,0,0:0:0:0:
384,192,48210,1,0,0:0:0:0:
25,192,48410,1,0,0:0:0:0:
281,192,48610,1,0,0:0:0:0:
128,192,48610,1,0,0:0:0:0:
25,192,48810,1,0,0:0:0:0:
281,192,48810,1,0,0:0:0:0:
384,192,48910,1,0,0:0:0:0:
281,192,49010,1,0,0:0:0:0:
128,192,49010,1,0,0:0:0:0:
25,192,49210,1,0,0:0:0:0:
384,192,49210,1,0,0:0:0:0:
281,192,49410,1,0,0:0:0:0:
128,192,49410,1,0,0:0:0:0:
332,192,49610,1,0,0:0:0:0:
384,192,49610,1,0,0:0:0:0:
76,192,49610,1,0,0:0:0:0:
332,192,49810,1,0,0:0:0:0:
384,192,49810,1,0,0:0:0:0:
230,192,49810,1,0,0:0:0:0:
435,192,49910,1,0,0:0:0:0:
332,192,50010,1,0,0:0:0:0:
486,192,50010,1,0,0:0:0:0:
76,192,50010,1,0,0:0:0:0:
384,192,50210,1,0,0:0:0:0:
435,192,50210,1,0,0:0:0:0:
230,192,50210,1,0,0:0:0:0:
332,192,50310,1,0,0:0:0:0:
76,192,50410,1,0,0:0:0:0:
435,192,50410,1,0,0:0:0:0:
281,192,50410,1,0,0:0:0:0:
435,192,50610,1,0,0:0:0:0:
281,192,50610,1,0,0:0:0:0:
179,192,50610,1,0,0:0:0:0:
76,192,50810,1,0,0:0:0:0:
384,192,50810,1,0,0:0:0:0:
332,192,50810,1,0,0:0:0:0:
486,192,50910,1,0,0:0:0:0:
384,192,51010,1,0,0:0:0:0:
332,192,51010,1,0,0:0:0:0:
179,192,51010,1,0,0:0:0:0:
486,192,51110,1,0,0:0:0:0:
435,192,51110,1,0,0:0:0:0:
25,192,51210,1,0,0:0:0:0:
281,192,51210,128,0,51710:0:0:0:0:
128,192,51210,128,0,52710:0:0:0:0:
179,192,51410,1,0,0:0:0:0:
25,192,51610,1,0,0:0:0:0:
281,192,51810,1,0,0:0:0:0:
179,192,51810,1,0,0:0:0:0:
25,192,52010,1,0,0:0:0:0:
281,192,52010,1,0,0:0:0:0:
384,192,52110,1,0,0:0:0:0:
281,192,52210,1,0,0:0:0:0:
179,192,52210,1,0,0:0:0:0:
25,192,52410,1,0,0:0:0:0:
384,192,52410,1,0,0:0:0:0:
281,192,52610,1,0,0:0:0:0:
179,192,52610,1,0,0:0:0:0:
332,192,52810,128,0,53310:0:0:0:0:
230,192,52810,128,0,54310:0:0:0:0:
76,192,52810,1,0,0:0:0:0:
179,192,53010,1,0,0:0:0:0:
76,192,53210,1,0,0:0:0:0:
332,192,53410,1,0,0:0:0:0:
179,192,53410,1,0,0:0:0:0:
435,192,53510,1,0,0:0:0:0:
332,192,53610,1,0,0:0:0:0:
76,192,53610,1,0,0:0:0:0:
435,192,53710,1,0,0:0:0:0:
332,192,53810,1,0,0:0:0:0:
128,192,53810,1,0,0:0:0:0:
435,192,53910,1,0,0:0:0:0:
332,192,54010,1,0,0:0:0:0:
76,192,54010,1,0,0:0:0:0:
435,192,54110,1,0,0:0:0:0:
332,192,54210,1,0,0:0:0:0:
128,192,54210,1,0,0:0:0:0:
435,192,54310,1,0,0:0:0:0:
25,192,54410,1,0,0:0:0:0:
281,192,54410,128,0,54910:0:0:0:0:
179,192,54410,128,0,55910:0:0:0:0:
128,192,54610,1,0,0:0:0:0:
384,192,54610,1,0,0:0:0:0:
25,192,54810,1,0,0:0:0:0:
281,192,55010,1,0,0:0:0:0:
128,192,55010,1,0,0:0:0:0:
25,192,55210,1,0,0:0:0:0:
281,192,55210,1,0,0:0:0:0:
384,192,55310,1,0,0:0:0:0:
281,192,55410,1,0,0:0:0:0:
128,192,55410,1,0,0:0:0:0:
25,192,55610,1,0,0:0:0:0:
384,192,55610,1,0,0:0:0:0:
281,192,55810,1,0,0:0:0:0:
128,192,55810,1,0,0:0:0:0:
332,192,56010,1,0,0:0:0:0:
76,192,56010,1,0,0:0:0:0:
486,192,56010,128,0,57510:0:0:0:0:
332,192,56210,1,0,0:0:0:0:
230,192,56210,1,0,0:0:0:0:
332,192,56410,1,0,0:0:0:0:
76,192,56410,1,0,0:0:0:0:
384,192,56610,1,0,0:0:0:0:
230,192,56610,1,0,0:0:0:0:
76,192,56810,1,0,0:0:0:0:
384,192,56810,1,0,0:0:0:0:
384,192,57010,1,0,0:0:0:0:
230,192,57010,1,0,0:0:0:0:
76,192,57210,1,0,0:0:0:0:
332,192,57210,1,0,0:0:0:0:
435,192,57310,1,0,0:0:0:0:
332,192,57410,1,0,0:0:0:0:
230,192,57410,1,0,0:0:0:0:
435,192,57510,1,0,0:0:0:0:
25,192,57610,5,0,0:0:0:0:
128,192,57610,128,0,59210:0:0:0:0:
384,192,57610,128,0,57810:0:0:0:0:
281,192,57810,128,0,58010:0:0:0:0:
230,192,57810,1,0,0:0:0:0:
486,192,57810,1,0,0:0:0:0:
25,192,58010,1,0,0:0:0:0:
332,192,58010,128,0,58210:0:0:0:0:
435,192,58210,128,0,58410:0:0:0:0:
230,192,58210,1,0,0:0:0:0:
486,192,58210,1,0,0:0:0:0:
25,192,58410,1,0,0:0:0:0:
281,192,58410,128,0,58610:0:0:0:0:
384,192,58610,128,0,58810:0:0:0:0:
230,192,58610,1,0,0:0:0:0:
486,192,58610,1,0,0:0:0:0:
25,192,58810,1,0,0:0:0:0:
332,192,58810,128,0,59010:0:0:0:0:
435,192,59010,128,0,59210:0:0:0:0:
230,192,59010,1,0,0:0:0:0:
486,192,59010,1,0,0:0:0:0:
25,192,59210,1,0,0:0:0:0:
179,192,59210,128,0,59810:0:0:0:0:
486,192,59210,128,0,59410:0:0:0:0:
384,192,59410,128,0,59610:0:0:0:0:
128,192,59410,1,0,0:0:0:0:
281,192,59410,1,0,0:0:0:0:
25,192,59610,1,0,0:0:0:0:
435,192,59610,128,0,59810:0:0:0:0:
230,192,59810,128,0,60410:0:0:0:0:
332,192,59810,128,0,60010:0:0:0:0:
128,192,59810,1,0,0:0:0:0:
281,192,59810,1,0,0:0:0:0:
25,192,60010,1,0,0:0:0:0:
384,192,60010,128,0,60210:0:0:0:0:
435,192,60210,128,0,60410:0:0:0:0:
76,192,60210,1,0,0:0:0:0:
281,192,60210,1,0,0:0:0:0:
25,192,60410,1,0,0:0:0:0:
179,192,60410,128,0,60610:0:0:0:0:
486,192,60410,128,0,60610:0:0:0:0:
128,192,60610,128,0,60810:0:0:0:0:
332,192,60610,128,0,60810:0:0:0:0:
76,192,60610,1,0,0:0:0:0:
281,192,60610,1,0,0:0:0:0:
179,192,60810,128,0,61410:0:0:0:0:
281,192,60810,128,0,61010:0:0:0:0:
230,192,60810,1,0,0:0:0:0:
384,192,61010,128,0,61210:0:0:0:0:
76,192,61010,1,0,0:0:0:0:
435,192,61010,1,0,0:0:0:0:
230,192,61210,1,0,0:0:0:0:
486,192,61210,128,0,61410:0:0:0:0:
25,192,61410,128,0,62010:0:0:0:0:
384,192,61410,128,0,61610:0:0:0:0:
76,192,61410,1,0,0:0:0:0:
435,192,61410,1,0,0:0:0:0:
230,192,61610,1,0,0:0:0:0:
332,192,61610,128,0,61810:0:0:0:0:
435,192,61810,128,0,62010:0:0:0:0:
128,192,61810,1,0,0:0:0:0:
281,192,61810,1,0,0:0:0:0:
230,192,62010,1,0,0:0:0:0:
76,192,62010,128,0,62410:0:0:0:0:
486,192,62010,128,0,62210:0:0:0:0:
384,192,62210,128,0,62410:0:0:0:0:
128,192,62210,1,0,0:0:0:0:
281,192,62210,1,0,0:0:0:0:
230,192,62410,1,0,0:0:0:0:
179,192,62410,128,0,63010:0:0:0:0:
332,192,62410,128,0,62610:0:0:0:0:
486,192,62610,128,0,62810:0:0:0:0:
25,192,62610,1,0,0:0:0:0:
384,192,62610,1,0,0:0:0:0:
230,192,62810,1,0,0:0:0:0:
281,192,62810,128,0,63010:0:0:0:0:
128,192,63010,128,0,63610:0:0:0:0:
435,192,63010,128,0,63210:0:0:0:0:
25,192,63010,1,0,0:0:0:0:
384,192,63010,1,0,0:0:0:0:
230,192,63210,1,0,0:0:0:0:
384,192,63210,128,0,63410:0:0:0:0:
486,192,63410,128,0,63610:0:0:0:0:
179,192,63410,1,0,0:0:0:0:
281,192,63410,1,0,0:0:0:0:
230,192,63610,1,0,0:0:0:0:
76,192,63610,128,0,63810:0:0:0:0:
332,192,63610,128,0,63810:0:0:0:0:
25,192,63810,128,0,64010:0:0:0:0:
435,192,63810,128,0,64010:0:0:0:0:
179,192,63810,1,0,0:0:0:0:
281,192,63810,1,0,0:0:0:0:
230,192,64010,1,0,0:0:0:0:
128,192,64010,128,0,64610:0:0:0:0:
384,192,64010,128,0,64210:0:0:0:0:
281,192,64210,128,0,64410:0:0:0:0:
76,192,64210,1,0,0:0:0:0:
486,192,64210,1,0,0:0:0:0:
332,192,64410,128,0,64610:0:0:0:0:
230,192,64410,1,0,0:0:0:0:
179,192,64610,128,0,65210:0:0:0:0:
435,192,64610,128,0,64810:0:0:0:0:
76,192,64610,1,0,0:0:0:0:
486,192,64610,1,0,0:0:0:0:
25,192,64810,1,0,0:0:0:0:
281,192,64810,128,0,65010:0:0:0:0:
384,192,65010,128,0,65210:0:0:0:0:
76,192,65010,1,0,0:0:0:0:
332,192,65010,1,0,0:0:0:0:
25,192,65210,1,0,0:0:0:0:
128,192,65210,128,0,65410:0:0:0:0:
486,192,65210,128,0,65410:0:0:0:0:
179,192,65410,128,0,65610:0:0:0:0:
384,192,65410,128,0,65610:0:0:0:0:
76,192,65410,1,0,0:0:0:0:
332,192,65410,1,0,0:0:0:0:
25,192,65610,1,0,0:0:0:0:
230,192,65610,128,0,66210:0:0:0:0:
435,192,65610,128,0,65810:0:0:0:0:
332,192,65810,128,0,66010:0:0:0:0:
128,192,65810,1,0,0:0:0:0:
281,192,65810,1,0,0:0:0:0:
25,192,66010,1,0,0:0:0:0:
486,192,66010,128,0,66210:0:0:0:0:
179,192,66210,128,0,66810:0:0:0:0:
384,192,66210,128,0,66410:0:0:0:0:
128,192,66210,1,0,0:0:0:0:
281,192,66210,1,0,0:0:0:0:
25,192,66410,1,0,0:0:0:0:
281,192,66410,128,0,66610:0:0:0:0:
435,192,66610,128,0,66810:0:0:0:0:
230,192,66610,1,0,0:0:0:0:
486,192,66610,1,0,0:0:0:0:
25,192,66810,1,0,0:0:0:0:
128,192,66810,128,0,67010:0:0:0:0:
332,192,66810,128,0,67010:0:0:0:0:
76,192,67010,128,0,67210:0:0:0:0:
384,192,67010,128,0,67210:0:0:0:0:
230,192,67010,1,0,0:0:0:0:
486,192,67010,1,0,0:0:0:0:
25,192,67210,1,0,0:0:0:0:
179,192,67210,128,0,67810:0:0:0:0:
435,192,67210,128,0,67410:0:0:0:0:
281,192,67410,128,0,67610:0:0:0:0:
128,192,67410,1,0,0:0:0:0:
332,192,67410,1,0,0:0:0:0:
25,192,67610,1,0,0:0:0:0:
384,192,67610,128,0,67810:0:0:0:0:
230,192,67810,128,0,68410:0:0:0:0:
486,192,67810,128,0,68010:0:0:0:0:
128,192,67810,1,0,0:0:0:0:
332,192,67810,1,0,0:0:0:0:
25,192,68010,1,0,0:0:0:0:
332,192,68010,128,0,68210:0:0:0:0:
435,192,68210,128,0,68410:0:0:0:0:
76,192,68210,1,0,0:0:0:0:
281,192,68210,1,0,0:0:0:0:
25,192,68410,1,0,0:0:0:0:
128,192,68410,128,0,68610:0:0:0:0:
384,192,68410,128,0,68610:0:0:0:0:
179,192,68610,128,0,68810:0:0:0:0:
486,192,68610,128,0,68810:0:0:0:0:
76,192,68610,1,0,0:0:0:0:
281,192,68610,1,0,0:0:0:0:
25,192,68810,1,0,0:0:0:0:
230,192,68810,128,0,70010:0:0:0:0:
281,192,68810,128,0,69010:0:0:0:0:
435,192,68810,1,0,0:0:0:0:
384,192,69010,128,0,69210:0:0:0:0:
128,192,69010,1,0,0:0:0:0:
25,192,69210,1,0,0:0:0:0:
332,192,69210,128,0,69410:0:0:0:0:
435,192,69210,1,0,0:0:0:0:
435,192,69410,128,0,69610:0:0:0:0:
128,192,69410,1,0,0:0:0:0:
25,192,69610,1,0,0:0:0:0:
486,192,69610,128,0,69810:0:0:0:0:
384,192,69810,128,0,70010:0:0:0:0:
76,192,69810,1,0,0:0:0:0:
281,192,69810,1,0,0:0:0:0:
25,192,70010,1,0,0:0:0:0:
128,192,70010,128,0,70210:0:0:0:0:
486,192,70010,128,0,70210:0:0:0:0:
332,192,70210,128,0,70410:0:0:0:0:
76,192,70210,1,0,0:0:0:0:
281,192,70210,1,0,0:0:0:0:
128,192,70310,128,0,70410:0:0:0:0:
25,192,70410,1,0,0:0:0:0:
179,192,70410,128,0,71610:0:0:0:0:
384,192,70410,128,0,70610:0:0:0:0:
281,192,70610,128,0,70810:0:0:0:0:
230,192,70610,1,0,0:0:0:0:
486,192,70610,1,0,0:0:0:0:
25,192,70810,1,0,0:0:0:0:
332,192,70810,128,0,71010:0:0:0:0:
435,192,71010,128,0,71210:0:0:0:0:
230,192,71010,1,0,0:0:0:0:
486,192,71010,1,0,0:0:0:0:
25,192,71210,1,0,0:0:0:0:
281,192,71210,128,0,71410:0:0:0:0:
384,192,71410,128,0,71610:0:0:0:0:
76,192,71410,1,0,0:0:0:0:
486,192,71410,1,0,0:0:0:0:
25,192,71610,1,0,0:0:0:0:
128,192,71610,128,0,71810:0:0:0:0:
332,192,71610,128,0,71810:0:0:0:0:
435,192,71810,128,0,72010:0:0:0:0:
76,192,71810,1,0,0:0:0:0:
486,192,71810,1,0,0:0:0:0:
128,192,71910,128,0,72010:0:0:0:0:
230,192,72010,128,0,72610:0:0:0:0:
384,192,72010,128,0,72210:0:0:0:0:
25,192,72210,1,0,0:0:0:0:
486,192,72210,128,0,72410:0:0:0:0:
435,192,72210,1,0,0:0:0:0:
332,192,72410,128,0,72610:0:0:0:0:
25,192,72610,1,0,0:0:0:0:
179,192,72610,128,0,73210:0:0:0:0:
486,192,72610,128,0,72810:0:0:0:0:
435,192,72610,1,0,0:0:0:0:
281,192,72810,128,0,73010:0:0:0:0:
25,192,73010,1,0,0:0:0:0:
384,192,73010,128,0,73210:0:0:0:0:
332,192,73010,1,0,0:0:0:0:
128,192,73210,128,0,73510:0:0:0:0:
486,192,73210,128,0,73410:0:0:0:0:
25,192,73410,1,0,0:0:0:0:
384,192,73410,128,0,73610:0:0:0:0:
332,192,73410,1,0,0:0:0:0:
76,192,73510,128,0,73610:0:0:0:0:
230,192,73610,128,0,74810:0:0:0:0:
281,192,73610,128,0,73810:0:0:0:0:
179,192,73810,1,0,0:0:0:0:
384,192,73810,128,0,74010:0:0:0:0:
486,192,73810,1,0,0:0:0:0:
332,192,74010,128,0,74810:0:0:0:0:
179,192,74210,1,0,0:0:0:0:
435,192,74210,128,0,74810:0:0:0:0:
486,192,74210,1,0,0:0:0:0:
179,192,74610,1,0,0:0:0:0:
486,192,74610,1,0,0:0:0:0:
76,192,74810,1,0,0:0:0:0:
384,192,75210,128,0,75610:0:0:0:0:
25,192,75210,1,0,0:0:0:0:
128,192,75410,1,0,0:0:0:0:
179,192,75410,1,0,0:0:0:0:
486,192,75410,1,0,0:0:0:0:
25,192,75610,1,0,0:0:0:0:
281,192,75710,1,0,0:0:0:0:
332,192,75810,1,0,0:0:0:0:
128,192,75810,1,0,0:0:0:0:
179,192,75810,1,0,0:0:0:0:
486,192,75810,1,0,0:0:0:0:
384,192,75910,1,0,0:0:0:0:
435,192,76010,1,0,0:0:0:0:
25,192,76010,1,0,0:0:0:0:
486,192,76210,128,0,76510:0:0:0:0:
128,192,76210,1,0,0:0:0:0:
179,192,76210,1,0,0:0:0:0:
281,192,76210,1,0,0:0:0:0:
25,192,76410,1,0,0:0:0:0:
384,192,76610,1,0,0:0:0:0:
128,192,76610,1,0,0:0:0:0:
179,192,76610,1,0,0:0:0:0:
281,192,76610,1,0,0:0:0:0:
435,192,76710,1,0,0:0:0:0:
384,192,76810,1,0,0:0:0:0:
25,192,76810,1,0,0:0:0:0:
435,192,76910,1,0,0:0:0:0:
384,192,77010,1,0,0:0:0:0:
128,192,77010,1,0,0:0:0:0:
179,192,77010,1,0,0:0:0:0:
281,192,77010,1,0,0:0:0:0:
332,192,77110,1,0,0:0:0:0:
435,192,77210,1,0,0:0:0:0:
25,192,77210,1,0,0:0:0:0:
332,192,77410,1,0,0:0:0:0:
128,192,77410,1,0,0:0:0:0:
179,192,77410,1,0,0:0:0:0:
281,192,77410,1,0,0:0:0:0:
384,192,77510,1,0,0:0:0:0:
435,192,77610,1,0,0:0:0:0:
25,192,77610,1,0,0:0:0:0:
486,192,77676,1,0,0:0:0:0:
435,192,77743,1,0,0:0:0:0:
384,192,77810,1,0,0:0:0:0:
230,192,77810,1,0,0:0:0:0:
179,192,77810,1,0,0:0:0:0:
281,192,77810,1,0,0:0:0:0:
332,192,77910,1,0,0:0:0:0:
486,192,78010,1,0,0:0:0:0:
25,192,78010,1,0,0:0:0:0:
435,192,78076,1,0,0:0:0:0:
384,192,78143,1,0,0:0:0:0:
486,192,78210,1,0,0:0:0:0:
230,192,78210,1,0,0:0:0:0:
179,192,78210,1,0,0:0:0:0:
281,192,78210,1,0,0:0:0:0:
435,192,78276,1,0,0:0:0:0:
384,192,78343,1,0,0:0:0:0:
332,192,78410,1,0,0:0:0:0:
25,192,78410,1,0,0:0:0:0:
384,192,78543,1,0,0:0:0:0:
435,192,78610,1,0,0:0:0:0:
128,192,78610,1,0,0:0:0:0:
179,192,78610,1,0,0:0:0:0:
486,192,78610,1,0,0:0:0:0:
332,192,78810,1,0,0:0:0:0:
25,192,78810,1,0,0:0:0:0:
384,192,79010,1,0,0:0:0:0:
128,192,79010,1,0,0:0:0:0:
179,192,79010,1,0,0:0:0:0:
486,192,79010,1,0,0:0:0:0:
435,192,79210,1,0,0:0:0:0:
25,192,79210,1,0,0:0:0:0:
486,192,79410,1,0,0:0:0:0:
128,192,79410,1,0,0:0:0:0:
179,192,79410,1,0,0:0:0:0:
281,192,79410,1,0,0:0:0:0:
435,192,79610,1,0,0:0:0:0:
25,192,79610,1,0,0:0:0:0:
384,192,79810,1,0,0:0:0:0:
128,192,79810,1,0,0:0:0:0:
179,192,79810,1,0,0:0:0:0:
281,192,79810,1,0,0:0:0:0:
435,192,80010,1,0,0:0:0:0:
25,192,80010,1,0,0:0:0:0:
384,192,80210,1,0,0:0:0:0:
128,192,80210,1,0,0:0:0:0:
486,192,80210,1,0,0:0:0:0:
179,192,80210,1,0,0:0:0:0:
179,192,80310,1,0,0:0:0:0:
332,192,80410,1,0,0:0:0:0:
25,192,80410,1,0,0:0:0:0:
76,192,80410,1,0,0:0:0:0:
281,192,80510,1,0,0:0:0:0:
384,192,80610,1,0,0:0:0:0:
128,192,80610,1,0,0:0:0:0:
486,192,80610,1,0,0:0:0:0:
179,192,80610,1,0,0:0:0:0:
435,192,80710,1,0,0:0:0:0:
25,192,80810,1,0,0:0:0:0:
281,192,80810,1,0,0:0:0:0:
230,192,80810,1,0,0:0:0:0:
332,192,80910,1,0,0:0:0:0:
128,192,81010,1,0,0:0:0:0:
486,192,81010,1,0,0:0:0:0:
384,192,81010,1,0,0:0:0:0:
76,192,81010,1,0,0:0:0:0:
435,192,81110,1,0,0:0:0:0:
281,192,81210,1,0,0:0:0:0:
25,192,81210,1,0,0:0:0:0:
230,192,81210,1,0,0:0:0:0:
332,192,81310,1,0,0:0:0:0:
384,192,81410,1,0,0:0:0:0:
128,192,81410,1,0,0:0:0:0:
486,192,81410,1,0,0:0:0:0:
179,192,81410,1,0,0:0:0:0:
435,192,81510,1,0,0:0:0:0:
486,192,81610,128,0,82110:0:0:0:0:
128,192,81610,128,0,81910:0:0:0:0:
25,192,81610,1,0,0:0:0:0:
281,192,81810,1,0,0:0:0:0:
230,192,81810,1,0,0:0:0:0:
76,192,82010,1,0,0:0:0:0:
25,192,82010,1,0,0:0:0:0:
384,192,82210,1,0,0:0:0:0:
281,192,82210,1,0,0:0:0:0:
128,192,82210,1,0,0:0:0:0:
230,192,82210,1,0,0:0:0:0:
435,192,82310,1,0,0:0:0:0:
332,192,82410,1,0,0:0:0:0:
179,192,82410,128,0,82710:0:0:0:0:
25,192,82410,1,0,0:0:0:0:
384,192,82610,1,0,0:0:0:0:
281,192,82610,1,0,0:0:0:0:
76,192,82610,1,0,0:0:0:0:
435,192,82810,1,0,0:0:0:0:
230,192,82810,1,0,0:0:0:0:
25,192,82810,1,0,0:0:0:0:
384,192,83010,1,0,0:0:0:0:
281,192,83010,1,0,0:0:0:0:
128,192,83010,1,0,0:0:0:0:
76,192,83010,1,0,0:0:0:0:
179,192,83110,1,0,0:0:0:0:
332,192,83210,1,0,0:0:0:0:
230,192,83210,1,0,0:0:0:0:
25,192,83210,1,0,0:0:0:0:
281,192,83410,1,0,0:0:0:0:
486,192,83410,1,0,0:0:0:0:
179,192,83410,1,0,0:0:0:0:
128,192,83410,1,0,0:0:0:0:
332,192,83610,1,0,0:0:0:0:
76,192,83610,1,0,0:0:0:0:
230,192,83610,1,0,0:0:0:0:
25,192,83610,1,0,0:0:0:0:
384,192,83810,1,0,0:0:0:0:
486,192,83810,1,0,0:0:0:0:
128,192,83810,1,0,0:0:0:0:
76,192,83810,1,0,0:0:0:0:
435,192,84010,1,0,0:0:0:0:
179,192,84010,128,0,84310:0:0:0:0:
128,192,84010,1,0,0:0:0:0:
384,192,84210,1,0,0:0:0:0:
281,192,84210,1,0,0:0:0:0:
25,192,84210,1,0,0:0:0:0:
486,192,84410,1,0,0:0:0:0:
230,192,84410,128,0,84710:0:0:0:0:
128,192,84410,1,0,0:0:0:0:
435,192,84610,1,0,0:0:0:0:
281,192,84610,1,0,0:0:0:0:
76,192,84610,1,0,0:0:0:0:
486,192,84810,1,0,0:0:0:0:
179,192,84810,1,0,0:0:0:0:
25,192,84810,1,0,0:0:0:0:
332,192,85010,1,0,0:0:0:0:
281,192,85010,1,0,0:0:0:0:
76,192,85010,1,0,0:0:0:0:
230,192,85010,1,0,0:0:0:0:
384,192,85210,1,0,0:0:0:0:
128,192,85210,1,0,0:0:0:0:
25,192,85210,1,0,0:0:0:0:
435,192,85410,1,0,0:0:0:0:
281,192,85410,1,0,0:0:0:0:
179,192,85410,1,0,0:0:0:0:
230,192,85410,1,0,0:0:0:0:
486,192,85610,128,0,85910:0:0:0:0:
128,192,85610,128,0,85910:0:0:0:0:
25,192,85610,1,0,0:0:0:0:
332,192,85810,1,0,0:0:0:0:
230,192,85810,1,0,0:0:0:0:
435,192,86010,1,0,0:0:0:0:
179,192,86010,128,0,86310:0:0:0:0:
25,192,86010,1,0,0:0:0:0:
384,192,86210,1,0,0:0:0:0:
332,192,86210,1,0,0:0:0:0:
76,192,86210,1,0,0:0:0:0:
435,192,86410,128,0,86810:0:0:0:0:
230,192,86410,128,0,86910:0:0:0:0:
25,192,86410,1,0,0:0:0:0:
281,192,86610,1,0,0:0:0:0:
128,192,86610,1,0,0:0:0:0:
25,192,86810,1,0,0:0:0:0:
486,192,86876,1,0,0:0:0:0:
435,192,86943,1,0,0:0:0:0:
384,192,87010,1,0,0:0:0:0:
281,192,87010,1,0,0:0:0:0:
179,192,87010,1,0,0:0:0:0:
76,192,87010,1,0,0:0:0:0:
332,192,87110,1,0,0:0:0:0:
128,192,87110,1,0,0:0:0:0:
384,192,87210,128,0,87710:0:0:0:0:
179,192,87210,128,0,87710:0:0:0:0:
25,192,87210,1,0,0:0:0:0:
281,192,87410,1,0,0:0:0:0:
230,192,87410,1,0,0:0:0:0:
128,192,87610,1,0,0:0:0:0:
332,192,87810,1,0,0:0:0:0:
281,192,87810,1,0,0:0:0:0:
25,192,87810,1,0,0:0:0:0:
230,192,87810,1,0,0:0:0:0:
384,192,87910,1,0,0:0:0:0:
76,192,87910,1,0,0:0:0:0:
435,192,88010,128,0,88510:0:0:0:0:
128,192,88010,128,0,88510:0:0:0:0:
179,192,88010,1,0,0:0:0:0:
486,192,88210,1,0,0:0:0:0:
230,192,88210,1,0,0:0:0:0:
179,192,88410,1,0,0:0:0:0:
384,192,88610,1,0,0:0:0:0:
486,192,88610,1,0,0:0:0:0:
128,192,88610,1,0,0:0:0:0:
230,192,88610,1,0,0:0:0:0:
332,192,88710,1,0,0:0:0:0:
76,192,88710,1,0,0:0:0:0:
281,192,88810,128,0,89210:0:0:0:0:
25,192,88810,128,0,89310:0:0:0:0:
179,192,88810,1,0,0:0:0:0:
486,192,89010,1,0,0:0:0:0:
128,192,89010,1,0,0:0:0:0:
179,192,89210,1,0,0:0:0:0:
281,192,89310,1,0,0:0:0:0:
486,192,89410,1,0,0:0:0:0:
76,192,89410,1,0,0:0:0:0:
230,192,89410,1,0,0:0:0:0:
332,192,89410,1,0,0:0:0:0:
128,192,89510,1,0,0:0:0:0:
384,192,89510,1,0,0:0:0:0:
179,192,89610,128,0,90110:0:0:0:0:
25,192,89610,1,0,0:0:0:0:
435,192,89610,128,0,90110:0:0:0:0:
281,192,89810,1,0,0:0:0:0:
76,192,89810,1,0,0:0:0:0:
25,192,90010,1,0,0:0:0:0:
435,192,90210,1,0,0:0:0:0:
281,192,90210,1,0,0:0:0:0:
128,192,90210,1,0,0:0:0:0:
230,192,90210,1,0,0:0:0:0:
384,192,90310,1,0,0:0:0:0:
76,192,90310,1,0,0:0:0:0:
25,192,90410,128,0,91010:0:0:0:0:
179,192,90410,1,0,0:0:0:0:
332,192,90410,128,0,90610:0:0:0:0:
486,192,90610,1,0,0:0:0:0:
230,192,90610,1,0,0:0:0:0:
281,192,90710,1,0,0:0:0:0:
332,192,90810,1,0,0:0:0:0:
128,192,90810,1,0,0:0:0:0:
384,192,90876,1,0,0:0:0:0:
435,192,90943,1,0,0:0:0:0:
486,192,91010,1,0,0:0:0:0:
281,192,91010,1,0,0:0:0:0:
230,192,91010,1,0,0:0:0:0:
332,192,91076,1,0,0:0:0:0:
76,192,91110,1,0,0:0:0:0:
384,192,91143,1,0,0:0:0:0:
486,192,91210,1,0,0:0:0:0:
179,192,91210,1,0,0:0:0:0:
128,192,91210,1,0,0:0:0:0:
435,192,91276,1,0,0:0:0:0:
384,192,91343,1,0,0:0:0:0:
332,192,91410,1,0,0:0:0:0:
486,192,91410,1,0,0:0:0:0:
230,192,91410,1,0,0:0:0:0:
281,192,91476,1,0,0:0:0:0:
435,192,91543,1,0,0:0:0:0:
281,192,91610,1,0,0:0:0:0:
25,192,91610,1,0,0:0:0:0:
332,192,91676,1,0,0:0:0:0:
384,192,91743,1,0,0:0:0:0:
435,192,91810,1,0,0:0:0:0:
281,192,91810,1,0,0:0:0:0:
230,192,91810,1,0,0:0:0:0:
486,192,91876,1,0,0:0:0:0:
128,192,91910,1,0,0:0:0:0:
332,192,91943,1,0,0:0:0:0:
486,192,92010,1,0,0:0:0:0:
25,192,92010,1,0,0:0:0:0:
179,192,92010,1,0,0:0:0:0:
435,192,92076,1,0,0:0:0:0:
384,192,92143,1,0,0:0:0:0:
281,192,92210,1,0,0:0:0:0:
332,192,92210,1,0,0:0:0:0:
76,192,92210,1,0,0:0:0:0:
486,192,92276,1,0,0:0:0:0:
435,192,92343,1,0,0:0:0:0:
281,192,92410,1,0,0:0:0:0:
25,192,92410,1,0,0:0:0:0:
230,192,92410,1,0,0:0:0:0:
332,192,92476,1,0,0:0:0:0:
384,192,92543,1,0,0:0:0:0:
486,192,92610,1,0,0:0:0:0:
435,192,92610,1,0,0:0:0:0:
76,192,92610,1,0,0:0:0:0:
281,192,92676,1,0,0:0:0:0:
332,192,92743,1,0,0:0:0:0:
435,192,92810,1,0,0:0:0:0:
25,192,92810,1,0,0:0:0:0:
179,192,92810,1,0,0:0:0:0:
384,192,92876,1,0,0:0:0:0:
332,192,92943,1,0,0:0:0:0:
486,192,93010,1,0,0:0:0:0:
281,192,93010,1,0,0:0:0:0:
128,192,93010,1,0,0:0:0:0:
435,192,93076,1,0,0:0:0:0:
384,192,93143,1,0,0:0:0:0:
332,192,93210,1,0,0:0:0:0:
25,192,93210,1,0,0:0:0:0:
384,192,93276,1,0,0:0:0:0:
435,192,93343,1,0,0:0:0:0:
281,192,93410,1,0,0:0:0:0:
486,192,93410,1,0,0:0:0:0:
128,192,93410,1,0,0:0:0:0:
332,192,93476,1,0,0:0:0:0:
384,192,93543,1,0,0:0:0:0:
435,192,93610,1,0,0:0:0:0:
25,192,93610,1,0,0:0:0:0:
384,192,93676,1,0,0:0:0:0:
332,192,93743,1,0,0:0:0:0:
486,192,93810,1,0,0:0:0:0:
281,192,93810,1,0,0:0:0:0:
128,192,93810,1,0,0:0:0:0:
76,192,93810,1,0,0:0:0:0:
435,192,93876,1,0,0:0:0:0:
384,192,93943,1,0,0:0:0:0:
332,192,94010,1,0,0:0:0:0:
179,192,94010,1,0,0:0:0:0:
25,192,94010,1,0,0:0:0:0:
384,192,94076,1,0,0:0:0:0:
435,192,94143,1,0,0:0:0:0:
281,192,94210,1,0,0:0:0:0:
486,192,94210,1,0,0:0:0:0:
230,192,94210,1,0,0:0:0:0:
76,192,94210,1,0,0:0:0:0:
332,192,94276,1,0,0:0:0:0:
384,192,94343,1,0,0:0:0:0:
486,192,94410,1,0,0:0:0:0:
25,192,94410,1,0,0:0:0:0:
128,192,94410,1,0,0:0:0:0:
435,192,94476,1,0,0:0:0:0:
384,192,94543,1,0,0:0:0:0:
486,192,94610,1,0,0:0:0:0:
332,192,94610,1,0,0:0:0:0:
230,192,94610,1,0,0:0:0:0:
435,192,94676,1,0,0:0:0:0:
384,192,94743,1,0,0:0:0:0:
281,192,94810,1,0,0:0:0:0:
25,192,94810,1,0,0:0:0:0:
179,192,94810,1,0,0:0:0:0:
332,192,94876,1,0,0:0:0:0:
384,192,94943,1,0,0:0:0:0:
435,192,95010,1,0,0:0:0:0:
281,192,95010,1,0,0:0:0:0:
76,192,95010,1,0,0:0:0:0:
332,192,95076,1,0,0:0:0:0:
384,192,95143,1,0,0:0:0:0:
486,192,95210,1,0,0:0:0:0:
25,192,95210,1,0,0:0:0:0:
230,192,95210,1,0,0:0:0:0:
435,192,95276,1,0,0:0:0:0:
384,192,95343,1,0,0:0:0:0:
332,192,95410,1,0,0:0:0:0:
486,192,95410,1,0,0:0:0:0:
128,192,95410,1,0,0:0:0:0:
435,192,95476,1,0,0:0:0:0:
384,192,95543,1,0,0:0:0:0:
281,192,95610,1,0,0:0:0:0:
25,192,95610,1,0,0:0:0:0:
179,192,95610,1,0,0:0:0:0:
332,192,95676,1,0,0:0:0:0:
384,192,95743,1,0,0:0:0:0:
435,192,95810,1,0,0:0:0:0:
281,192,95810,1,0,0:0:0:0:
76,192,95810,1,0,0:0:0:0:
332,192,95876,1,0,0:0:0:0:
384,192,95943,1,0,0:0:0:0:
179,192,96010,1,0,0:0:0:0:
486,192,96010,1,0,0:0:0:0:
281,192,96010,1,0,0:0:0:0:
128,192,96076,1,0,0:0:0:0:
76,192,96143,1,0,0:0:0:0:
230,192,96210,1,0,0:0:0:0:
25,192,96210,1,0,0:0:0:0:
384,192,96210,1,0,0:0:0:0:
179,192,96276,1,0,0:0:0:0:
128,192,96343,1,0,0:0:0:0:
76,192,96410,1,0,0:0:0:0:
281,192,96410,1,0,0:0:0:0:
128,192,96476,1,0,0:0:0:0:
179,192,96543,1,0,0:0:0:0:
25,192,96610,1,0,0:0:0:0:
230,192,96610,1,0,0:0:0:0:
486,192,96610,1,0,0:0:0:0:
332,192,96610,1,0,0:0:0:0:
76,192,96676,1,0,0:0:0:0:
435,192,96710,1,0,0:0:0:0:
128,192,96743,1,0,0:0:0:0:
179,192,96810,1,0,0:0:0:0:
486,192,96810,1,0,0:0:0:0:
281,192,96810,1,0,0:0:0:0:
128,192,96876,1,0,0:0:0:0:
76,192,96943,1,0,0:0:0:0:
230,192,97010,1,0,0:0:0:0:
25,192,97010,1,0,0:0:0:0:
384,192,97010,1,0,0:0:0:0:
179,192,97076,1,0,0:0:0:0:
128,192,97143,1,0,0:0:0:0:
76,192,97210,1,0,0:0:0:0:
435,192,97210,1,0,0:0:0:0:
281,192,97210,1,0,0:0:0:0:
128,192,97276,1,0,0:0:0:0:
179,192,97343,1,0,0:0:0:0:
25,192,97410,1,0,0:0:0:0:
230,192,97410,1,0,0:0:0:0:
332,192,97410,1,0,0:0:0:0:
76,192,97476,1,0,0:0:0:0:
128,192,97543,1,0,0:0:0:0:
230,192,97610,1,0,0:0:0:0:
384,192,97610,1,0,0:0:0:0:
486,192,97610,1,0,0:0:0:0:
179,192,97676,1,0,0:0:0:0:
128,192,97743,1,0,0:0:0:0:
76,192,97810,1,0,0:0:0:0:
230,192,97810,1,0,0:0:0:0:
435,192,97810,1,0,0:0:0:0:
179,192,97876,1,0,0:0:0:0:
128,192,97943,1,0,0:0:0:0:
25,192,98010,1,0,0:0:0:0:
332,192,98010,1,0,0:0:0:0:
486,192,98010,1,0,0:0:0:0:
76,192,98076,1,0,0:0:0:0:
128,192,98143,1,0,0:0:0:0:
179,192,98210,1,0,0:0:0:0:
25,192,98210,1,0,0:0:0:0:
435,192,98210,1,0,0:0:0:0:
76,192,98276,1,0,0:0:0:0:
128,192,98343,1,0,0:0:0:0:
230,192,98410,1,0,0:0:0:0:
281,192,98410,1,0,0:0:0:0:
384,192,98410,1,0,0:0:0:0:
179,192,98476,1,0,0:0:0:0:
128,192,98543,1,0,0:0:0:0:
76,192,98610,1,0,0:0:0:0:
230,192,98610,1,0,0:0:0:0:
435,192,98610,1,0,0:0:0:0:
179,192,98676,1,0,0:0:0:0:
128,192,98743,1,0,0:0:0:0:
25,192,98810,1,0,0:0:0:0:
332,192,98810,1,0,0:0:0:0:
384,192,98810,1,0,0:0:0:0:
76,192,98876,1,0,0:0:0:0:
128,192,98943,1,0,0:0:0:0:
179,192,99010,1,0,0:0:0:0:
25,192,99010,1,0,0:0:0:0:
435,192,99010,1,0,0:0:0:0:
76,192,99076,1,0,0:0:0:0:
128,192,99143,1,0,0:0:0:0:
486,192,99210,1,0,0:0:0:0:
230,192,99210,1,0,0:0:0:0:
25,192,99210,128,0,99910:0:0:0:0:
435,192,99276,1,0,0:0:0:0:
332,192,99343,1,0,0:0:0:0:
281,192,99410,1,0,0:0:0:0:
486,192,99410,1,0,0:0:0:0:
179,192,99410,1,0,0:0:0:0:
435,192,99476,1,0,0:0:0:0:
384,192,99543,1,0,0:0:0:0:
281,192,99610,1,0,0:0:0:0:
230,192,99610,1,0,0:0:0:0:
332,192,99676,1,0,0:0:0:0:
435,192,99743,1,0,0:0:0:0:
486,192,99810,1,0,0:0:0:0:
281,192,99810,1,0,0:0:0:0:
128,192,99810,1,0,0:0:0:0:
332,192,99876,1,0,0:0:0:0:
384,192,99943,1,0,0:0:0:0:
486,192,100010,1,0,0:0:0:0:
230,192,100010,1,0,0:0:0:0:
76,192,100010,128,0,100710:0:0:0:0:
435,192,100076,1,0,0:0:0:0:
332,192,100143,1,0,0:0:0:0:
281,192,100210,1,0,0:0:0:0:
486,192,100210,1,0,0:0:0:0:
128,192,100210,1,0,0:0:0:0:
435,192,100276,1,0,0:0:0:0:
384,192,100343,1,0,0:0:0:0:
281,192,100410,1,0,0:0:0:0:
230,192,100410,1,0,0:0:0:0:
332,192,100476,1,0,0:0:0:0:
435,192,100543,1,0,0:0:0:0:
281,192,100610,1,0,0:0:0:0:
486,192,100610,1,0,0:0:0:0:
179,192,100610,1,0,0:0:0:0:
332,192,100676,1,0,0:0:0:0:
384,192,100743,1,0,0:0:0:0:
486,192,100810,1,0,0:0:0:0:
25,192,100810,1,0,0:0:0:0:
128,192,100810,128,0,101510:0:0:0:0:
435,192,100876,1,0,0:0:0:0:
384,192,100943,1,0,0:0:0:0:
281,192,101010,1,0,0:0:0:0:
332,192,101010,1,0,0:0:0:0:
230,192,101010,1,0,0:0:0:0:
435,192,101076,1,0,0:0:0:0:
384,192,101143,1,0,0:0:0:0:
281,192,101210,1,0,0:0:0:0:
25,192,101210,1,0,0:0:0:0:
332,192,101276,1,0,0:0:0:0:
384,192,101343,1,0,0:0:0:0:
486,192,101410,1,0,0:0:0:0:
435,192,101410,1,0,0:0:0:0:
230,192,101410,1,0,0:0:0:0:
332,192,101476,1,0,0:0:0:0:
384,192,101543,1,0,0:0:0:0:
486,192,101610,1,0,0:0:0:0:
25,192,101610,1,0,0:0:0:0:
179,192,101610,128,0,101910:0:0:0:0:
435,192,101676,1,0,0:0:0:0:
384,192,101743,1,0,0:0:0:0:
332,192,101810,1,0,0:0:0:0:
281,192,101810,1,0,0:0:0:0:
128,192,101810,1,0,0:0:0:0:
435,192,101876,1,0,0:0:0:0:
384,192,101943,1,0,0:0:0:0:
281,192,102010,1,0,0:0:0:0:
25,192,102010,1,0,0:0:0:0:
230,192,102010,128,0,102310:0:0:0:0:
332,192,102076,1,0,0:0:0:0:
384,192,102143,1,0,0:0:0:0:
486,192,102210,1,0,0:0:0:0:
435,192,102210,1,0,0:0:0:0:
76,192,102210,1,0,0:0:0:0:
332,192,102276,1,0,0:0:0:0:
384,192,102343,1,0,0:0:0:0:
230,192,102410,1,0,0:0:0:0:
281,192,102410,1,0,0:0:0:0:
486,192,102410,128,0,103910:0:0:0:0:
179,192,102476,1,0,0:0:0:0:
76,192,102543,1,0,0:0:0:0:
230,192,102610,1,0,0:0:0:0:
25,192,102610,1,0,0:0:0:0:
435,192,102610,1,0,0:0:0:0:
179,192,102676,1,0,0:0:0:0:
128,192,102743,1,0,0:0:0:0:
25,192,102810,1,0,0:0:0:0:
281,192,102810,1,0,0:0:0:0:
76,192,102876,1,0,0:0:0:0:
179,192,102943,1,0,0:0:0:0:
230,192,103010,1,0,0:0:0:0:
25,192,103010,1,0,0:0:0:0:
435,192,103010,1,0,0:0:0:0:
76,192,103076,1,0,0:0:0:0:
128,192,103143,1,0,0:0:0:0:
230,192,103210,1,0,0:0:0:0:
281,192,103210,1,0,0:0:0:0:
179,192,103276,1,0,0:0:0:0:
76,192,103343,1,0,0:0:0:0:
25,192,103410,1,0,0:0:0:0:
230,192,103410,1,0,0:0:0:0:
384,192,103410,1,0,0:0:0:0:
179,192,103476,1,0,0:0:0:0:
128,192,103543,1,0,0:0:0:0:
25,192,103610,1,0,0:0:0:0:
281,192,103610,1,0,0:0:0:0:
76,192,103676,1,0,0:0:0:0:
179,192,103743,1,0,0:0:0:0:
230,192,103810,1,0,0:0:0:0:
25,192,103810,1,0,0:0:0:0:
384,192,103810,1,0,0:0:0:0:
76,192,103876,1,0,0:0:0:0:
128,192,103943,1,0,0:0:0:0:
230,192,104010,1,0,0:0:0:0:
332,192,104010,1,0,0:0:0:0:
435,192,104010,128,0,105210:0:0:0:0:
179,192,104076,1,0,0:0:0:0:
128,192,104143,1,0,0:0:0:0:
76,192,104210,1,0,0:0:0:0:
25,192,104210,1,0,0:0:0:0:
486,192,104210,1,0,0:0:0:0:
179,192,104276,1,0,0:0:0:0:
128,192,104343,1,0,0:0:0:0:
332,192,104410,1,0,0:0:0:0:
486,192,104610,1,0,0:0:0:0:
25,192,104610,1,0,0:0:0:0:
332,192,104810,1,0,0:0:0:0:
486,192,105010,1,0,0:0:0:0:
25,192,105010,1,0,0:0:0:0:
281,192,105210,1,0,0:0:0:0:
486,192,105410,1,0,0:0:0:0:
435,192,105610,1,0,0:0:0:0:
384,192,105610,1,0,0:0:0:0:
332,192,105610,1,0,0:0:0:0:
230,192,105610,1,0,0:0:0:0:
25,192,105610,1,0,0:0:0:0:
435,192,105710,1,0,0:0:0:0:
384,192,105710,1,0,0:0:0:0:
332,192,105710,1,0,0:0:0:0:
128,192,105810,1,0,0:0:0:0:
435,192,105810,128,0,105910:0:0:0:0:
384,192,105810,128,0,105910:0:0:0:0:
332,192,105810,128,0,105910:0:0:0:0:
332,192,106010,1,0,0:0:0:0:
384,192,106010,1,0,0:0:0:0:
435,192,106010,1,0,0:0:0:0:
25,192,106010,1,0,0:0:0:0:
332,192,106110,1,0,0:0:0:0:
384,192,106110,1,0,0:0:0:0:
435,192,106110,1,0,0:0:0:0:
230,192,106210,1,0,0:0:0:0:
128,192,106210,1,0,0:0:0:0:
435,192,106210,128,0,106310:0:0:0:0:
384,192,106210,128,0,106310:0:0:0:0:
332,192,106210,128,0,106310:0:0:0:0:
435,192,106410,1,0,0:0:0:0:
384,192,106410,1,0,0:0:0:0:
281,192,106410,1,0,0:0:0:0:
25,192,106410,1,0,0:0:0:0:
435,192,106510,1,0,0:0:0:0:
281,192,106510,1,0,0:0:0:0:
384,192,106510,1,0,0:0:0:0:
230,192,106610,1,0,0:0:0:0:
128,192,106610,1,0,0:0:0:0:
435,192,106610,128,0,106710:0:0:0:0:
384,192,106610,128,0,106710:0:0:0:0:
281,192,106610,128,0,106710:0:0:0:0:
281,192,106810,1,0,0:0:0:0:
384,192,106810,1,0,0:0:0:0:
435,192,106810,1,0,0:0:0:0:
25,192,106810,1,0,0:0:0:0:
281,192,106910,1,0,0:0:0:0:
384,192,106910,1,0,0:0:0:0:
435,192,106910,1,0,0:0:0:0:
230,192,107010,1,0,0:0:0:0:
128,192,107010,1,0,0:0:0:0:
435,192,107010,128,0,107110:0:0:0:0:
384,192,107010,128,0,107110:0:0:0:0:
281,192,107010,128,0,107110:0:0:0:0:
486,192,107210,1,0,0:0:0:0:
435,192,107210,1,0,0:0:0:0:
384,192,107210,1,0,0:0:0:0:
230,192,107210,1,0,0:0:0:0:
25,192,107210,1,0,0:0:0:0:
486,192,107310,1,0,0:0:0:0:
435,192,107310,1,0,0:0:0:0:
384,192,107310,1,0,0:0:0:0:
230,192,107410,1,0,0:0:0:0:
128,192,107410,1,0,0:0:0:0:
486,192,107410,128,0,107510:0:0:0:0:
435,192,107410,128,0,107510:0:0:0:0:
384,192,107410,128,0,107510:0:0:0:0:
384,192,107610,1,0,0:0:0:0:
435,192,107610,1,0,0:0:0:0:
486,192,107610,1,0,0:0:0:0:
25,192,107610,1,0,0:0:0:0:
384,192,107710,1,0,0:0:0:0:
435,192,107710,1,0,0:0:0:0:
486,192,107710,1,0,0:0:0:0:
230,192,107810,1,0,0:0:0:0:
128,192,107810,1,0,0:0:0:0:
384,192,107810,128,0,107910:0:0:0:0:
435,192,107810,128,0,107910:0:0:0:0:
486,192,107810,128,0,107910:0:0:0:0:
435,192,108010,1,0,0:0:0:0:
384,192,108010,1,0,0:0:0:0:
332,192,108010,1,0,0:0:0:0:
25,192,108010,1,0,0:0:0:0:
435,192,108110,1,0,0:0:0:0:
384,192,108110,1,0,0:0:0:0:
332,192,108110,1,0,0:0:0:0:
230,192,108210,1,0,0:0:0:0:
128,192,108210,1,0,0:0:0:0:
435,192,108210,128,0,108310:0:0:0:0:
384,192,108210,128,0,108310:0:0:0:0:
332,192,108210,128,0,108310:0:0:0:0:
332,192,108410,1,0,0:0:0:0:
384,192,108410,1,0,0:0:0:0:
435,192,108410,1,0,0:0:0:0:
25,192,108410,1,0,0:0:0:0:
332,192,108510,1,0,0:0:0:0:
384,192,108510,1,0,0:0:0:0:
435,192,108510,1,0,0:0:0:0:
230,192,108610,1,0,0:0:0:0:
128,192,108610,1,0,0:0:0:0:
435,192,108610,128,0,108710:0:0:0:0:
384,192,108610,128,0,108710:0:0:0:0:
332,192,108610,128,0,108710:0:0:0:0:
281,192,108810,1,0,0:0:0:0:
332,192,108810,1,0,0:0:0:0:
384,192,108810,1,0,0:0:0:0:
179,192,108810,1,0,0:0:0:0:
25,192,108810,1,0,0:0:0:0:
281,192,108910,1,0,0:0:0:0:
332,192,108910,1,0,0:0:0:0:
384,192,108910,1,0,0:0:0:0:
179,192,109010,1,0,0:0:0:0:
76,192,109010,1,0,0:0:0:0:
384,192,109010,128,0,109110:0:0:0:0:
332,192,109010,128,0,109110:0:0:0:0:
281,192,109010,128,0,109110:0:0:0:0:
384,192,109210,1,0,0:0:0:0:
332,192,109210,1,0,0:0:0:0:
281,192,109210,1,0,0:0:0:0:
25,192,109210,1,0,0:0:0:0:
384,192,109310,1,0,0:0:0:0:
332,192,109310,1,0,0:0:0:0:
281,192,109310,1,0,0:0:0:0:
179,192,109410,1,0,0:0:0:0:
76,192,109410,1,0,0:0:0:0:
384,192,109410,128,0,109510:0:0:0:0:
332,192,109410,128,0,109510:0:0:0:0:
281,192,109410,128,0,109510:0:0:0:0:
281,192,109610,1,0,0:0:0:0:
332,192,109610,1,0,0:0:0:0:
435,192,109610,1,0,0:0:0:0:
25,192,109610,1,0,0:0:0:0:
281,192,109710,1,0,0:0:0:0:
332,192,109710,1,0,0:0:0:0:
435,192,109710,1,0,0:0:0:0:
179,192,109810,1,0,0:0:0:0:
76,192,109810,1,0,0:0:0:0:
435,192,109810,128,0,109910:0:0:0:0:
332,192,109810,128,0,109910:0:0:0:0:
281,192,109810,128,0,109910:0:0:0:0:
435,192,110010,1,0,0:0:0:0:
332,192,110010,1,0,0:0:0:0:
281,192,110010,1,0,0:0:0:0:
25,192,110010,1,0,0:0:0:0:
435,192,110110,1,0,0:0:0:0:
332,192,110110,1,0,0:0:0:0:
281,192,110110,1,0,0:0:0:0:
179,192,110210,1,0,0:0:0:0:
76,192,110210,1,0,0:0:0:0:
281,192,110210,128,0,110310:0:0:0:0:
332,192,110210,128,0,110310:0:0:0:0:
435,192,110210,128,0,110310:0:0:0:0:
384,192,110410,1,0,0:0:0:0:
435,192,110410,1,0,0:0:0:0:
281,192,110410,1,0,0:0:0:0:
179,192,110410,1,0,0:0:0:0:
25,192,110410,1,0,0:0:0:0:
384,192,110510,1,0,0:0:0:0:
435,192,110510,1,0,0:0:0:0:
281,192,110510,1,0,0:0:0:0:
179,192,110610,1,0,0:0:0:0:
76,192,110610,1,0,0:0:0:0:
435,192,110610,128,0,110710:0:0:0:0:
384,192,110610,128,0,110710:0:0:0:0:
281,192,110610,128,0,110710:0:0:0:0:
281,192,110810,1,0,0:0:0:0:
435,192,110810,1,0,0:0:0:0:
384,192,110810,1,0,0:0:0:0:
25,192,110810,1,0,0:0:0:0:
281,192,110910,1,0,0:0:0:0:
435,192,110910,1,0,0:0:0:0:
384,192,110910,1,0,0:0:0:0:
179,192,111010,1,0,0:0:0:0:
76,192,111010,1,0,0:0:0:0:
281,192,111010,128,0,111110:0:0:0:0:
384,192,111010,128,0,111110:0:0:0:0:
435,192,111010,128,0,111110:0:0:0:0:
435,192,111210,1,0,0:0:0:0:
384,192,111210,1,0,0:0:0:0:
332,192,111210,1,0,0:0:0:0:
25,192,111210,1,0,0:0:0:0:
435,192,111310,1,0,0:0:0:0:
384,192,111310,1,0,0:0:0:0:
332,192,111310,1,0,0:0:0:0:
179,192,111410,1,0,0:0:0:0:
76,192,111410,1,0,0:0:0:0:
435,192,111410,128,0,111510:0:0:0:0:
384,192,111410,128,0,111510:0:0:0:0:
332,192,111410,128,0,111510:0:0:0:0:
332,192,111610,1,0,0:0:0:0:
384,192,111610,1,0,0:0:0:0:
435,192,111610,1,0,0:0:0:0:
25,192,111610,1,0,0:0:0:0:
332,192,111710,1,0,0:0:0:0:
384,192,111710,1,0,0:0:0:0:
435,192,111710,1,0,0:0:0:0:
179,192,111810,1,0,0:0:0:0:
76,192,111810,1,0,0:0:0:0:
435,192,111810,128,0,111910:0:0:0:0:
384,192,111810,128,0,111910:0:0:0:0:
332,192,111810,128,0,111910:0:0:0:0:
384,192,112010,1,0,0:0:0:0:
435,192,112010,1,0,0:0:0:0:
486,192,112010,1,0,0:0:0:0:
128,192,112010,1,0,0:0:0:0:
230,192,112010,1,0,0:0:0:0:
25,192,112010,1,0,0:0:0:0:
384,192,112110,1,0,0:0:0:0:
435,192,112110,1,0,0:0:0:0:
486,192,112110,1,0,0:0:0:0:
128,192,112210,1,0,0:0:0:0:
230,192,112210,1,0,0:0:0:0:
179,192,112210,1,0,0:0:0:0:
486,192,112210,128,0,112310:0:0:0:0:
435,192,112210,128,0,112310:0:0:0:0:
384,192,112210,128,0,112310:0:0:0:0:
486,192,112410,1,0,0:0:0:0:
435,192,112410,1,0,0:0:0:0:
384,192,112410,1,0,0:0:0:0:
25,192,112410,1,0,0:0:0:0:
486,192,112510,1,0,0:0:0:0:
435,192,112510,1,0,0:0:0:0:
384,192,112510,1,0,0:0:0:0:
230,192,112610,1,0,0:0:0:0:
128,192,112610,1,0,0:0:0:0:
179,192,112610,1,0,0:0:0:0:
486,192,112610,128,0,112710:0:0:0:0:
435,192,112610,128,0,112710:0:0:0:0:
384,192,112610,128,0,112710:0:0:0:0:
332,192,112810,1,0,0:0:0:0:
435,192,112810,1,0,0:0:0:0:
486,192,112810,1,0,0:0:0:0:
25,192,112810,1,0,0:0:0:0:
332,192,112910,1,0,0:0:0:0:
435,192,112910,1,0,0:0:0:0:
486,192,112910,1,0,0:0:0:0:
230,192,113010,1,0,0:0:0:0:
179,192,113010,1,0,0:0:0:0:
128,192,113010,1,0,0:0:0:0:
486,192,113010,128,0,113110:0:0:0:0:
435,192,113010,128,0,113110:0:0:0:0:
332,192,113010,128,0,113110:0:0:0:0:
486,192,113210,1,0,0:0:0:0:
435,192,113210,1,0,0:0:0:0:
332,192,113210,1,0,0:0:0:0:
25,192,113210,1,0,0:0:0:0:
486,192,113310,1,0,0:0:0:0:
435,192,113310,1,0,0:0:0:0:
332,192,113310,1,0,0:0:0:0:
76,192,113410,1,0,0:0:0:0:
179,192,113410,1,0,0:0:0:0:
332,192,113410,128,0,113510:0:0:0:0:
435,192,113410,128,0,113510:0:0:0:0:
486,192,113410,128,0,113510:0:0:0:0:
384,192,113610,1,0,0:0:0:0:
332,192,113610,1,0,0:0:0:0:
281,192,113610,1,0,0:0:0:0:
230,192,113610,1,0,0:0:0:0:
128,192,113610,1,0,0:0:0:0:
179,192,113610,1,0,0:0:0:0:
384,192,113710,1,0,0:0:0:0:
332,192,113710,1,0,0:0:0:0:
281,192,113710,1,0,0:0:0:0:
128,192,113810,1,0,0:0:0:0:
230,192,113810,1,0,0:0:0:0:
179,192,113810,1,0,0:0:0:0:
384,192,113810,128,0,113910:0:0:0:0:
332,192,113810,128,0,113910:0:0:0:0:
281,192,113810,128,0,113910:0:0:0:0:
281,192,114010,1,0,0:0:0:0:
332,192,114010,1,0,0:0:0:0:
384,192,114010,1,0,0:0:0:0:
25,192,114010,1,0,0:0:0:0:
281,192,114110,1,0,0:0:0:0:
332,192,114110,1,0,0:0:0:0:
384,192,114110,1,0,0:0:0:0:
230,192,114210,1,0,0:0:0:0:
128,192,114210,1,0,0:0:0:0:
179,192,114210,1,0,0:0:0:0:
384,192,114210,128,0,114310:0:0:0:0:
332,192,114210,128,0,114310:0:0:0:0:
281,192,114210,128,0,114310:0:0:0:0:
435,192,114410,1,0,0:0:0:0:
384,192,114410,1,0,0:0:0:0:
332,192,114410,1,0,0:0:0:0:
25,192,114410,1,0,0:0:0:0:
435,192,114510,1,0,0:0:0:0:
384,192,114510,1,0,0:0:0:0:
332,192,114510,1,0,0:0:0:0:
179,192,114610,1,0,0:0:0:0:
230,192,114610,1,0,0:0:0:0:
128,192,114610,1,0,0:0:0:0:
435,192,114610,128,0,114710:0:0:0:0:
384,192,114610,128,0,114710:0:0:0:0:
332,192,114610,128,0,114710:0:0:0:0:
384,192,114810,1,0,0:0:0:0:
435,192,114810,1,0,0:0:0:0:
486,192,114810,1,0,0:0:0:0:
25,192,114810,1,0,0:0:0:0:
384,192,114910,1,0,0:0:0:0:
435,192,114910,1,0,0:0:0:0:
486,192,114910,1,0,0:0:0:0:
230,192,115010,1,0,0:0:0:0:
76,192,115010,1,0,0:0:0:0:
179,192,115010,1,0,0:0:0:0:
486,192,115010,128,0,115110:0:0:0:0:
435,192,115010,128,0,115110:0:0:0:0:
384,192,115010,128,0,115110:0:0:0:0:
281,192,115210,1,0,0:0:0:0:
332,192,115210,1,0,0:0:0:0:
435,192,115210,1,0,0:0:0:0:
76,192,115210,1,0,0:0:0:0:
128,192,115210,1,0,0:0:0:0:
25,192,115210,1,0,0:0:0:0:
281,192,115310,1,0,0:0:0:0:
332,192,115310,1,0,0:0:0:0:
435,192,115310,1,0,0:0:0:0:
128,192,115410,1,0,0:0:0:0:
25,192,115410,1,0,0:0:0:0:
76,192,115410,1,0,0:0:0:0:
435,192,115410,128,0,115510:0:0:0:0:
332,192,115410,128,0,115510:0:0:0:0:
281,192,115410,128,0,115510:0:0:0:0:
435,192,115610,1,0,0:0:0:0:
332,192,115610,1,0,0:0:0:0:
281,192,115610,1,0,0:0:0:0:
230,192,115610,1,0,0:0:0:0:
435,192,115710,1,0,0:0:0:0:
332,192,115710,1,0,0:0:0:0:
281,192,115710,1,0,0:0:0:0:
128,192,115810,1,0,0:0:0:0:
76,192,115810,1,0,0:0:0:0:
25,192,115810,1,0,0:0:0:0:
435,192,115810,128,0,115910:0:0:0:0:
332,192,115810,128,0,115910:0:0:0:0:
281,192,115810,128,0,115910:0:0:0:0:
281,192,116010,1,0,0:0:0:0:
332,192,116010,1,0,0:0:0:0:
384,192,116010,1,0,0:0:0:0:
230,192,116010,1,0,0:0:0:0:
281,192,116110,1,0,0:0:0:0:
332,192,116110,1,0,0:0:0:0:
384,192,116110,1,0,0:0:0:0:
128,192,116210,1,0,0:0:0:0:
76,192,116210,1,0,0:0:0:0:
25,192,116210,1,0,0:0:0:0:
384,192,116210,128,0,116310:0:0:0:0:
332,192,116210,128,0,116310:0:0:0:0:
281,192,116210,128,0,116310:0:0:0:0:
435,192,116410,1,0,0:0:0:0:
332,192,116410,1,0,0:0:0:0:
281,192,116410,1,0,0:0:0:0:
230,192,116410,1,0,0:0:0:0:
435,192,116510,1,0,0:0:0:0:
332,192,116510,1,0,0:0:0:0:
281,192,116510,1,0,0:0:0:0:
179,192,116610,1,0,0:0:0:0:
76,192,116610,1,0,0:0:0:0:
128,192,116610,1,0,0:0:0:0:
435,192,116610,128,0,116710:0:0:0:0:
332,192,116610,128,0,116710:0:0:0:0:
281,192,116610,128,0,116710:0:0:0:0:
435,192,116810,1,0,0:0:0:0:
384,192,116810,1,0,0:0:0:0:
281,192,116810,1,0,0:0:0:0:
230,192,116810,1,0,0:0:0:0:
76,192,116810,1,0,0:0:0:0:
25,192,116810,1,0,0:0:0:0:
435,192,116910,1,0,0:0:0:0:
384,192,116910,1,0,0:0:0:0:
281,192,116910,1,0,0:0:0:0:
25,192,117010,1,0,0:0:0:0:
179,192,117010,1,0,0:0:0:0:
76,192,117010,1,0,0:0:0:0:
281,192,117010,128,0,117110:0:0:0:0:
384,192,117010,128,0,117110:0:0:0:0:
435,192,117010,128,0,117110:0:0:0:0:
281,192,117210,1,0,0:0:0:0:
332,192,117210,1,0,0:0:0:0:
384,192,117210,1,0,0:0:0:0:
230,192,117210,1,0,0:0:0:0:
281,192,117310,1,0,0:0:0:0:
332,192,117310,1,0,0:0:0:0:
384,192,117310,1,0,0:0:0:0:
128,192,117410,1,0,0:0:0:0:
76,192,117410,1,0,0:0:0:0:
25,192,117410,1,0,0:0:0:0:
384,192,117410,128,0,117510:0:0:0:0:
332,192,117410,128,0,117510:0:0:0:0:
281,192,117410,128,0,117510:0:0:0:0:
435,192,117610,1,0,0:0:0:0:
384,192,117610,1,0,0:0:0:0:
332,192,117610,1,0,0:0:0:0:
230,192,117610,1,0,0:0:0:0:
435,192,117710,1,0,0:0:0:0:
384,192,117710,1,0,0:0:0:0:
332,192,117710,1,0,0:0:0:0:
76,192,117810,1,0,0:0:0:0:
179,192,117810,1,0,0:0:0:0:
128,192,117810,1,0,0:0:0:0:
332,192,117810,128,0,117910:0:0:0:0:
384,192,117810,128,0,117910:0:0:0:0:
435,192,117810,128,0,117910:0:0:0:0:
384,192,118010,1,0,0:0:0:0:
435,192,118010,1,0,0:0:0:0:
486,192,118010,1,0,0:0:0:0:
25,192,118010,1,0,0:0:0:0:
384,192,118110,1,0,0:0:0:0:
435,192,118110,1,0,0:0:0:0:
486,192,118110,1,0,0:0:0:0:
179,192,118210,1,0,0:0:0:0:
230,192,118210,1,0,0:0:0:0:
128,192,118210,1,0,0:0:0:0:
384,192,118210,128,0,118310:0:0:0:0:
435,192,118210,128,0,118310:0:0:0:0:
486,192,118210,128,0,118310:0:0:0:0:
76,192,118410,1,0,0:0:0:0:
128,192,118410,1,0,0:0:0:0:
179,192,118410,1,0,0:0:0:0:
486,192,118410,1,0,0:0:0:0:
281,192,118410,1,0,0:0:0:0:
332,192,118410,1,0,0:0:0:0:
76,192,118510,1,0,0:0:0:0:
128,192,118510,1,0,0:0:0:0:
179,192,118510,1,0,0:0:0:0:
281,192,118610,1,0,0:0:0:0:
384,192,118610,1,0,0:0:0:0:
332,192,118610,1,0,0:0:0:0:
179,192,118610,128,0,118710:0:0:0:0:
128,192,118610,128,0,118710:0:0:0:0:
76,192,118610,128,0,118710:0:0:0:0:
179,192,118810,1,0,0:0:0:0:
128,192,118810,1,0,0:0:0:0:
76,192,118810,1,0,0:0:0:0:
486,192,118810,1,0,0:0:0:0:
179,192,118910,1,0,0:0:0:0:
128,192,118910,1,0,0:0:0:0:
76,192,118910,1,0,0:0:0:0:
281,192,119010,1,0,0:0:0:0:
332,192,119010,1,0,0:0:0:0:
384,192,119010,1,0,0:0:0:0:
179,192,119010,128,0,119110:0:0:0:0:
128,192,119010,128,0,119110:0:0:0:0:
76,192,119010,128,0,119110:0:0:0:0:
25,192,119210,1,0,0:0:0:0:
76,192,119210,1,0,0:0:0:0:
128,192,119210,1,0,0:0:0:0:
486,192,119210,1,0,0:0:0:0:
25,192,119310,1,0,0:0:0:0:
76,192,119310,1,0,0:0:0:0:
128,192,119310,1,0,0:0:0:0:
281,192,119410,1,0,0:0:0:0:
384,192,119410,1,0,0:0:0:0:
332,192,119410,1,0,0:0:0:0:
128,192,119410,128,0,119510:0:0:0:0:
76,192,119410,128,0,119510:0:0:0:0:
25,192,119410,128,0,119510:0:0:0:0:
128,192,119610,1,0,0:0:0:0:
76,192,119610,1,0,0:0:0:0:
25,192,119610,1,0,0:0:0:0:
486,192,119610,1,0,0:0:0:0:
128,192,119710,1,0,0:0:0:0:
76,192,119710,1,0,0:0:0:0:
25,192,119710,1,0,0:0:0:0:
332,192,119810,1,0,0:0:0:0:
384,192,119810,1,0,0:0:0:0:
435,192,119810,1,0,0:0:0:0:
25,192,119810,128,0,119910:0:0:0:0:
76,192,119810,128,0,119910:0:0:0:0:
128,192,119810,128,0,119910:0:0:0:0:
179,192,120010,1,0,0:0:0:0:
128,192,120010,1,0,0:0:0:0:
76,192,120010,1,0,0:0:0:0:
486,192,120010,1,0,0:0:0:0:
179,192,120110,1,0,0:0:0:0:
128,192,120110,1,0,0:0:0:0:
76,192,120110,1,0,0:0:0:0:
332,192,120210,1,0,0:0:0:0:
435,192,120210,1,0,0:0:0:0:
384,192,120210,1,0,0:0:0:0:
179,192,120210,128,0,120310:0:0:0:0:
128,192,120210,128,0,120310:0:0:0:0:
76,192,120210,128,0,120310:0:0:0:0:
76,192,120410,1,0,0:0:0:0:
128,192,120410,1,0,0:0:0:0:
179,192,120410,1,0,0:0:0:0:
486,192,120410,1,0,0:0:0:0:
76,192,120510,1,0,0:0:0:0:
128,192,120510,1,0,0:0:0:0:
179,192,120510,1,0,0:0:0:0:
332,192,120610,1,0,0:0:0:0:
384,192,120610,1,0,0:0:0:0:
435,192,120610,1,0,0:0:0:0:
76,192,120610,128,0,120710:0:0:0:0:
128,192,120610,128,0,120710:0:0:0:0:
179,192,120610,128,0,120710:0:0:0:0:
230,192,120810,1,0,0:0:0:0:
179,192,120810,1,0,0:0:0:0:
128,192,120810,1,0,0:0:0:0:
281,192,120810,1,0,0:0:0:0:
230,192,120910,1,0,0:0:0:0:
179,192,120910,1,0,0:0:0:0:
128,192,120910,1,0,0:0:0:0:
486,192,121010,1,0,0:0:0:0:
384,192,121010,1,0,0:0:0:0:
435,192,121010,1,0,0:0:0:0:
128,192,121010,128,0,121110:0:0:0:0:
179,192,121010,128,0,121110:0:0:0:0:
230,192,121010,128,0,121110:0:0:0:0:
128,192,121210,1,0,0:0:0:0:
179,192,121210,1,0,0:0:0:0:
230,192,121210,1,0,0:0:0:0:
435,192,121210,1,0,0:0:0:0:
332,192,121210,1,0,0:0:0:0:
128,192,121310,1,0,0:0:0:0:
179,192,121310,1,0,0:0:0:0:
230,192,121310,1,0,0:0:0:0:
281,192,121410,1,0,0:0:0:0:
384,192,121410,1,0,0:0:0:0:
332,192,121410,1,0,0:0:0:0:
230,192,121410,128,0,121510:0:0:0:0:
179,192,121410,128,0,121510:0:0:0:0:
128,192,121410,128,0,121510:0:0:0:0:
25,192,121610,1,0,0:0:0:0:
76,192,121610,1,0,0:0:0:0:
179,192,121610,1,0,0:0:0:0:
281,192,121610,1,0,0:0:0:0:
435,192,121610,1,0,0:0:0:0:
486,192,121610,1,0,0:0:0:0:
25,192,121710,1,0,0:0:0:0:
76,192,121710,1,0,0:0:0:0:
179,192,121710,1,0,0:0:0:0:
384,192,121810,1,0,0:0:0:0:
435,192,121810,1,0,0:0:0:0:
486,192,121810,1,0,0:0:0:0:
179,192,121810,128,0,121910:0:0:0:0:
76,192,121810,128,0,121910:0:0:0:0:
25,192,121810,128,0,121910:0:0:0:0:
179,192,122010,1,0,0:0:0:0:
76,192,122010,1,0,0:0:0:0:
25,192,122010,1,0,0:0:0:0:
281,192,122010,1,0,0:0:0:0:
179,192,122110,1,0,0:0:0:0:
76,192,122110,1,0,0:0:0:0:
25,192,122110,1,0,0:0:0:0:
384,192,122210,1,0,0:0:0:0:
435,192,122210,1,0,0:0:0:0:
486,192,122210,1,0,0:0:0:0:
179,192,122210,128,0,122310:0:0:0:0:
76,192,122210,128,0,122310:0:0:0:0:
25,192,122210,128,0,122310:0:0:0:0:
25,192,122410,1,0,0:0:0:0:
128,192,122410,1,0,0:0:0:0:
179,192,122410,1,0,0:0:0:0:
281,192,122410,1,0,0:0:0:0:
25,192,122510,1,0,0:0:0:0:
128,192,122510,1,0,0:0:0:0:
179,192,122510,1,0,0:0:0:0:
332,192,122610,1,0,0:0:0:0:
384,192,122610,1,0,0:0:0:0:
435,192,122610,1,0,0:0:0:0:
179,192,122610,128,0,122710:0:0:0:0:
128,192,122610,128,0,122710:0:0:0:0:
25,192,122610,128,0,122710:0:0:0:0:
179,192,122810,1,0,0:0:0:0:
128,192,122810,1,0,0:0:0:0:
25,192,122810,1,0,0:0:0:0:
281,192,122810,1,0,0:0:0:0:
179,192,122910,1,0,0:0:0:0:
128,192,122910,1,0,0:0:0:0:
25,192,122910,1,0,0:0:0:0:
332,192,123010,1,0,0:0:0:0:
384,192,123010,1,0,0:0:0:0:
435,192,123010,1,0,0:0:0:0:
179,192,123010,128,0,123110:0:0:0:0:
128,192,123010,128,0,123110:0:0:0:0:
25,192,123010,128,0,123110:0:0:0:0:
128,192,123210,1,0,0:0:0:0:
76,192,123210,1,0,0:0:0:0:
230,192,123210,1,0,0:0:0:0:
486,192,123210,1,0,0:0:0:0:
128,192,123310,1,0,0:0:0:0:
76,192,123310,1,0,0:0:0:0:
230,192,123310,1,0,0:0:0:0:
281,192,123410,1,0,0:0:0:0:
332,192,123410,1,0,0:0:0:0:
384,192,123410,1,0,0:0:0:0:
128,192,123410,128,0,123510:0:0:0:0:
76,192,123410,128,0,123510:0:0:0:0:
230,192,123410,128,0,123510:0:0:0:0:
230,192,123610,1,0,0:0:0:0:
76,192,123610,1,0,0:0:0:0:
128,192,123610,1,0,0:0:0:0:
486,192,123610,1,0,0:0:0:0:
230,192,123710,1,0,0:0:0:0:
76,192,123710,1,0,0:0:0:0:
128,192,123710,1,0,0:0:0:0:
281,192,123810,1,0,0:0:0:0:
384,192,123810,1,0,0:0:0:0:
332,192,123810,1,0,0:0:0:0:
230,192,123810,128,0,123910:0:0:0:0:
128,192,123810,128,0,123910:0:0:0:0:
76,192,123810,128,0,123910:0:0:0:0:
230,192,124010,1,0,0:0:0:0:
179,192,124010,1,0,0:0:0:0:
76,192,124010,1,0,0:0:0:0:
486,192,124010,1,0,0:0:0:0:
230,192,124110,1,0,0:0:0:0:
179,192,124110,1,0,0:0:0:0:
76,192,124110,1,0,0:0:0:0:
281,192,124210,1,0,0:0:0:0:
384,192,124210,1,0,0:0:0:0:
435,192,124210,1,0,0:0:0:0:
76,192,124210,128,0,124310:0:0:0:0:
179,192,124210,128,0,124310:0:0:0:0:
230,192,124210,128,0,124310:0:0:0:0:
76,192,124410,1,0,0:0:0:0:
179,192,124410,1,0,0:0:0:0:
230,192,124410,1,0,0:0:0:0:
486,192,124410,1,0,0:0:0:0:
76,192,124510,1,0,0:0:0:0:
179,192,124510,1,0,0:0:0:0:
230,192,124510,1,0,0:0:0:0:
281,192,124610,1,0,0:0:0:0:
435,192,124610,1,0,0:0:0:0:
332,192,124610,1,0,0:0:0:0:
230,192,124610,128,0,124710:0:0:0:0:
179,192,124610,128,0,124710:0:0:0:0:
76,192,124610,128,0,124710:0:0:0:0:
384,192,124810,1,0,0:0:0:0:
435,192,124810,1,0,0:0:0:0:
486,192,124810,1,0,0:0:0:0:
179,192,124810,1,0,0:0:0:0:
128,192,124810,1,0,0:0:0:0:
25,192,124810,1,0,0:0:0:0:
384,192,124910,1,0,0:0:0:0:
435,192,124910,1,0,0:0:0:0:
486,192,124910,1,0,0:0:0:0:
76,192,125010,1,0,0:0:0:0:
179,192,125010,1,0,0:0:0:0:
128,192,125010,1,0,0:0:0:0:
486,192,125010,128,0,125110:0:0:0:0:
435,192,125010,128,0,125110:0:0:0:0:
384,192,125010,128,0,125110:0:0:0:0:
486,192,125210,1,0,0:0:0:0:
435,192,125210,1,0,0:0:0:0:
384,192,125210,1,0,0:0:0:0:
25,192,125210,1,0,0:0:0:0:
486,192,125310,1,0,0:0:0:0:
435,192,125310,1,0,0:0:0:0:
384,192,125310,1,0,0:0:0:0:
76,192,125410,1,0,0:0:0:0:
179,192,125410,1,0,0:0:0:0:
128,192,125410,1,0,0:0:0:0:
384,192,125410,128,0,125510:0:0:0:0:
435,192,125410,128,0,125510:0:0:0:0:
486,192,125410,128,0,125510:0:0:0:0:
281,192,125610,1,0,0:0:0:0:
332,192,125610,1,0,0:0:0:0:
435,192,125610,1,0,0:0:0:0:
230,192,125610,1,0,0:0:0:0:
281,192,125710,1,0,0:0:0:0:
332,192,125710,1,0,0:0:0:0:
435,192,125710,1,0,0:0:0:0:
128,192,125810,1,0,0:0:0:0:
179,192,125810,1,0,0:0:0:0:
76,192,125810,1,0,0:0:0:0:
435,192,125810,128,0,125910:0:0:0:0:
332,192,125810,128,0,125910:0:0:0:0:
281,192,125810,128,0,125910:0:0:0:0:
435,192,126010,1,0,0:0:0:0:
332,192,126010,1,0,0:0:0:0:
281,192,126010,1,0,0:0:0:0:
230,192,126010,1,0,0:0:0:0:
435,192,126110,1,0,0:0:0:0:
332,192,126110,1,0,0:0:0:0:
281,192,126110,1,0,0:0:0:0:
25,192,126210,1,0,0:0:0:0:
128,192,126210,1,0,0:0:0:0:
76,192,126210,1,0,0:0:0:0:
281,192,126210,128,0,126310:0:0:0:0:
332,192,126210,128,0,126310:0:0:0:0:
435,192,126210,128,0,126310:0:0:0:0:
384,192,126410,1,0,0:0:0:0:
332,192,126410,1,0,0:0:0:0:
281,192,126410,1,0,0:0:0:0:
179,192,126410,1,0,0:0:0:0:
76,192,126410,1,0,0:0:0:0:
25,192,126410,1,0,0:0:0:0:
384,192,126510,1,0,0:0:0:0:
332,192,126510,1,0,0:0:0:0:
281,192,126510,1,0,0:0:0:0:
179,192,126610,1,0,0:0:0:0:
76,192,126610,1,0,0:0:0:0:
384,192,126610,128,0,126710:0:0:0:0:
332,192,126610,128,0,126710:0:0:0:0:
281,192,126610,128,0,126710:0:0:0:0:
281,192,126810,1,0,0:0:0:0:
332,192,126810,1,0,0:0:0:0:
384,192,126810,1,0,0:0:0:0:
230,192,126810,1,0,0:0:0:0:
25,192,126810,1,0,0:0:0:0:
281,192,126910,1,0,0:0:0:0:
332,192,126910,1,0,0:0:0:0:
384,192,126910,1,0,0:0:0:0:
230,192,127010,1,0,0:0:0:0:
128,192,127010,1,0,0:0:0:0:
281,192,127010,128,0,127110:0:0:0:0:
332,192,127010,128,0,127110:0:0:0:0:
384,192,127010,128,0,127110:0:0:0:0:
435,192,127210,1,0,0:0:0:0:
384,192,127210,1,0,0:0:0:0:
486,192,127210,1,0,0:0:0:0:
179,192,127210,1,0,0:0:0:0:
25,192,127210,1,0,0:0:0:0:
435,192,127310,1,0,0:0:0:0:
384,192,127310,1,0,0:0:0:0:
486,192,127310,1,0,0:0:0:0:
179,192,127410,1,0,0:0:0:0:
76,192,127410,1,0,0:0:0:0:
384,192,127410,128,0,127510:0:0:0:0:
435,192,127410,128,0,127510:0:0:0:0:
486,192,127410,128,0,127510:0:0:0:0:
486,192,127610,1,0,0:0:0:0:
384,192,127610,1,0,0:0:0:0:
435,192,127610,1,0,0:0:0:0:
128,192,127610,1,0,0:0:0:0:
25,192,127610,1,0,0:0:0:0:
486,192,127710,1,0,0:0:0:0:
384,192,127710,1,0,0:0:0:0:
435,192,127710,1,0,0:0:0:0:
230,192,127810,1,0,0:0:0:0:
128,192,127810,1,0,0:0:0:0:
486,192,127810,128,0,127910:0:0:0:0:
435,192,127810,128,0,127910:0:0:0:0:
384,192,127810,128,0,127910:0:0:0:0:
332,192,128010,1,0,0:0:0:0:
384,192,128010,1,0,0:0:0:0:
435,192,128010,1,0,0:0:0:0:
179,192,128010,1,0,0:0:0:0:
76,192,128010,1,0,0:0:0:0:
25,192,128010,1,0,0:0:0:0:
332,192,128110,1,0,0:0:0:0:
384,192,128110,1,0,0:0:0:0:
435,192,128110,1,0,0:0:0:0:
179,192,128210,1,0,0:0:0:0:
76,192,128210,1,0,0:0:0:0:
128,192,128210,1,0,0:0:0:0:
435,192,128210,128,0,128310:0:0:0:0:
384,192,128210,128,0,128310:0:0:0:0:
332,192,128210,128,0,128310:0:0:0:0:
435,192,128410,1,0,0:0:0:0:
384,192,128410,1,0,0:0:0:0:
332,192,128410,1,0,0:0:0:0:
25,192,128410,1,0,0:0:0:0:
435,192,128510,1,0,0:0:0:0:
384,192,128510,1,0,0:0:0:0:
332,192,128510,1,0,0:0:0:0:
179,192,128610,1,0,0:0:0:0:
128,192,128610,1,0,0:0:0:0:
76,192,128610,1,0,0:0:0:0:
332,192,128610,128,0,128710:0:0:0:0:
384,192,128610,128,0,128710:0:0:0:0:
435,192,128610,128,0,128710:0:0:0:0:
332,192,128810,1,0,0:0:0:0:
384,192,128810,1,0,0:0:0:0:
435,192,128810,1,0,0:0:0:0:
25,192,128810,1,0,0:0:0:0:
332,192,128910,1,0,0:0:0:0:
384,192,128910,1,0,0:0:0:0:
435,192,128910,1,0,0:0:0:0:
128,192,129010,1,0,0:0:0:0:
179,192,129010,1,0,0:0:0:0:
76,192,129010,1,0,0:0:0:0:
435,192,129010,128,0,129110:0:0:0:0:
384,192,129010,128,0,129110:0:0:0:0:
332,192,129010,128,0,129110:0:0:0:0:
435,192,129210,1,0,0:0:0:0:
384,192,129210,1,0,0:0:0:0:
332,192,129210,1,0,0:0:0:0:
25,192,129210,1,0,0:0:0:0:
435,192,129310,1,0,0:0:0:0:
384,192,129310,1,0,0:0:0:0:
332,192,129310,1,0,0:0:0:0:
179,192,129410,1,0,0:0:0:0:
128,192,129410,1,0,0:0:0:0:
76,192,129410,1,0,0:0:0:0:
332,192,129410,128,0,129510:0:0:0:0:
384,192,129410,128,0,129510:0:0:0:0:
435,192,129410,128,0,129510:0:0:0:0:
486,192,129610,1,0,0:0:0:0:
435,192,129610,1,0,0:0:0:0:
384,192,129610,1,0,0:0:0:0:
76,192,129610,1,0,0:0:0:0:
25,192,129610,1,0,0:0:0:0:
230,192,129610,1,0,0:0:0:0:
486,192,129710,1,0,0:0:0:0:
435,192,129710,1,0,0:0:0:0:
384,192,129710,1,0,0:0:0:0:
128,192,129810,1,0,0:0:0:0:
76,192,129810,1,0,0:0:0:0:
25,192,129810,1,0,0:0:0:0:
384,192,129810,128,0,129910:0:0:0:0:
435,192,129810,128,0,129910:0:0:0:0:
486,192,129810,128,0,129910:0:0:0:0:
384,192,130010,1,0,0:0:0:0:
435,192,130010,1,0,0:0:0:0:
486,192,130010,1,0,0:0:0:0:
230,192,130010,1,0,0:0:0:0:
384,192,130110,5,0,0:0:0:0:
435,192,130110,1,0,0:0:0:0:
486,192,130110,1,0,0:0:0:0:
128,192,130210,1,0,0:0:0:0:
76,192,130210,1,0,0:0:0:0:
25,192,130210,1,0,0:0:0:0:
384,192,130210,128,0,130310:0:0:0:0:
435,192,130210,128,0,130310:0:0:0:0:
486,192,130210,128,0,130310:0:0:0:0:
486,192,130410,1,0,0:0:0:0:
435,192,130410,1,0,0:0:0:0:
332,192,130410,1,0,0:0:0:0:
25,192,130410,1,0,0:0:0:0:
486,192,130510,1,0,0:0:0:0:
435,192,130510,1,0,0:0:0:0:
332,192,130510,1,0,0:0:0:0:
230,192,130610,1,0,0:0:0:0:
179,192,130610,1,0,0:0:0:0:
76,192,130610,1,0,0:0:0:0:
486,192,130610,128,0,130710:0:0:0:0:
435,192,130610,128,0,130710:0:0:0:0:
332,192,130610,128,0,130710:0:0:0:0:
332,192,130810,1,0,0:0:0:0:
435,192,130810,1,0,0:0:0:0:
486,192,130810,1,0,0:0:0:0:
25,192,130810,1,0,0:0:0:0:
332,192,130910,1,0,0:0:0:0:
435,192,130910,1,0,0:0:0:0:
486,192,130910,1,0,0:0:0:0:
230,192,131010,1,0,0:0:0:0:
128,192,131010,1,0,0:0:0:0:
76,192,131010,1,0,0:0:0:0:
332,192,131010,128,0,131110:0:0:0:0:
435,192,131010,128,0,131110:0:0:0:0:
486,192,131010,128,0,131110:0:0:0:0:
384,192,131210,1,0,0:0:0:0:
25,192,131210,1,0,0:0:0:0:
281,192,131410,128,0,131710:0:0:0:0:
486,192,131410,1,0,0:0:0:0:
230,192,131410,1,0,0:0:0:0:
25,192,131610,1,0,0:0:0:0:
332,192,131810,1,0,0:0:0:0:
486,192,131810,1,0,0:0:0:0:
76,192,131810,1,0,0:0:0:0:
230,192,131810,1,0,0:0:0:0:
384,192,131910,1,0,0:0:0:0:
128,192,131910,1,0,0:0:0:0:
435,192,132010,1,0,0:0:0:0:
179,192,132010,1,0,0:0:0:0:
25,192,132010,1,0,0:0:0:0:
486,192,132210,128,0,132510:0:0:0:0:
281,192,132210,1,0,0:0:0:0:
230,192,132210,128,0,132510:0:0:0:0:
76,192,132210,1,0,0:0:0:0:
25,192,132410,1,0,0:0:0:0:
435,192,132610,1,0,0:0:0:0:
281,192,132610,1,0,0:0:0:0:
179,192,132610,1,0,0:0:0:0:
76,192,132610,1,0,0:0:0:0:
384,192,132810,1,0,0:0:0:0:
128,192,132810,1,0,0:0:0:0:
25,192,132810,1,0,0:0:0:0:
435,192,132910,1,0,0:0:0:0:
179,192,132910,1,0,0:0:0:0:
384,192,133010,1,0,0:0:0:0:
281,192,133010,1,0,0:0:0:0:
128,192,133010,1,0,0:0:0:0:
230,192,133010,1,0,0:0:0:0:
332,192,133110,1,0,0:0:0:0:
76,192,133110,1,0,0:0:0:0:
435,192,133210,1,0,0:0:0:0:
179,192,133210,1,0,0:0:0:0:
25,192,133210,1,0,0:0:0:0:
332,192,133410,1,0,0:0:0:0:
281,192,133410,1,0,0:0:0:0:
76,192,133410,1,0,0:0:0:0:
230,192,133410,1,0,0:0:0:0:
384,192,133610,1,0,0:0:0:0:
128,192,133610,1,0,0:0:0:0:
25,192,133610,1,0,0:0:0:0:
435,192,133810,1,0,0:0:0:0:
281,192,133810,1,0,0:0:0:0:
179,192,133810,1,0,0:0:0:0:
230,192,133810,1,0,0:0:0:0:
486,192,134010,1,0,0:0:0:0:
128,192,134010,1,0,0:0:0:0:
25,192,134010,1,0,0:0:0:0:
384,192,134210,1,0,0:0:0:0:
281,192,134210,1,0,0:0:0:0:
76,192,134210,1,0,0:0:0:0:
230,192,134210,1,0,0:0:0:0:
435,192,134410,1,0,0:0:0:0:
128,192,134410,1,0,0:0:0:0:
179,192,134410,1,0,0:0:0:0:
281,192,134610,1,0,0:0:0:0:
25,192,134610,1,0,0:0:0:0:
230,192,134610,1,0,0:0:0:0:
332,192,134810,1,0,0:0:0:0:
76,192,134810,1,0,0:0:0:0:
179,192,134810,1,0,0:0:0:0:
384,192,134910,1,0,0:0:0:0:
435,192,135010,1,0,0:0:0:0:
281,192,135010,1,0,0:0:0:0:
128,192,135010,1,0,0:0:0:0:
230,192,135010,1,0,0:0:0:0:
486,192,135110,1,0,0:0:0:0:
384,192,135210,1,0,0:0:0:0:
179,192,135210,1,0,0:0:0:0:
25,192,135210,1,0,0:0:0:0:
435,192,135276,1,0,0:0:0:0:
384,192,135343,1,0,0:0:0:0:
332,192,135410,1,0,0:0:0:0:
486,192,135410,1,0,0:0:0:0:
230,192,135410,1,0,0:0:0:0:
76,192,135410,1,0,0:0:0:0:
281,192,135510,1,0,0:0:0:0:
435,192,135610,1,0,0:0:0:0:
179,192,135610,1,0,0:0:0:0:
25,192,135610,1,0,0:0:0:0:
384,192,135710,1,0,0:0:0:0:
486,192,135810,1,0,0:0:0:0:
281,192,135810,1,0,0:0:0:0:
128,192,135810,1,0,0:0:0:0:
76,192,135810,1,0,0:0:0:0:
332,192,135910,1,0,0:0:0:0:
486,192,136010,1,0,0:0:0:0:
179,192,136010,1,0,0:0:0:0:
25,192,136010,1,0,0:0:0:0:
435,192,136110,1,0,0:0:0:0:
384,192,136210,1,0,0:0:0:0:
281,192,136210,1,0,0:0:0:0:
128,192,136210,1,0,0:0:0:0:
230,192,136210,1,0,0:0:0:0:
435,192,136310,1,0,0:0:0:0:
384,192,136410,1,0,0:0:0:0:
76,192,136410,1,0,0:0:0:0:
25,192,136410,1,0,0:0:0:0:
332,192,136510,1,0,0:0:0:0:
384,192,136610,1,0,0:0:0:0:
486,192,136610,1,0,0:0:0:0:
128,192,136610,1,0,0:0:0:0:
230,192,136610,1,0,0:0:0:0:
332,192,136710,1,0,0:0:0:0:
281,192,136810,1,0,0:0:0:0:
179,192,136810,1,0,0:0:0:0:
25,192,136810,1,0,0:0:0:0:
332,192,136943,1,0,0:0:0:0:
486,192,137010,1,0,0:0:0:0:
76,192,137010,1,0,0:0:0:0:
128,192,137010,1,0,0:0:0:0:
384,192,137076,1,0,0:0:0:0:
435,192,137210,1,0,0:0:0:0:
230,192,137210,1,0,0:0:0:0:
25,192,137210,1,0,0:0:0:0:
384,192,137343,1,0,0:0:0:0:
281,192,137410,1,0,0:0:0:0:
128,192,137410,1,0,0:0:0:0:
179,192,137410,1,0,0:0:0:0:
486,192,137476,1,0,0:0:0:0:
435,192,137610,128,0,137910:0:0:0:0:
179,192,137610,128,0,138510:0:0:0:0:
76,192,137610,1,0,0:0:0:0:
281,192,137810,1,0,0:0:0:0:
230,192,137810,1,0,0:0:0:0:
332,192,138010,1,0,0:0:0:0:
76,192,138010,1,0,0:0:0:0:
384,192,138210,1,0,0:0:0:0:
281,192,138210,1,0,0:0:0:0:
230,192,138210,1,0,0:0:0:0:
435,192,138410,128,0,138710:0:0:0:0:
25,192,138410,1,0,0:0:0:0:
281,192,138610,1,0,0:0:0:0:
76,192,138610,1,0,0:0:0:0:
230,192,138610,1,0,0:0:0:0:
486,192,138810,1,0,0:0:0:0:
128,192,138810,1,0,0:0:0:0:
25,192,138810,1,0,0:0:0:0:
384,192,139010,1,0,0:0:0:0:
281,192,139010,1,0,0:0:0:0:
179,192,139010,1,0,0:0:0:0:
76,192,139010,1,0,0:0:0:0:
435,192,139110,1,0,0:0:0:0:
486,192,139210,1,0,0:0:0:0:
230,192,139210,128,0,139910:0:0:0:0:
25,192,139210,1,0,0:0:0:0:
281,192,139410,1,0,0:0:0:0:
435,192,139410,1,0,0:0:0:0:
128,192,139410,1,0,0:0:0:0:
332,192,139610,1,0,0:0:0:0:
25,192,139610,1,0,0:0:0:0:
384,192,139810,1,0,0:0:0:0:
486,192,139810,1,0,0:0:0:0:
128,192,139810,1,0,0:0:0:0:
179,192,140010,128,0,140310:0:0:0:0:
435,192,140010,128,0,140310:0:0:0:0:
76,192,140010,1,0,0:0:0:0:
281,192,140210,1,0,0:0:0:0:
128,192,140210,1,0,0:0:0:0:
230,192,140410,128,0,140710:0:0:0:0:
486,192,140410,128,0,140710:0:0:0:0:
76,192,140410,1,0,0:0:0:0:
281,192,140610,1,0,0:0:0:0:
128,192,140610,1,0,0:0:0:0:
435,192,140810,1,0,0:0:0:0:
179,192,140810,1,0,0:0:0:0:
25,192,140810,1,0,0:0:0:0:
281,192,141010,1,0,0:0:0:0:
76,192,141010,1,0,0:0:0:0:
230,192,141010,1,0,0:0:0:0:
486,192,141010,1,0,0:0:0:0:
332,192,141210,1,0,0:0:0:0:
128,192,141210,1,0,0:0:0:0:
25,192,141210,1,0,0:0:0:0:
384,192,141410,1,0,0:0:0:0:
179,192,141410,1,0,0:0:0:0:
230,192,141410,1,0,0:0:0:0:
486,192,141410,1,0,0:0:0:0:
128,192,141610,128,0,141910:0:0:0:0:
25,192,141610,1,0,0:0:0:0:
435,192,141610,1,0,0:0:0:0:
281,192,141810,1,0,0:0:0:0:
230,192,141810,1,0,0:0:0:0:
486,192,141810,1,0,0:0:0:0:
332,192,142010,1,0,0:0:0:0:
179,192,142010,128,0,142310:0:0:0:0:
25,192,142010,1,0,0:0:0:0:
384,192,142210,1,0,0:0:0:0:
76,192,142210,1,0,0:0:0:0:
486,192,142210,1,0,0:0:0:0:
435,192,142410,128,0,142810:0:0:0:0:
230,192,142410,128,0,142910:0:0:0:0:
25,192,142410,1,0,0:0:0:0:
281,192,142610,1,0,0:0:0:0:
128,192,142610,1,0,0:0:0:0:
25,192,142810,1,0,0:0:0:0:
486,192,142876,1,0,0:0:0:0:
435,192,142943,1,0,0:0:0:0:
384,192,143010,1,0,0:0:0:0:
281,192,143010,1,0,0:0:0:0:
179,192,143010,1,0,0:0:0:0:
76,192,143010,1,0,0:0:0:0:
332,192,143110,1,0,0:0:0:0:
128,192,143110,1,0,0:0:0:0:
384,192,143210,128,0,143710:0:0:0:0:
179,192,143210,128,0,143710:0:0:0:0:
25,192,143210,1,0,0:0:0:0:
281,192,143410,1,0,0:0:0:0:
230,192,143410,1,0,0:0:0:0:
128,192,143610,1,0,0:0:0:0:
332,192,143810,1,0,0:0:0:0:
281,192,143810,1,0,0:0:0:0:
25,192,143810,1,0,0:0:0:0:
230,192,143810,1,0,0:0:0:0:
384,192,143910,1,0,0:0:0:0:
76,192,143910,1,0,0:0:0:0:
435,192,144010,128,0,144510:0:0:0:0:
128,192,144010,128,0,144510:0:0:0:0:
179,192,144010,1,0,0:0:0:0:
486,192,144210,1,0,0:0:0:0:
230,192,144210,1,0,0:0:0:0:
179,192,144410,1,0,0:0:0:0:
384,192,144610,1,0,0:0:0:0:
486,192,144610,1,0,0:0:0:0:
128,192,144610,1,0,0:0:0:0:
230,192,144610,1,0,0:0:0:0:
332,192,144710,1,0,0:0:0:0:
76,192,144710,1,0,0:0:0:0:
281,192,144810,128,0,145210:0:0:0:0:
25,192,144810,128,0,145310:0:0:0:0:
179,192,144810,1,0,0:0:0:0:
486,192,145010,1,0,0:0:0:0:
128,192,145010,1,0,0:0:0:0:
179,192,145210,1,0,0:0:0:0:
281,192,145310,1,0,0:0:0:0:
486,192,145410,1,0,0:0:0:0:
76,192,145410,1,0,0:0:0:0:
230,192,145410,1,0,0:0:0:0:
332,192,145410,1,0,0:0:0:0:
128,192,145510,1,0,0:0:0:0:
384,192,145510,1,0,0:0:0:0:
179,192,145610,128,0,146110:0:0:0:0:
25,192,145610,1,0,0:0:0:0:
435,192,145610,128,0,146110:0:0:0:0:
281,192,145810,1,0,0:0:0:0:
76,192,145810,1,0,0:0:0:0:
25,192,146010,1,0,0:0:0:0:
435,192,146210,1,0,0:0:0:0:
281,192,146210,1,0,0:0:0:0:
128,192,146210,1,0,0:0:0:0:
76,192,146210,1,0,0:0:0:0:
384,192,146310,1,0,0:0:0:0:
179,192,146310,1,0,0:0:0:0:
230,192,146410,128,0,146710:0:0:0:0:
332,192,146410,128,0,146610:0:0:0:0:
25,192,146410,1,0,0:0:0:0:
486,192,146610,1,0,0:0:0:0:
128,192,146610,1,0,0:0:0:0:
281,192,146710,1,0,0:0:0:0:
332,192,146810,1,0,0:0:0:0:
25,192,146810,128,0,147110:0:0:0:0:
76,192,146810,1,0,0:0:0:0:
384,192,146876,1,0,0:0:0:0:
435,192,146943,1,0,0:0:0:0:
486,192,147010,1,0,0:0:0:0:
281,192,147010,1,0,0:0:0:0:
179,192,147010,1,0,0:0:0:0:
332,192,147076,1,0,0:0:0:0:
384,192,147143,1,0,0:0:0:0:
486,192,147210,1,0,0:0:0:0:
76,192,147210,128,0,147810:0:0:0:0:
128,192,147210,1,0,0:0:0:0:
435,192,147276,1,0,0:0:0:0:
384,192,147343,1,0,0:0:0:0:
332,192,147410,1,0,0:0:0:0:
486,192,147410,1,0,0:0:0:0:
230,192,147410,1,0,0:0:0:0:
281,192,147476,1,0,0:0:0:0:
435,192,147543,1,0,0:0:0:0:
281,192,147610,1,0,0:0:0:0:
128,192,147610,1,0,0:0:0:0:
332,192,147676,1,0,0:0:0:0:
384,192,147743,1,0,0:0:0:0:
435,192,147810,1,0,0:0:0:0:
281,192,147810,1,0,0:0:0:0:
230,192,147810,1,0,0:0:0:0:
486,192,147876,1,0,0:0:0:0:
332,192,147943,1,0,0:0:0:0:
486,192,148010,1,0,0:0:0:0:
76,192,148010,128,0,148310:0:0:0:0:
128,192,148010,1,0,0:0:0:0:
435,192,148076,1,0,0:0:0:0:
384,192,148143,1,0,0:0:0:0:
281,192,148210,1,0,0:0:0:0:
332,192,148210,1,0,0:0:0:0:
230,192,148210,1,0,0:0:0:0:
486,192,148276,1,0,0:0:0:0:
435,192,148343,1,0,0:0:0:0:
281,192,148410,1,0,0:0:0:0:
179,192,148410,128,0,148710:0:0:0:0:
25,192,148410,1,0,0:0:0:0:
332,192,148476,1,0,0:0:0:0:
384,192,148543,1,0,0:0:0:0:
486,192,148610,1,0,0:0:0:0:
435,192,148610,1,0,0:0:0:0:
230,192,148610,1,0,0:0:0:0:
281,192,148676,1,0,0:0:0:0:
332,192,148743,1,0,0:0:0:0:
435,192,148810,1,0,0:0:0:0:
128,192,148810,128,0,149710:0:0:0:0:
76,192,148810,1,0,0:0:0:0:
384,192,148876,1,0,0:0:0:0:
332,192,148943,1,0,0:0:0:0:
486,192,149010,1,0,0:0:0:0:
281,192,149010,1,0,0:0:0:0:
230,192,149010,1,0,0:0:0:0:
435,192,149076,1,0,0:0:0:0:
384,192,149143,1,0,0:0:0:0:
332,192,149210,1,0,0:0:0:0:
76,192,149210,1,0,0:0:0:0:
384,192,149276,1,0,0:0:0:0:
435,192,149343,1,0,0:0:0:0:
281,192,149410,1,0,0:0:0:0:
486,192,149410,1,0,0:0:0:0:
230,192,149410,1,0,0:0:0:0:
332,192,149476,1,0,0:0:0:0:
384,192,149543,1,0,0:0:0:0:
435,192,149610,1,0,0:0:0:0:
76,192,149610,1,0,0:0:0:0:
384,192,149676,1,0,0:0:0:0:
332,192,149743,1,0,0:0:0:0:
486,192,149810,1,0,0:0:0:0:
281,192,149810,1,0,0:0:0:0:
25,192,149810,1,0,0:0:0:0:
230,192,149810,1,0,0:0:0:0:
435,192,149876,1,0,0:0:0:0:
384,192,149943,1,0,0:0:0:0:
332,192,150010,1,0,0:0:0:0:
76,192,150010,1,0,0:0:0:0:
128,192,150010,1,0,0:0:0:0:
384,192,150076,1,0,0:0:0:0:
435,192,150143,1,0,0:0:0:0:
281,192,150210,1,0,0:0:0:0:
486,192,150210,1,0,0:0:0:0:
179,192,150210,1,0,0:0:0:0:
230,192,150210,1,0,0:0:0:0:
332,192,150276,1,0,0:0:0:0:
384,192,150343,1,0,0:0:0:0:
486,192,150410,1,0,0:0:0:0:
128,192,150410,128,0,151110:0:0:0:0:
25,192,150410,1,0,0:0:0:0:
435,192,150476,1,0,0:0:0:0:
384,192,150543,1,0,0:0:0:0:
486,192,150610,1,0,0:0:0:0:
332,192,150610,1,0,0:0:0:0:
179,192,150610,1,0,0:0:0:0:
435,192,150676,1,0,0:0:0:0:
384,192,150743,1,0,0:0:0:0:
281,192,150810,1,0,0:0:0:0:
25,192,150810,1,0,0:0:0:0:
332,192,150876,1,0,0:0:0:0:
384,192,150943,1,0,0:0:0:0:
435,192,151010,1,0,0:0:0:0:
281,192,151010,1,0,0:0:0:0:
179,192,151010,1,0,0:0:0:0:
332,192,151076,1,0,0:0:0:0:
384,192,151143,1,0,0:0:0:0:
486,192,151210,1,0,0:0:0:0:
25,192,151210,1,0,0:0:0:0:
435,192,151276,1,0,0:0:0:0:
384,192,151343,1,0,0:0:0:0:
332,192,151410,1,0,0:0:0:0:
486,192,151410,1,0,0:0:0:0:
128,192,151410,1,0,0:0:0:0:
76,192,151410,1,0,0:0:0:0:
435,192,151476,1,0,0:0:0:0:
179,192,151510,1,0,0:0:0:0:
384,192,151543,1,0,0:0:0:0:
281,192,151610,1,0,0:0:0:0:
230,192,151610,128,0,151810:0:0:0:0:
25,192,151610,1,0,0:0:0:0:
332,192,151676,1,0,0:0:0:0:
384,192,151743,1,0,0:0:0:0:
435,192,151810,1,0,0:0:0:0:
281,192,151810,1,0,0:0:0:0:
76,192,151810,1,0,0:0:0:0:
332,192,151876,1,0,0:0:0:0:
128,192,151910,1,0,0:0:0:0:
384,192,151943,1,0,0:0:0:0:
179,192,152010,1,0,0:0:0:0:
435,192,152010,1,0,0:0:0:0:
281,192,152010,1,0,0:0:0:0:
128,192,152076,1,0,0:0:0:0:
486,192,152110,128,0,153310:0:0:0:0:
76,192,152143,1,0,0:0:0:0:
230,192,152210,1,0,0:0:0:0:
25,192,152210,1,0,0:0:0:0:
384,192,152210,1,0,0:0:0:0:
179,192,152276,1,0,0:0:0:0:
128,192,152343,1,0,0:0:0:0:
76,192,152410,1,0,0:0:0:0:
281,192,152410,1,0,0:0:0:0:
128,192,152476,1,0,0:0:0:0:
179,192,152543,1,0,0:0:0:0:
25,192,152610,1,0,0:0:0:0:
230,192,152610,1,0,0:0:0:0:
384,192,152610,1,0,0:0:0:0:
76,192,152676,1,0,0:0:0:0:
128,192,152743,1,0,0:0:0:0:
179,192,152810,1,0,0:0:0:0:
281,192,152810,1,0,0:0:0:0:
128,192,152876,1,0,0:0:0:0:
76,192,152943,1,0,0:0:0:0:
230,192,153010,1,0,0:0:0:0:
25,192,153010,1,0,0:0:0:0:
332,192,153010,1,0,0:0:0:0:
179,192,153076,1,0,0:0:0:0:
128,192,153143,1,0,0:0:0:0:
76,192,153210,1,0,0:0:0:0:
281,192,153210,1,0,0:0:0:0:
128,192,153276,1,0,0:0:0:0:
179,192,153343,1,0,0:0:0:0:
25,192,153410,1,0,0:0:0:0:
230,192,153410,1,0,0:0:0:0:
435,192,153410,1,0,0:0:0:0:
332,192,153410,1,0,0:0:0:0:
76,192,153476,1,0,0:0:0:0:
384,192,153510,1,0,0:0:0:0:
128,192,153543,1,0,0:0:0:0:
230,192,153610,1,0,0:0:0:0:
435,192,153610,128,0,153810:0:0:0:0:
281,192,153610,1,0,0:0:0:0:
179,192,153676,1,0,0:0:0:0:
128,192,153743,1,0,0:0:0:0:
76,192,153810,1,0,0:0:0:0:
230,192,153810,1,0,0:0:0:0:
486,192,153810,1,0,0:0:0:0:
179,192,153876,1,0,0:0:0:0:
384,192,153910,128,0,154110:0:0:0:0:
128,192,153943,1,0,0:0:0:0:
25,192,154010,1,0,0:0:0:0:
281,192,154010,1,0,0:0:0:0:
76,192,154076,1,0,0:0:0:0:
128,192,154143,1,0,0:0:0:0:
179,192,154210,1,0,0:0:0:0:
25,192,154210,1,0,0:0:0:0:
332,192,154210,1,0,0:0:0:0:
486,192,154210,1,0,0:0:0:0:
76,192,154276,1,0,0:0:0:0:
128,192,154343,1,0,0:0:0:0:
230,192,154410,1,0,0:0:0:0:
281,192,154410,128,0,154610:0:0:0:0:
435,192,154410,1,0,0:0:0:0:
179,192,154476,1,0,0:0:0:0:
128,192,154543,1,0,0:0:0:0:
76,192,154610,1,0,0:0:0:0:
230,192,154610,1,0,0:0:0:0:
486,192,154610,1,0,0:0:0:0:
179,192,154676,1,0,0:0:0:0:
332,192,154710,128,0,154910:0:0:0:0:
128,192,154743,1,0,0:0:0:0:
25,192,154810,1,0,0:0:0:0:
435,192,154810,1,0,0:0:0:0:
76,192,154876,1,0,0:0:0:0:
128,192,154943,1,0,0:0:0:0:
179,192,155010,1,0,0:0:0:0:
25,192,155010,1,0,0:0:0:0:
384,192,155010,1,0,0:0:0:0:
281,192,155010,1,0,0:0:0:0:
76,192,155076,1,0,0:0:0:0:
128,192,155143,1,0,0:0:0:0:
486,192,155210,1,0,0:0:0:0:
230,192,155210,1,0,0:0:0:0:
25,192,155210,128,0,155910:0:0:0:0:
435,192,155276,1,0,0:0:0:0:
332,192,155343,1,0,0:0:0:0:
281,192,155410,1,0,0:0:0:0:
486,192,155410,1,0,0:0:0:0:
179,192,155410,1,0,0:0:0:0:
435,192,155476,1,0,0:0:0:0:
384,192,155543,1,0,0:0:0:0:
281,192,155610,1,0,0:0:0:0:
230,192,155610,1,0,0:0:0:0:
332,192,155676,1,0,0:0:0:0:
435,192,155743,1,0,0:0:0:0:
486,192,155810,1,0,0:0:0:0:
281,192,155810,1,0,0:0:0:0:
128,192,155810,1,0,0:0:0:0:
332,192,155876,1,0,0:0:0:0:
384,192,155943,1,0,0:0:0:0:
486,192,156010,1,0,0:0:0:0:
230,192,156010,1,0,0:0:0:0:
76,192,156010,128,0,156710:0:0:0:0:
435,192,156076,1,0,0:0:0:0:
332,192,156143,1,0,0:0:0:0:
281,192,156210,1,0,0:0:0:0:
486,192,156210,1,0,0:0:0:0:
128,192,156210,1,0,0:0:0:0:
435,192,156276,1,0,0:0:0:0:
384,192,156343,1,0,0:0:0:0:
281,192,156410,1,0,0:0:0:0:
230,192,156410,1,0,0:0:0:0:
332,192,156476,1,0,0:0:0:0:
435,192,156543,1,0,0:0:0:0:
281,192,156610,1,0,0:0:0:0:
486,192,156610,1,0,0:0:0:0:
179,192,156610,1,0,0:0:0:0:
332,192,156676,1,0,0:0:0:0:
384,192,156743,1,0,0:0:0:0:
486,192,156810,1,0,0:0:0:0:
128,192,156810,128,0,157110:0:0:0:0:
25,192,156810,1,0,0:0:0:0:
435,192,156876,1,0,0:0:0:0:
384,192,156943,1,0,0:0:0:0:
281,192,157010,1,0,0:0:0:0:
332,192,157010,1,0,0:0:0:0:
230,192,157010,1,0,0:0:0:0:
435,192,157076,1,0,0:0:0:0:
384,192,157143,1,0,0:0:0:0:
281,192,157210,1,0,0:0:0:0:
179,192,157210,128,0,157510:0:0:0:0:
25,192,157210,1,0,0:0:0:0:
332,192,157276,1,0,0:0:0:0:
384,192,157343,1,0,0:0:0:0:
486,192,157410,1,0,0:0:0:0:
435,192,157410,1,0,0:0:0:0:
128,192,157410,1,0,0:0:0:0:
332,192,157476,1,0,0:0:0:0:
384,192,157543,1,0,0:0:0:0:
486,192,157610,1,0,0:0:0:0:
230,192,157610,128,0,157910:0:0:0:0:
25,192,157610,1,0,0:0:0:0:
435,192,157676,1,0,0:0:0:0:
384,192,157743,1,0,0:0:0:0:
332,192,157810,1,0,0:0:0:0:
281,192,157810,1,0,0:0:0:0:
179,192,157810,1,0,0:0:0:0:
435,192,157876,1,0,0:0:0:0:
384,192,157943,1,0,0:0:0:0:
281,192,158010,1,0,0:0:0:0:
128,192,158010,1,0,0:0:0:0:
25,192,158010,1,0,0:0:0:0:
332,192,158076,1,0,0:0:0:0:
384,192,158143,1,0,0:0:0:0:
486,192,158210,1,0,0:0:0:0:
435,192,158210,1,0,0:0:0:0:
179,192,158210,1,0,0:0:0:0:
76,192,158210,1,0,0:0:0:0:
332,192,158276,1,0,0:0:0:0:
384,192,158343,1,0,0:0:0:0:
230,192,158410,1,0,0:0:0:0:
281,192,158410,1,0,0:0:0:0:
435,192,158410,128,0,159710:0:0:0:0:
179,192,158476,1,0,0:0:0:0:
76,192,158543,1,0,0:0:0:0:
230,192,158610,1,0,0:0:0:0:
25,192,158610,1,0,0:0:0:0:
384,192,158610,1,0,0:0:0:0:
179,192,158676,1,0,0:0:0:0:
128,192,158743,1,0,0:0:0:0:
25,192,158810,1,0,0:0:0:0:
281,192,158810,1,0,0:0:0:0:
76,192,158876,1,0,0:0:0:0:
179,192,158943,1,0,0:0:0:0:
230,192,159010,1,0,0:0:0:0:
25,192,159010,1,0,0:0:0:0:
384,192,159010,1,0,0:0:0:0:
76,192,159076,1,0,0:0:0:0:
128,192,159143,1,0,0:0:0:0:
230,192,159210,1,0,0:0:0:0:
281,192,159210,1,0,0:0:0:0:
179,192,159276,1,0,0:0:0:0:
76,192,159343,1,0,0:0:0:0:
25,192,159410,1,0,0:0:0:0:
230,192,159410,1,0,0:0:0:0:
332,192,159410,1,0,0:0:0:0:
179,192,159476,1,0,0:0:0:0:
128,192,159543,1,0,0:0:0:0:
25,192,159610,1,0,0:0:0:0:
281,192,159610,1,0,0:0:0:0:
76,192,159676,1,0,0:0:0:0:
179,192,159743,1,0,0:0:0:0:
230,192,159810,1,0,0:0:0:0:
25,192,159810,1,0,0:0:0:0:
384,192,159810,1,0,0:0:0:0:
332,192,159810,1,0,0:0:0:0:
76,192,159876,1,0,0:0:0:0:
435,192,159910,1,0,0:0:0:0:
128,192,159943,1,0,0:0:0:0:
486,192,160010,128,0,161210:0:0:0:0:
281,192,160010,1,0,0:0:0:0:
332,192,160210,1,0,0:0:0:0:
332,192,160610,1,0,0:0:0:0:
332,192,161010,1,0,0:0:0:0:
281,192,161210,1,0,0:0:0:0:
