osu file format v14

[General]
AudioFilename: Betus Blues.mp3
AudioLeadIn: 0
PreviewTime: 29564
Countdown: 0
SampleSet: Normal
StackLeniency: 0.8
Mode: 0
LetterboxInBreaks: 0
WidescreenStoryboard: 0

[Editor]
Bookmarks: 88642
DistanceSpacing: 1.2
BeatDivisor: 4
GridSize: 8
TimelineZoom: 0.8

[Metadata]
Title:Betus Blues
TitleUnicode:Betus Blues
Artist:Danny Baranowsky
ArtistUnicode:Danny Baranowsky
Creator:Fukiyel
Version:Normal
Source:Super Meat Boy
Tags:Video Game SMB Team db Soundworks Soundtrack OST Edmund McMillen The Hospital Light World Chapter Ch. 2
BeatmapID:1353849
BeatmapSetID:638190

[Difficulty]
HPDrainRate:3
CircleSize:3.5
OverallDifficulty:4
ApproachRate:5
SliderMultiplier:1.2
SliderTickRate:1

[Events]
//Background and Video events
0,0,"BloodTrail.jpg",0,0
//Break Periods
2,55611,57903
//Storyboard Layer 0 (Background)
//Storyboard Layer 1 (Fail)
//Storyboard Layer 2 (Pass)
//Storyboard Layer 3 (Foreground)
//Storyboard Sound Samples

[TimingPoints]
7411,461.54,4,1,0,90,1,0
29564,-90.9090909090909,4,1,0,100,0,1
44334,-111.111111111111,4,2,0,70,0,0
59103,-100,4,1,0,90,0,0

[Colours]
Combo1 : 192,192,192
Combo2 : 255,0,0
Combo3 : 255,128,128
Combo4 : 128,64,64
Combo5 : 128,0,0
SliderTrackOverride : 127,0,0

[HitObjects]
144,176,7411,5,0,0:0:0:0:
32,84,7872,1,8,0:0:0:0:
32,84,8103,2,0,P|56:54|99:46,1,60
218,60,8795,1,8,0:0:0:0:
140,181,9257,1,0,0:0:0:0:
48,113,9603,2,0,L|65:80,1,30,0|8,0:0|0:0,0:0:0:0:
191,22,10180,2,0,P|226:39|242:79,1,60
244,127,10641,1,8,0:0:0:0:
103,160,11103,5,0,0:0:0:0:
203,262,11564,1,8,0:0:0:0:
203,262,11795,2,0,P|251:251|271:237,1,60
333,121,12487,1,8,0:0:0:0:
196,73,12949,1,0,0:0:0:0:
136,162,13295,2,0,L|153:201,1,30,0|8,0:0|0:0,0:0:0:0:
206,321,13872,2,0,L|132:362,2,60,0|0|8,0:0|0:0|0:0,0:0:0:0:
334,255,14795,1,0,0:0:0:0:
194,217,15257,6,2,P|191:160|241:132,1,120
363,207,16180,1,0,0:0:0:0:
363,207,16411,1,0,0:0:0:0:
363,207,16641,2,0,P|331:225|288:211,1,60,2|0,0:0|0:0,0:0:0:0:
241,198,17103,2,0,P|191:189|161:210,1,60,2|0,0:0|0:0,0:0:0:0:
121,227,17564,2,0,P|90:231|55:192,1,60,2|0,0:0|0:0,0:0:0:0:
23,159,18026,2,0,P|29:113|49:98,1,60,2|0,0:0|0:0,0:0:0:0:
88,56,18487,6,0,B|120:36|120:36|152:56,1,60,10|0,0:0|0:0,0:0:0:0:
203,79,18949,2,0,B|235:99|235:99|253:87,1,60,10|0,0:0|0:0,0:0:0:0:
314,46,19411,2,0,B|346:26|346:26|378:46,1,60,10|0,0:0|0:0,0:0:0:0:
428,70,19872,2,0,B|460:90|460:90|478:78,1,60,10|0,0:0|0:0,0:0:0:0:
504,145,20334,22,0,P|502:177|487:198,1,60,12|0,0:0|0:0,0:0:0:0:
430,244,20795,1,0,0:0:0:0:
430,244,21026,1,0,0:0:0:0:
289,273,21487,2,0,P|312:296|346:311,2,60,8|0|8,0:2|0:2|0:2,0:2:0:0:
144,111,22641,2,0,P|162:50|225:46,1,120,2|2,0:0|0:0,0:0:0:0:
490,111,24026,6,0,B|510:134|510:134|502:172,3,60,0|8|0|8,0:0|0:0|0:0|0:0,0:0:0:0:
446,206,24949,2,0,P|446:238|414:270,1,60,0|8,0:0|0:0,0:0:0:0:
489,303,25411,2,0,P|489:335|521:367,1,60,0|8,0:0|0:0,0:0:0:0:
432,361,25872,2,0,L|362:318,1,60,0|2,0:0|0:0,0:0:0:0:
308,327,26334,2,0,L|261:260,1,60,0|2,0:0|0:0,0:0:0:0:
203,261,26795,2,0,L|180:187,2,60,0|2|0,0:0|0:0|0:0,0:0:0:0:
258,214,27487,2,0,P|290:198|320:209,1,60,2|0,0:0|0:0,0:0:0:0:
378,232,27949,1,0,0:0:0:0:
378,232,28411,1,0,0:0:0:0:
378,232,28872,2,0,L|351:299,2,60,8|0|8,0:0|0:0|0:0,0:0:0:0:
406,158,29564,5,4,0:0:0:0:
464,10,30026,1,0,0:0:0:0:
328,92,30488,1,0,0:0:0:0:
485,105,30949,1,0,0:0:0:0:
363,3,31411,1,0,0:0:0:0:
363,3,31641,2,0,P|344:18|315:24,1,33.0000010070801,8|0,0:0|0:0,0:0:0:0:
258,39,31988,1,8,0:0:0:0:
139,35,32334,2,0,L|159:10,2,33.0000010070801
86,94,32795,2,0,L|116:107,1,33.0000010070801
225,153,33257,5,0,0:0:0:0:
244,229,33488,2,0,P|238:249|228:258,1,33.0000010070801,8|0,0:0|0:0,0:0:0:0:
159,294,33834,1,8,0:0:0:0:
45,259,34180,1,0,0:0:0:0:
85,190,34411,2,0,P|97:180|114:179,1,33.0000010070801,8|0,0:0|0:0,0:0:0:0:
189,204,34757,1,8,0:0:0:0:
296,254,35103,1,0,0:0:0:0:
228,110,35564,1,0,0:0:0:0:
369,180,36026,1,0,0:0:0:0:
336,107,36257,2,0,B|321:77|321:77|285:57,2,66.0000020141602,0|8|0,0:0|0:0|0:0,0:0:0:0:
369,180,36949,21,0,0:0:0:0:
428,327,37411,1,8,0:0:0:0:
292,245,37872,1,0,0:0:0:0:
450,233,38334,1,8,0:0:0:0:
327,333,38795,2,0,P|297:346|265:350,1,66.0000020141602,0|8,0:0|0:0,0:0:0:0:
224,282,39257,2,0,P|195:264|179:236,1,66.0000020141602,0|8,0:0|0:0,0:0:0:0:
182,156,39718,2,0,P|179:133|194:114,1,33.0000010070801,0|8,0:0|0:0,0:0:0:0:
453,185,40641,6,0,B|425:201|425:201|361:201,1,66.0000020141602
233,201,41334,1,0,0:0:0:0:
368,119,41795,1,8,0:0:0:0:
209,120,42257,2,0,P|181:138|159:165,1,66.0000020141602
158,242,42718,2,0,P|112:227|88:197,1,66.0000020141602,8|0,0:0|0:0,0:0:0:0:
86,137,43180,1,8,0:0:0:0:
135,75,43411,2,0,L|102:42,2,33.0000010070801
208,45,43872,2,0,L|203:-10,2,33.0000010070801
213,109,44334,37,0,0:0:0:0:
236,367,45257,1,0,0:0:0:0:
37,200,46180,1,0,0:0:0:0:
425,205,47564,2,0,P|385:238|333:229,1,107.999996704102
0,0,49872,1,0,0:0:0:0:
96,240,50795,1,0,0:0:0:0:
213,9,51718,1,0,0:0:0:0:
0,157,52641,2,0,P|13:260|110:297,1,215.999993408203
341,184,54488,2,0,P|289:100|195:134,1,215.999993408203
291,95,59103,5,4,0:0:0:0:
268,238,59565,1,8,0:0:0:0:
268,238,59795,2,0,P|229:234|187:212,1,60
109,122,60488,1,8,0:0:0:0:
248,85,60949,1,0,0:0:0:0:
204,183,61295,2,0,L|179:234,1,30,0|8,0:0|0:0,0:0:0:0:
123,337,61872,2,0,P|96:305|94:265,1,60,0|0,0:0|0:0,0:0:0:0:
85,216,62334,1,8,0:0:0:0:
129,79,62795,5,0,0:0:0:0:
203,12,63257,2,0,B|238:14|238:14|277:41,1,60,8|0,0:0|0:0,0:0:0:0:
316,71,63718,1,0,0:0:0:0:
201,157,64180,1,8,0:0:0:0:
344,157,64641,1,0,0:0:0:0:
263,229,64988,2,0,L|231:257,1,30,0|8,0:0|0:0,0:0:0:0:
135,347,65565,2,0,L|64:347,2,60,0|0|8,0:0|0:0|0:0,0:0:0:0:
279,347,66488,5,0,0:0:0:0:
378,243,66949,1,8,0:0:0:0:
379,243,67180,2,0,P|336:205|324:206,1,60
195,231,67873,1,8,0:0:0:0:
282,345,68334,1,0,0:0:0:0:
374,288,68680,2,0,P|389:261|390:242,1,30,0|8,0:0|0:0,0:0:0:0:
387,118,69257,2,0,P|369:94|342:82,1,60
270,87,69719,1,8,0:0:0:0:
166,186,70180,5,0,0:0:0:0:
271,284,70641,2,0,P|299:279|322:260,1,60,8|0,0:0|0:0,0:0:0:0:
358,197,71103,1,0,0:0:0:0:
292,68,71565,1,8,0:0:0:0:
265,209,72026,1,0,0:0:0:0:
209,116,72372,2,0,B|191:145,1,30,0|8,0:0|0:0,0:0:0:0:
116,263,72949,2,0,L|181:307,1,60
226,335,73411,2,8,L|262:357,2,30
165,296,73872,21,4,0:0:0:0:
43,217,74334,1,10,0:0:0:0:
43,217,74565,2,0,P|43:185|59:153,1,60
137,42,75257,1,10,0:0:0:0:
198,171,75718,1,0,0:0:0:0:
89,171,76065,2,0,L|74:196,1,30,0|10,0:0|0:0,0:0:0:0:
0,320,76642,2,0,P|26:343|62:346,2,60,0|0|10,0:0|0:0|0:0,0:0:0:0:
2,175,77565,5,0,0:0:0:0:
101,70,78026,2,0,P|136:67|174:101,1,60,10|0,0:0|0:0,0:0:0:0:
204,132,78488,1,0,0:0:0:0:
91,221,78949,1,10,0:0:0:0:
235,221,79411,1,0,0:0:0:0:
236,328,79757,2,0,L|258:306,1,30,0|10,0:0|0:0,0:0:0:0:
359,205,80334,2,0,L|414:150,1,60
452,111,80795,1,10,0:0:0:0:
307,105,81257,5,0,0:0:0:0:
180,35,81718,1,10,0:0:0:0:
180,35,81949,2,0,P|148:51|132:99,1,60
118,214,82642,1,10,0:0:0:0:
242,142,83103,1,0,0:0:0:0:
134,133,83449,2,0,P|152:138|163:153,1,30,0|10,0:0|0:0,0:0:0:0:
266,242,84026,2,0,P|295:262|327:266,2,60,0|0|10,0:0|0:0|0:0,0:0:0:0:
159,146,84949,5,0,0:0:0:0:
268,52,85411,2,0,B|305:45|305:45|337:61,1,60,10|0,0:0|0:0,0:0:0:0:
388,88,85872,1,0,0:0:0:0:
292,195,86334,1,10,0:0:0:0:
268,52,86795,2,0,L|204:68,1,60,10|0,0:0|0:0,0:0:0:0:
164,122,87257,2,0,L|100:138,1,60,10|0,0:0|0:0,0:0:0:0:
54,187,87718,2,10,L|22:171,2,30
123,206,88180,2,10,L|171:206,2,30
71,257,88642,21,4,0:0:0:0:
