osu file format v14

[General]
AudioFilename: Betus Blues.mp3
AudioLeadIn: 0
PreviewTime: 29564
Countdown: 0
SampleSet: Normal
StackLeniency: 0.7
Mode: 0
LetterboxInBreaks: 0
WidescreenStoryboard: 1

[Editor]
Bookmarks: 73872,88642
DistanceSpacing: 0.8
BeatDivisor: 2
GridSize: 8
TimelineZoom: 0.3999999

[Metadata]
Title:Betus Blues
TitleUnicode:Betus Blues
Artist:Danny Baranowsky
ArtistUnicode:Danny Baranowsky
Creator:Fukiyel
Version:Easy
Source:Super Meat Boy
Tags:Video Game SMB Team db Soundworks Soundtrack OST Edmund McMillen The Hospital Light World Chapter Ch. 2
BeatmapID:1461900
BeatmapSetID:638190

[Difficulty]
HPDrainRate:2
CircleSize:3
OverallDifficulty:3
ApproachRate:3
SliderMultiplier:1
SliderTickRate:1

[Events]
//Background and Video events
0,0,"BloodTrail.jpg",0,0
//Break Periods
2,55611,57663
//Storyboard Layer 0 (Background)
//Storyboard Layer 1 (Fail)
//Storyboard Layer 2 (Pass)
//Storyboard Layer 3 (Foreground)
//Storyboard Sound Samples

[TimingPoints]
7411,461.54,4,1,0,90,1,0
29564,-100,4,1,0,100,0,1
44334,-100,4,2,0,70,0,0
59103,-100,4,1,0,90,0,0

[Colours]
Combo1 : 128,128,128
Combo2 : 255,0,0
Combo3 : 255,128,128
Combo4 : 128,64,64
Combo5 : 128,0,0
Combo6 : 192,192,192
SliderTrackOverride : 127,0,0

[HitObjects]
128,256,7411,5,0,0:0:0:0:
166,186,7872,1,8,0:0:0:0:
229,137,8334,1,0,0:0:0:0:
308,130,8795,1,8,0:0:0:0:
382,159,9257,2,8,P|446:143|446:95,1,100,0|8,0:0|0:0,0:0:0:0:
439,38,10180,1,0,0:0:0:0:
362,15,10641,1,8,0:0:0:0:
289,48,11103,5,0,0:0:0:0:
232,104,11564,2,0,B|183:76|183:76|153:30,2,100,8|0|8,0:0|0:0|0:0,0:0:0:0:
302,141,12949,1,0,0:0:0:0:
374,174,13411,1,8,0:0:0:0:
436,223,13872,2,0,B|429:273|429:273|386:311,1,100,0|8,0:0|0:0,0:0:0:0:
329,354,14795,1,0,0:0:0:0:
255,322,15257,6,2,P|207:338|159:322,1,100
117,256,16180,1,0,0:0:0:0:
163,190,16641,2,0,B|131:158|131:158|51:158,2,100,2|8|2,0:0|0:0|0:0,0:0:0:0:
233,151,18026,1,8,0:0:0:0:
304,114,18487,2,2,P|368:130|368:194,1,100
332,222,19411,2,2,P|268:206|268:142,1,100
223,106,20334,6,2,B|183:98|183:98|159:82|159:82|119:74,1,100,6|0,0:0|0:0,0:0:0:0:
51,96,21256,1,0,0:0:0:0:
15,167,21718,1,8,0:0:0:0:
28,245,22180,2,0,P|45:296|129:341,2,100,0|2|2,0:0|0:0|0:0,0:0:0:0:
48,88,24026,38,8,B|120:16|120:16|184:96|184:96|312:88,1,300,14|10,0:0|0:0,0:0:0:0:
344,136,25872,2,0,B|360:184|360:184|312:248,1,100,0|2,0:0|0:0,0:0:0:0:
257,256,26795,2,0,B|241:208|241:208|273:160,1,100,0|2,0:0|0:0,0:0:0:0:
344,136,27718,1,0,0:0:0:0:
40,64,29564,5,2,0:0:0:0:
62,140,30026,1,2,0:0:0:0:
132,178,30488,1,2,0:0:0:0:
150,255,30949,1,2,0:0:0:0:
208,309,31411,2,0,P|261:297|279:213,1,100,0|8,0:0|0:0,0:0:0:0:
248,189,32334,2,0,B|200:177|193:236|118:203,1,100,0|8,0:0|0:0,0:0:0:0:
94,158,33257,6,0,L|206:46,1,100,0|8,0:0|0:0,0:0:0:0:
210,153,34180,2,0,L|290:73,1,100,0|8,0:0|0:0,0:0:0:0:
332,21,35103,1,2,0:0:0:0:
376,88,35564,1,2,0:0:0:0:
424,152,36026,1,2,0:0:0:0:
289,238,36949,6,0,P|232:246|178:187,1,100,0|8,0:0|0:0,0:0:0:0:
252,167,37872,2,0,P|217:144|134:146,1,100,0|8,0:0|0:0,0:0:0:0:
83,160,38795,2,0,P|35:208|35:272,2,100,0|8|0,0:0|0:0|0:0,0:0:0:0:
238,120,40641,38,0,B|266:162|266:162|334:184,1,100,0|8,0:0|0:0,0:0:0:0:
385,212,41564,2,0,B|365:258|365:258|302:293,1,100,0|8,0:0|0:0,0:0:0:0:
249,317,42488,1,2,0:0:0:0:
169,315,42949,1,2,0:0:0:0:
106,265,43411,1,2,0:0:0:0:
74,191,43872,1,2,0:0:0:0:
128,132,44334,53,0,0:0:0:0:
270,205,45257,1,0,0:0:0:0:
229,50,46180,1,0,0:0:0:0:
442,158,47564,2,0,P|464:218|428:257,1,100
140,335,49872,5,0,0:0:0:0:
188,182,50795,1,0,0:0:0:0:
272,317,51718,1,0,0:0:0:0:
413,243,52641,2,0,P|459:139|355:93,1,200
262,20,54488,2,0,P|215:123|319:169,1,200
404,289,59103,5,0,0:0:0:0:
326,308,59565,2,0,P|262:292|230:260,1,100,8|0,0:0|0:0,0:0:0:0:
221,191,60488,1,8,0:0:0:0:
148,156,60949,2,0,P|204:112|254:119,1,100,0|8,0:0|0:0,0:0:0:0:
305,139,61872,1,0,0:0:0:0:
357,199,62334,1,8,0:0:0:0:
332,275,62795,5,0,0:0:0:0:
398,319,63257,2,0,L|518:319,2,100,8|0|8,0:0|0:0|0:0,0:0:0:0:
318,319,64641,2,0,P|254:287|222:255,1,100,0|8,0:0|0:0,0:0:0:0:
172,216,65565,1,0,0:0:0:0:
125,150,66026,1,8,0:0:0:0:
171,84,66488,5,0,0:0:0:0:
238,41,66949,1,8,0:0:0:0:
318,39,67411,2,0,P|360:59|295:117,1,100,0|8,0:0|0:0,0:0:0:0:
308,168,68334,1,0,0:0:0:0:
232,193,68795,1,8,0:0:0:0:
162,152,69257,2,0,B|131:191|131:191|47:163,1,100,0|8,0:0|0:0,0:0:0:0:
7,149,70180,5,0,0:0:0:0:
41,77,70641,2,0,P|91:48|141:56,1,100,8|0,0:0|0:0,0:0:0:0:
200,94,71565,1,8,0:0:0:0:
247,158,72026,2,0,P|215:206|135:222,1,100,0|8,0:0|0:0,0:0:0:0:
109,180,72949,2,0,B|92:134|92:134|129:90,1,100,0|8,0:0|0:0,0:0:0:0:
199,66,73872,37,4,0:0:0:0:
277,52,74334,1,10,0:0:0:0:
339,101,74795,1,0,0:0:0:0:
416,79,75257,1,10,0:0:0:0:
486,115,75718,2,0,P|465:168|422:195,1,100,0|10,0:0|0:0,0:0:0:0:
355,216,76642,1,0,0:0:0:0:
275,225,77103,1,10,0:0:0:0:
229,290,77565,5,0,0:0:0:0:
161,246,78026,1,10,0:0:0:0:
97,197,78488,2,0,P|97:133|65:69,1,100,0|10,0:0|0:0,0:0:0:0:
134,36,79411,1,0,0:0:0:0:
211,16,79872,1,10,0:0:0:0:
290,26,80334,2,0,P|333:47|369:82,1,100,0|10,0:0|0:0,0:0:0:0:
424,141,81257,6,0,L|328:221,1,100,0|10,0:0|0:0,0:0:0:0:
284,255,82180,1,0,0:0:0:0:
204,260,82642,1,10,0:0:0:0:
126,241,83103,2,0,B|75:207|61:131,1,100,0|10,0:0|0:0,0:0:0:0:
64,81,84026,1,0,0:0:0:0:
118,21,84488,1,10,0:0:0:0:
197,14,84949,5,0,0:0:0:0:
274,35,85411,2,0,P|313:77|379:81,1,100,10|0,0:0|0:0,0:0:0:0:
430,107,86334,1,10,0:0:0:0:
481,168,86795,2,10,B|497:216|497:216|432:271,3,100
391,290,88642,37,4,0:0:0:0:
