osu file format v14

[General]
AudioFilename: audio.mp3
AudioLeadIn: 0
PreviewTime: 63288
Countdown: 0
SampleSet: Soft
StackLeniency: 0.7
Mode: 0
LetterboxInBreaks: 0
WidescreenStoryboard: 0

[Editor]
Bookmarks: 17434,33044,48654,79874,87678,103288,118898,134508,150117,165727,181337,196947,212556,228166,247678
DistanceSpacing: 1
BeatDivisor: 4
GridSize: 4
TimelineZoom: 1

[Metadata]
Title:Aguita
TitleUnicode:Agüita
Artist:Danna Paola
ArtistUnicode:Danna Paola
Creator:Kenezz
Version:Hard
Source:
Tags:
BeatmapID:1582941
BeatmapSetID:751909

[Difficulty]
HPDrainRate:6
CircleSize:4
OverallDifficulty:7
ApproachRate:8
SliderMultiplier:1.8
SliderTickRate:1

[Events]
//Background and Video events
0,0,"bg.jpg",0,0
//Break Periods
2,80074,86928
2,135682,149367
2,173488,178636
//Storyboard Layer 0 (Background)
//Storyboard Layer 1 (Fail)
//Storyboard Layer 2 (Pass)
//Storyboard Layer 3 (Foreground)
//Storyboard Layer 4 (Overlay)
//Storyboard Sound Samples

[TimingPoints]
17435,487.80487804878,4,2,1,60,1,0
63288,-100,4,2,1,30,0,0
64264,-100,4,2,1,60,0,1
78898,-100,4,2,1,30,0,1
79874,-100,4,2,1,60,0,0
115971,-100,4,2,1,30,0,0
118898,-100,4,2,1,60,0,1
133532,-100,4,2,1,30,0,1
134508,-100,4,2,1,60,0,1
150117,-100,4,2,1,50,0,0
165727,-100,4,2,1,60,0,0

[Colours]
Combo1 : 255,60,114
Combo2 : 0,128,192
Combo3 : 0,128,128

[HitObjects]
60,336,33044,6,0,P|104:352|144:336,1,90,4|0,0:0|0:0,0:0:0:0:
204,272,33532,1,8,0:0:0:0:
160,192,33776,1,0,0:0:0:0:
244,156,34020,2,0,L|336:164,1,90
424,160,34508,1,8,0:0:0:0:
344,32,34752,6,0,L|160:20,1,180,2|0,0:0|0:0,0:0:0:0:
124,100,35483,1,8,0:0:0:0:
180,176,35727,2,0,P|256:132|332:176,1,180
396,232,36459,1,8,0:0:0:0:
332,328,36703,6,0,P|256:372|180:328,1,180,2|0,0:0|0:0,0:0:0:0:
124,264,37434,1,8,0:0:0:0:
124,264,37678,1,0,0:0:0:0:
48,100,38166,1,0,0:0:0:0:
100,28,38410,1,8,0:0:0:0:
172,80,38654,6,0,P|208:148|200:248,1,180
256,320,39386,1,8,0:0:0:0:
312,248,39630,2,0,P|301:160|340:80,1,180
412,28,40361,1,8,0:0:0:0:
464,100,40605,1,0,0:0:0:0:
464,100,40849,5,2,0:0:0:0:
448,284,41337,1,8,0:0:0:0:
376,336,41581,1,0,0:0:0:0:
324,260,41825,2,0,B|276:280|256:316|256:316|236:280|188:260,1,180,2|8,0:0|0:0,0:0:0:0:
188,124,42556,6,0,B|236:104|256:68|256:68|276:104|324:124,1,180,2|0,0:0|0:0,0:0:0:0:
404,168,43288,1,8,0:0:0:0:
484,128,43532,1,0,0:0:0:0:
476,216,43776,2,0,P|468:260|484:304,1,90
436,380,44264,1,8,0:0:0:0:
360,288,44508,6,0,P|284:256|224:320,1,180,2|0,0:0|0:0,0:0:0:0:
156,380,45239,1,8,0:0:0:0:
124,296,45483,2,0,L|116:104,1,180
64,44,46215,1,8,0:0:0:0:
16,120,46459,6,0,L|24:312,1,180
72,376,47191,1,8,0:0:0:0:
148,328,47434,2,0,P|196:340|232:324,1,90
362,244,47922,2,0,P|320:231|280:248,1,90,0|8,0:0|0:0,0:0:0:0:
324,328,48410,1,0,0:0:0:0:
416,328,48654,5,4,0:0:0:0:
456,248,48898,1,0,0:0:0:0:
456,248,49020,1,0,0:0:0:0:
456,248,49142,1,8,0:0:0:0:
464,160,49386,2,0,L|456:68,1,90
364,10,49874,1,0,0:0:0:0:
364,10,49995,1,0,0:0:0:0:
364,10,50117,2,0,L|372:100,1,90,8|0,0:0|0:0,0:0:0:0:
332,208,50605,6,0,P|256:252|180:208,1,180,2|8,0:0|0:0,0:0:0:0:
144,128,51337,2,0,P|104:112|60:128,1,90
4,196,51825,1,0,0:0:0:0:
4,196,51947,1,0,0:0:0:0:
4,196,52069,1,8,0:0:0:0:
44,272,52313,1,0,0:0:0:0:
128,240,52556,6,0,P|132:284|116:328,1,90,2|0,0:0|0:0,0:0:0:0:
36,368,53044,1,8,0:0:0:0:
44,272,53288,2,0,L|224:292,1,180
296,236,54020,1,8,0:0:0:0:
376,200,54264,6,0,P|384:243|369:285,1,90
303,143,54752,2,0,P|295:100|310:58,1,90,0|8,0:0|0:0,0:0:0:0:
388,108,55239,1,0,0:0:0:0:
448,176,55483,1,8,0:0:0:0:
448,176,55605,1,0,0:0:0:0:
448,176,55727,1,0,0:0:0:0:
436,264,55971,1,8,0:0:0:0:
436,264,56093,1,0,0:0:0:0:
436,264,56215,1,0,0:0:0:0:
372,328,56459,5,4,0:0:0:0:
300,276,56703,2,0,P|256:264|212:276,1,90,0|8,0:0|0:0,0:0:0:0:
168,196,57191,2,0,P|200:163|211:119,1,90
300,122,57678,2,0,P|312:164|344:196,1,90,0|8,0:0|0:0,0:0:0:0:
328,344,58166,6,0,B|280:336|256:296|256:296|232:336|184:344,1,180,2|0,0:0|0:0,0:0:0:0:
132,272,58898,1,8,0:0:0:0:
184,200,59142,2,0,P|256:152|328:200,1,180
380,272,59874,1,8,0:0:0:0:
424,192,60117,5,0,0:0:0:0:
408,280,60361,1,0,0:0:0:0:
464,212,60605,1,0,0:0:0:0:
432,296,60849,1,8,0:0:0:0:
360,352,61093,2,0,B|288:364|168:316|180:208|256:176|332:208|344:316|224:364|152:352,1,450,2|4,0:0|0:0,0:0:0:0:
44,28,63288,5,8,0:0:0:0:
44,28,63410,1,8,0:0:0:0:
44,28,63532,1,8,0:0:0:0:
44,28,63654,1,8,0:0:0:0:
44,28,63776,1,8,0:0:0:0:
44,28,63898,1,8,0:0:0:0:
44,28,64020,1,8,0:0:0:0:
44,28,64142,1,8,0:0:0:0:
48,32,64264,6,0,L|200:40,1,135,4|0,1:0|0:0,0:0:0:0:
228,44,64752,1,8,0:0:0:0:
316,68,64995,1,0,0:0:0:0:
368,140,65239,1,0,0:0:0:0:
344,228,65483,1,0,0:0:0:0:
344,228,65605,1,0,0:0:0:0:
344,228,65727,2,0,B|324:272|352:316,1,90,8|0,0:0|0:0,0:0:0:0:
420,372,66215,6,0,L|268:364,1,135,2|2,0:0|0:0,0:0:0:0:
244,348,66703,1,8,0:0:0:0:
196,272,66947,1,0,0:0:0:0:
228,188,67191,2,0,L|346:194,1,90,2|0,0:0|0:0,0:0:0:0:
481,252,67678,2,0,L|392:248,1,90,8|0,0:0|0:0,0:0:0:0:
272,96,68166,6,0,L|280:280,1,180,2|8,0:0|0:0,0:0:0:0:
248,360,68898,1,0,0:0:0:0:
248,360,69020,1,0,0:0:0:0:
248,360,69142,1,8,0:0:0:0:
196,280,69386,1,0,0:0:0:0:
196,280,69508,1,0,0:0:0:0:
196,280,69630,2,0,P|240:264|280:276,1,90,8|0,0:0|0:0,0:0:0:0:
112,372,70117,6,0,L|100:184,1,180,2|8,0:0|0:0,0:0:0:0:
60,104,70849,1,0,0:0:0:0:
124,40,71093,2,0,P|168:52|212:36,2,90,2|0|8,0:0|0:0|0:0,0:0:0:0:
60,104,71825,1,0,0:0:0:0:
132,156,72069,5,4,0:0:0:0:
220,136,72313,1,0,0:0:0:0:
220,136,72434,1,0,0:0:0:0:
220,136,72556,1,8,0:0:0:0:
300,100,72800,1,0,0:0:0:0:
296,188,73044,2,0,P|288:228|296:280,1,90
260,360,73532,1,8,0:0:0:0:
180,324,73776,1,0,0:0:0:0:
180,324,74020,6,0,B|84:340|84:340|36:332,2,135,2|2|0,0:0|0:0|0:0,0:0:0:0:
260,280,74995,1,2,0:0:0:0:
256,192,75239,1,0,0:0:0:0:
252,104,75483,1,8,0:0:0:0:
332,60,75727,1,0,0:0:0:0:
332,60,75971,6,0,B|428:44|428:44|476:52,3,135,2|2|2|2,0:0|0:0|0:0|0:0,0:0:0:0:
328,204,77434,2,0,P|256:252|184:204,1,180,8|8,0:0|0:0,0:0:0:0:
132,136,78166,1,2,0:0:0:0:
132,136,78288,1,2,0:0:0:0:
132,136,78410,1,8,0:0:0:0:
132,136,78654,1,2,0:0:0:0:
60,192,78898,5,8,0:0:0:0:
60,192,79020,1,8,0:0:0:0:
60,192,79142,1,8,0:0:0:0:
60,192,79264,1,8,0:0:0:0:
60,192,79386,1,8,0:0:0:0:
60,192,79508,1,8,0:0:0:0:
60,192,79630,1,8,0:0:0:0:
60,192,79752,1,8,0:0:0:0:
60,192,79874,1,4,1:0:0:0:
88,220,87678,6,0,B|127:197|127:197|170:209,1,90,4|0,0:0|0:0,0:0:0:0:
260,224,88166,1,8,0:0:0:0:
316,152,88410,1,0,0:0:0:0:
400,180,88654,2,0,B|443:192|443:192|500:160,2,90,0|0|8,0:0|0:0|0:0,0:0:0:0:
346,44,89386,6,0,L|164:54,1,180,2|0,0:0|0:0,0:0:0:0:
140,140,90117,1,8,0:0:0:0:
168,225,90361,2,0,L|350:215,1,180
412,152,91093,1,8,0:0:0:0:
460,228,91337,1,8,0:0:0:0:
460,228,91581,6,0,P|440:272|444:324,1,90,2|0,0:0|0:0,0:0:0:0:
364,360,92069,1,8,0:0:0:0:
300,300,92313,2,0,L|324:112,1,180,2|0,0:0|0:0,0:0:0:0:
292,36,93044,1,8,0:0:0:0:
220,92,93288,1,8,0:0:0:0:
220,92,93532,5,0,0:0:0:0:
292,292,94020,1,8,0:0:0:0:
208,320,94264,2,0,P|164:304|112:324,2,90
300,324,94995,2,0,P|344:340|396:320,2,90,8|8|0,0:0|0:0|0:0,0:0:0:0:
349,150,95971,5,8,0:0:0:0:
304,71,96215,1,0,0:0:0:0:
393,74,96459,2,0,L|451:62,2,45,8|0|8,0:0|0:0|0:0,0:0:0:0:
349,150,96947,1,8,0:0:0:0:
349,150,97191,1,0,0:0:0:0:
213,57,97434,6,0,L|78:84,1,135,2|0,0:0|0:0,0:0:0:0:
56,121,97922,1,8,0:0:0:0:
93,202,98166,2,0,L|228:175,1,135
266,194,98654,1,0,0:0:0:0:
338,247,98898,1,8,0:0:0:0:
338,247,99142,1,8,0:0:0:0:
291,322,99386,6,0,P|208:306|212:223,1,180,2|8,0:0|0:0,0:0:0:0:
300,224,100117,2,0,P|302:307|221:322,1,180,2|0,0:0|0:0,0:0:0:0:
174,247,100849,1,8,0:0:0:0:
188,112,101093,6,0,B|232:96|256:56|256:56|280:96|324:112,1,180,2|0,0:0|0:0,0:0:0:0:
396,168,101825,1,8,0:0:0:0:
396,168,102069,1,0,0:0:0:0:
472,128,102313,1,8,0:0:0:0:
472,128,102434,1,0,0:0:0:0:
472,128,102556,1,0,0:0:0:0:
472,128,102678,1,0,0:0:0:0:
472,128,102800,1,8,0:0:0:0:
472,128,102922,1,0,0:0:0:0:
472,128,103044,1,0,0:0:0:0:
472,128,103166,1,0,0:0:0:0:
472,128,103288,1,4,0:0:0:0:
396,80,103532,6,0,P|350:89|312:68,1,90,2|8,0:0|0:0,0:0:0:0:
232,32,104020,1,0,0:0:0:0:
192,112,104264,2,0,L|200:156,4,45,8|0|0|0|8,0:0|0:0|0:0|0:0|0:0,0:0:0:0:
120,60,104995,1,8,0:0:0:0:
112,148,105239,6,0,L|145:334,1,180,2|8,0:0|0:0,0:0:0:0:
220,372,105971,1,0,0:0:0:0:
228,284,106215,2,0,L|220:240,4,45,8|0|0|0|8,0:0|0:0|0:0|0:0|0:0,0:0:0:0:
304,332,106947,1,8,0:0:0:0:
432,224,107191,6,0,P|428:184|444:136,1,90,4|0,0:0|0:0,0:0:0:0:
448,48,107678,1,8,0:0:0:0:
364,76,107922,2,0,P|333:164|340:256,1,180,2|0,0:0|0:0,0:0:0:0:
304,332,108654,1,8,0:0:0:0:
173,249,108898,6,0,P|178:160|147:75,1,180,2|0,0:0|0:0,0:0:0:0:
64,48,109629,1,8,0:0:0:0:
68,137,109874,2,0,P|83:179|80:223,1,90
44,308,110361,1,0,0:0:0:0:
44,308,110483,1,0,0:0:0:0:
44,308,110605,1,8,0:0:0:0:
44,308,110849,1,8,0:0:0:0:
44,308,111093,5,4,0:0:0:0:
143,382,111337,2,0,P|128:340|132:296,1,90,0|8,0:0|0:0,0:0:0:0:
196,232,111825,2,0,L|292:212,1,90
312,300,112313,2,0,L|223:318,1,90,0|8,0:0|0:0,0:0:0:0:
164,152,112800,6,0,L|369:110,1,180,2|0,0:0|0:0,0:0:0:0:
396,188,113532,1,8,0:0:0:0:
328,248,113776,2,0,P|256:296|184:248,1,180,2|0,0:0|0:0,0:0:0:0:
156,164,114508,1,8,0:0:0:0:
88,224,114752,1,8,0:0:0:0:
124,140,114995,5,0,0:0:0:0:
56,200,115239,1,0,0:0:0:0:
92,116,115483,1,8,0:0:0:0:
24,176,115727,1,0,0:0:0:0:
56,92,115971,1,8,0:0:0:0:
56,92,116093,1,8,0:0:0:0:
56,92,116215,1,8,0:0:0:0:
56,92,116337,1,8,0:0:0:0:
56,92,116459,1,8,0:0:0:0:
56,92,116581,1,8,0:0:0:0:
56,92,116703,1,8,0:0:0:0:
56,92,116825,1,8,0:0:0:0:
256,192,116947,12,0,118654,0:0:0:0:
52,312,118898,6,0,P|120:332|172:300,1,135,4|0,0:0|0:0,0:0:0:0:
200,264,119386,1,8,0:0:0:0:
268,208,119630,1,0,0:0:0:0:
356,224,119874,1,0,0:0:0:0:
408,296,120117,1,0,0:0:0:0:
408,296,120239,1,0,0:0:0:0:
408,296,120361,1,8,0:0:0:0:
408,296,120605,1,0,0:0:0:0:
480,176,120849,6,0,L|468:40,1,135,2|0,0:0|0:0,0:0:0:0:
428,20,121337,1,8,0:0:0:0:
376,92,121581,1,0,0:0:0:0:
324,164,121825,2,0,P|316:208|328:252,1,90,2|0,0:0|0:0,0:0:0:0:
188,220,122313,2,0,P|196:176|184:132,1,90,8|0,0:0|0:0,0:0:0:0:
32,208,122800,6,0,L|44:344,1,135,2|0,0:0|0:0,0:0:0:0:
84,364,123288,1,8,0:0:0:0:
145,302,123532,1,0,0:0:0:0:
145,302,123654,1,0,2:0:0:0:
145,302,123776,1,8,0:0:0:0:
184,220,124020,1,0,0:0:0:0:
184,220,124142,1,0,0:0:0:0:
184,220,124264,2,0,P|142:207|100:221,1,90,8|0,2:0|2:0,2:0:0:0:
232,352,124752,6,0,L|412:360,1,180,2|8,0:0|0:0,0:0:0:0:
476,296,125483,1,0,0:0:0:0:
412,232,125727,2,0,L|296:226,2,90,2|0|8,0:0|0:0|0:0,0:0:0:0:
448,148,126459,1,0,0:0:0:0:
364,40,126703,6,0,P|320:76|248:60,1,135,4|0,0:0|0:0,0:0:0:0:
212,32,127191,1,8,0:0:0:0:
124,52,127434,1,0,0:0:0:0:
68,124,127678,1,0,0:0:0:0:
56,212,127922,1,0,0:0:0:0:
92,296,128166,1,8,0:0:0:0:
168,344,128410,1,0,0:0:0:0:
256,356,128654,6,0,L|392:364,2,135,2|2|0,0:0|0:0|0:0,0:0:0:0:
216,276,129630,1,0,0:0:0:0:
256,192,129874,1,0,0:0:0:0:
296,108,130117,1,8,0:0:0:0:
256,28,130361,1,0,0:0:0:0:
256,28,130605,6,0,L|120:20,3,135,2|2|2|2,0:0|0:0|0:0|0:0,0:0:0:0:
76,216,132069,2,0,L|256:228,1,180,2|8,0:0|0:0,0:0:0:0:
255,227,133044,1,8,0:0:0:0:
255,227,133532,5,8,0:0:0:0:
255,227,133654,1,8,0:0:0:0:
255,227,133776,1,8,0:0:0:0:
255,227,133898,1,8,0:0:0:0:
255,227,134020,1,8,0:0:0:0:
255,227,134142,1,8,0:0:0:0:
255,227,134264,1,8,0:0:0:0:
255,227,134386,1,8,0:0:0:0:
255,227,134508,1,0,0:0:0:0:
336,192,134752,5,0,0:0:0:0:
360,280,134995,1,0,0:0:0:0:
412,208,135239,2,0,P|420:152|400:112,1,90
66,160,150117,6,0,B|151:271|336:230|390:94,1,360,4|0,0:0|0:0,0:0:0:0:
288,94,151337,1,0,0:0:0:0:
192,113,151581,1,0,0:0:0:0:
159,197,151825,1,0,0:0:0:0:
152,286,152069,2,0,P|202:251|331:290,1,180
376,207,152800,1,0,0:0:0:0:
333,127,153044,2,0,P|280:81|249:73,2,90
305,213,153776,1,0,0:0:0:0:
218,187,154020,6,0,P|219:249|339:314,1,180
345,235,154752,1,0,0:0:0:0:
328,146,154995,2,0,P|311:88|197:83,1,180
130,127,155727,1,0,0:0:0:0:
196,187,155971,2,0,P|256:207|386:156,1,180
364,85,156703,1,0,0:0:0:0:
434,141,156947,1,0,0:0:0:0:
443,230,157191,1,0,0:0:0:0:
373,286,157434,1,0,0:0:0:0:
280,317,157678,1,0,0:0:0:0:
201,273,157922,6,0,P|159:190|205:98,1,180
274,89,158654,1,0,0:0:0:0:
359,116,158898,2,0,L|358:305,1,180
268,304,159630,1,0,0:0:0:0:
184,269,159874,2,0,L|208:66,1,180
116,76,160605,1,0,0:0:0:0:
81,159,160849,1,0,0:0:0:0:
70,252,161093,1,0,0:0:0:0:
137,311,161337,1,0,0:0:0:0:
243,313,161581,1,0,0:0:0:0:
243,313,161825,5,0,0:0:0:0:
243,313,162313,1,0,0:0:0:0:
243,313,162800,1,0,0:0:0:0:
243,313,163288,1,0,0:0:0:0:
112,164,163776,6,0,L|160:184,1,45
192,156,164020,2,0,L|252:144,1,45
252,104,164264,2,0,L|304:80,1,45
332,108,164508,2,0,L|392:128,1,45
372,168,164752,2,0,L|388:228,1,45
348,240,164995,2,0,L|324:296,1,45
284,288,165239,2,0,L|244:312,1,45
204,296,165483,2,0,L|148:304,2,45,0|0|4,0:0|0:0|0:0,0:0:0:0:
184,207,165971,5,0,0:0:0:0:
201,118,166215,2,0,P|274:136|303:126,1,90
360,184,166703,1,0,0:0:0:0:
360,184,166825,1,0,0:0:0:0:
360,184,166947,1,0,0:0:0:0:
292,240,167191,1,0,0:0:0:0:
292,240,167434,1,0,0:0:0:0:
208,268,167678,6,0,L|201:168,1,90
173,80,168166,1,0,0:0:0:0:
173,80,168410,1,0,0:0:0:0:
256,113,168654,2,0,P|248:173|293:291,1,180
376,269,169386,1,0,0:0:0:0:
376,180,169630,6,0,P|436:168|480:188,1,90
456,88,170117,1,0,0:0:0:0:
376,44,170361,1,0,0:0:0:0:
296,84,170605,1,0,0:0:0:0:
296,84,170727,1,0,0:0:0:0:
296,84,170849,1,0,0:0:0:0:
224,140,171093,1,0,0:0:0:0:
224,140,171337,1,0,0:0:0:0:
228,248,171581,6,0,P|272:240|336:252,2,90
144,248,172313,1,0,0:0:0:0:
68,200,172556,2,0,P|112:160|208:208,1,180
228,280,173288,1,0,0:0:0:0:
192,80,179386,6,0,P|176:132|172:136,1,45
220,148,179630,2,0,L|232:220,1,45
268,212,179874,2,0,L|304:284,1,45
324,228,180117,2,0,L|380:268,1,45
376,212,180361,2,0,L|424:212,1,45
400,172,180605,2,0,L|440:112,1,45
396,100,180849,1,0,0:0:0:0:
396,100,180971,1,0,0:0:0:0:
396,100,181093,1,0,0:0:0:0:
396,100,181215,1,0,0:0:0:0:
396,100,181337,1,0,0:0:0:0:
