osu file format v14

[General]
AudioFilename: audio.mp3
AudioLeadIn: 0
PreviewTime: -1
Countdown: 1
SampleSet: None
StackLeniency: 0.7
Mode: 0
LetterboxInBreaks: 0
WidescreenStoryboard: 0

[Editor]
Bookmarks: 81125,88625
DistanceSpacing: 1
BeatDivisor: 4
GridSize: 32
TimelineZoom: 2.3

[Metadata]
Title:These Heaux
TitleUnicode:These Heaux
Artist:Danielle Bregoli
ArtistUnicode:Danielle Bregoli
Creator:Stats-Kun
Version:The Only Good Bit
Source:BHAD BHABIE
Tags:
BeatmapID:1749926
BeatmapSetID:835531

[Difficulty]
HPDrainRate:6
CircleSize:4
OverallDifficulty:7
ApproachRate:9
SliderMultiplier:3.59999990463257
SliderTickRate:1

[Events]
//Background and Video events
//Break Periods
//Storyboard Layer 0 (Background)
//Storyboard Layer 1 (Fail)
//Storyboard Layer 2 (Pass)
//Storyboard Layer 3 (Foreground)
//Storyboard Sound Samples

[TimingPoints]
72625,500,4,1,0,100,1,0

[HitObjects]
297,82,72625,6,0,P|184:101|43:33,1,269.999992847443
49,38,73125,5,0,0:0:0:0:
390,119,73250,1,0,0:0:0:0:
45,232,73375,1,0,0:0:0:0:
45,232,73500,1,0,0:0:0:0:
395,342,73625,5,0,0:0:0:0:
45,232,73750,1,0,0:0:0:0:
390,119,73875,1,0,0:0:0:0:
116,337,74125,6,0,P|41:237|41:72,1,269.999992847443
478,287,74625,6,0,P|473:154|396:47,1,269.999992847443,0|0,0:3|0:3,0:3:0:0:
41,333,75125,5,0,0:0:0:0:
254,32,75250,1,0,0:0:0:0:
499,356,75375,1,0,0:0:0:0:
28,38,75625,5,0,0:0:0:0:
269,363,75750,1,0,0:0:0:0:
484,32,75875,1,0,0:0:0:0:
467,129,76125,6,0,P|252:52|143:54,1,269.999992847443
299,334,76625,6,0,P|166:313|45:255,1,269.999992847443
463,346,77125,5,0,0:0:0:0:
122,265,77250,1,0,0:0:0:0:
467,152,77375,1,0,0:0:0:0:
467,152,77500,1,0,0:0:0:0:
117,42,77625,5,0,0:0:0:0:
467,152,77750,1,0,0:0:0:0:
122,265,77875,1,0,0:0:0:0:
396,47,78125,6,0,P|471:147|471:312,1,269.999992847443
46,52,78625,5,0,0:0:0:0:
471,51,79000,5,0,0:0:0:0:
348,352,79125,1,0,0:0:0:0:
151,49,79250,1,0,0:0:0:0:
17,351,79375,1,0,0:0:0:0:
471,51,79625,5,0,0:0:0:0:
17,351,79750,1,0,0:0:0:0:
45,255,80125,6,0,P|260:332|369:330,1,269.999992847443
271,37,80625,6,0,L|363:90,2,89.9999976158143
21,195,81125,5,0,0:0:0:0:
256,24,81250,1,0,0:0:0:0:
263,359,81375,1,0,0:0:0:0:
263,359,81500,1,0,0:0:0:0:
495,193,81625,5,0,0:0:0:0:
256,24,81750,1,0,0:0:0:0:
263,359,81875,1,0,0:0:0:0:
53,106,82125,6,0,P|236:54|346:82,1,269.999992847443
201,316,82625,6,0,P|334:327|459:278,1,269.999992847443
21,355,83125,5,0,0:0:0:0:
257,193,83250,1,0,0:0:0:0:
14,31,83375,1,0,0:0:0:0:
14,31,83500,1,0,0:0:0:0:
491,29,83625,5,0,0:0:0:0:
255,191,83750,1,0,0:0:0:0:
498,353,83875,1,0,0:0:0:0:
62,77,84125,6,0,B|149:30|186:203|326:116,1,269.999992847443
446,308,84625,6,0,B|363:354|326:181|202:258,1,269.999992847443
491,189,85125,5,0,0:0:0:0:
256,360,85250,1,0,0:0:0:0:
249,25,85375,1,0,0:0:0:0:
249,25,85500,1,0,0:0:0:0:
17,191,85625,5,0,0:0:0:0:
256,360,85750,1,0,0:0:0:0:
249,25,85875,1,0,0:0:0:0:
459,278,86125,6,0,P|276:330|166:302,1,269.999992847443
310,67,86625,6,0,P|177:56|53:106,1,269.999992847443
491,29,87125,5,0,0:0:0:0:
255,191,87250,1,0,0:0:0:0:
498,353,87375,1,0,0:0:0:0:
21,355,87625,5,0,0:0:0:0:
257,193,87750,1,0,0:0:0:0:
14,31,87875,1,0,0:0:0:0:
450,307,88125,6,0,B|341:358|253:192|97:278,1,359.999990463257
