osu file format v14

[General]
AudioFilename: audio.mp3
AudioLeadIn: 0
PreviewTime: 38491
Countdown: 1
SampleSet: Drum
StackLeniency: 0.7
Mode: 0
LetterboxInBreaks: 0
WidescreenStoryboard: 0

[Editor]
Bookmarks: 121,6978,17873,17949,33978,39892,50521,50863,51121,61805,66345,72806,83778
DistanceSpacing: 1.1
BeatDivisor: 8
GridSize: 4
TimelineZoom: 1.499998

[Metadata]
Title:Come To Me
TitleUnicode:Come To Me
Artist:Daniel Seven
ArtistUnicode:Daniel Seven
Creator:Chai the Tea
Version:Losing Control
Source:Rhythm Control 2
Tags:video game electronic english techno plumblossom parsee mizuhashi 水橋 パルスィ smiling green eyes anime elf uk hardcore happy hardcore daikonsoft
BeatmapID:2110804
BeatmapSetID:1008404

[Difficulty]
HPDrainRate:5
CircleSize:3.1
OverallDifficulty:9
ApproachRate:9.9
SliderMultiplier:2.68999999999999
SliderTickRate:1

[Events]
//Background and Video events
0,0,"greenparseeflipped.jpg",0,0
//Break Periods
//Storyboard Layer 0 (Background)
//Storyboard Layer 1 (Fail)
//Storyboard Layer 2 (Pass)
//Storyboard Layer 3 (Foreground)
//Storyboard Layer 4 (Overlay)
//Storyboard Sound Samples

[TimingPoints]
91,342.857142857143,4,3,1,60,1,0
91,-142.857142857143,4,3,1,60,0,0
3862,-76.923076923077,4,1,69,60,0,0
3948,-142.857142857143,4,3,1,60,0,0
5576,-76.9230769230769,4,3,1,60,0,0
6262,-76.9230769230769,4,3,1,50,0,0
6607,-76.9230769230769,4,3,1,70,0,0
6948,-100,4,3,2,60,0,0
9348,-57.1428571428571,4,1,69,60,0,0
9434,-142.857142857143,4,3,1,60,0,0
9691,-100,4,3,2,60,0,0
11748,-200,4,3,2,60,0,0
12091,-100,4,3,2,60,0,0
12433,-100,4,3,2,60,0,0
14833,-57.1428571428571,4,3,2,60,0,0
15176,-100,4,3,2,60,0,0
17233,-100,4,3,2,50,0,0
17576,-100,4,3,2,70,0,0
17918,-133.333333333333,4,3,2,60,0,0
18262,-133.333333333333,4,3,2,60,0,0
18433,-133.333333333333,4,3,2,5,0,0
18519,-133.333333333333,4,3,2,60,0,0
18691,-133.333333333333,4,3,2,5,0,0
18776,-133.333333333333,4,3,2,60,0,0
18862,-133.333333333333,4,3,2,5,0,0
18948,-133.333333333333,4,3,2,60,0,0
19033,-133.333333333333,4,3,2,5,0,0
19119,-133.333333333333,4,3,2,60,0,0
19805,-133.333333333333,4,3,2,5,0,0
19891,-133.333333333333,4,3,2,60,0,0
20062,-133.333333333333,4,3,2,5,0,0
20148,-133.333333333333,4,3,2,60,0,0
20233,-133.333333333333,4,3,2,5,0,0
20319,-133.333333333333,4,3,2,60,0,0
21176,-133.333333333333,4,3,2,5,0,0
21262,-133.333333333333,4,3,2,60,0,0
21433,-133.333333333333,4,3,2,5,0,0
21519,-133.333333333333,4,3,2,60,0,0
21605,-133.333333333333,4,3,2,5,0,0
21691,-133.333333333333,4,3,2,60,0,0
21776,-133.333333333333,4,3,2,5,0,0
21862,-133.333333333333,4,3,2,60,0,0
22548,-133.333333333333,4,3,2,5,0,0
22633,-133.333333333333,4,3,2,60,0,0
22805,-133.333333333333,4,3,2,5,0,0
22891,-133.333333333333,4,3,2,60,0,0
22976,-133.333333333333,4,3,2,5,0,0
23062,-133.333333333333,4,3,0,60,0,0
23148,-133.333333333333,4,3,2,5,0,0
23233,-100,4,3,0,60,0,0
23405,-133.333333333333,4,3,0,60,0,0
23833,-133.333333333333,4,3,2,5,0,0
23919,-133.333333333333,4,3,2,60,0,0
24176,-133.333333333333,4,3,2,5,0,0
24262,-133.333333333333,4,3,2,60,0,0
24348,-133.333333333333,4,3,2,5,0,0
24433,-133.333333333333,4,3,2,60,0,0
24519,-133.333333333333,4,3,2,5,0,0
24605,-133.333333333333,4,3,2,60,0,0
25205,-133.333333333333,4,3,2,5,0,0
25291,-133.333333333333,4,3,2,60,0,0
26662,-133.333333333333,4,3,2,5,0,0
26748,-133.333333333333,4,3,2,60,0,0
26919,-133.333333333333,4,3,2,5,0,0
27005,-133.333333333333,4,3,2,60,0,0
27091,-133.333333333333,4,3,2,5,0,0
27176,-133.333333333333,4,3,2,60,0,0
27262,-133.333333333333,4,3,2,5,0,0
27348,-133.333333333333,4,3,2,60,0,0
27433,-133.333333333333,4,3,2,5,0,0
27519,-133.333333333333,4,3,2,60,0,0
28291,-133.333333333333,4,3,2,5,0,0
28376,-133.333333333333,4,3,2,60,0,0
28462,-133.333333333333,4,3,2,5,0,0
28548,-133.333333333333,4,3,2,60,0,0
28891,-133.333333333333,4,3,1,60,0,0
35748,-133.333333333333,4,3,5,60,0,0
37119,-86.9565217391303,4,3,4,60,0,0
39862,-100,4,3,5,85,0,1
40033,-100,4,3,5,5,0,1
40063,-100,4,2,5,5,0,1
40119,-100,4,3,5,85,0,1
40291,-100,4,3,5,5,0,1
40376,-100,4,3,5,85,0,1
40462,-100,4,3,5,5,0,1
40548,-100,4,3,5,85,0,1
40719,-100,4,3,5,5,0,1
40805,-100,4,3,5,85,0,1
40976,-100,4,3,5,5,0,1
41062,-100,4,3,5,85,0,1
43976,-100,4,3,5,85,0,1
45519,-100,4,3,5,5,0,1
45605,-100,4,3,5,85,0,1
45776,-100,4,3,5,5,0,1
45862,-100,4,3,5,85,0,1
45948,-100,4,3,5,5,0,1
46033,-100,4,3,5,85,0,1
46205,-100,4,3,5,5,0,1
46291,-100,4,3,5,85,0,1
46462,-100,4,3,5,5,0,1
46548,-100,4,3,5,85,0,1
46633,-100,4,3,5,5,0,1
46719,-100,4,3,5,85,0,1
50491,-66.6666666666667,4,3,5,85,0,0
50833,-62.5,4,3,4,85,0,1
51005,-62.5,4,3,5,5,0,1
51091,-62.5,4,3,5,85,0,1
51262,-62.5,4,3,5,5,0,1
51348,-62.5,4,3,5,85,0,1
51433,-62.5,4,3,5,5,0,1
51519,-62.5,4,3,5,85,0,1
51691,-62.5,4,3,5,5,0,1
51776,-62.5,4,3,5,85,0,1
51948,-62.5,4,3,5,5,0,1
52033,-62.5,4,3,5,85,0,1
52119,-62.5,4,3,5,5,0,1
52205,-125,4,3,5,85,0,1
53576,-76.9230769230769,4,3,5,85,0,1
56319,-62.5,4,3,5,85,0,1
56576,-62.5,4,3,5,85,0,1
56748,-62.5,4,3,5,5,0,1
56833,-62.5,4,3,5,85,0,1
56919,-62.5,4,3,5,5,0,1
57005,-62.5,4,3,5,85,0,1
57176,-62.5,4,3,5,5,0,1
57262,-62.5,4,3,5,85,0,1
57433,-62.5,4,3,5,5,0,1
57519,-62.5,4,3,5,85,0,1
57605,-125,4,3,5,5,0,1
57691,-125,4,3,5,93,0,1
58891,-125,4,3,5,85,0,0
59062,-62.5,4,3,5,85,0,1
59233,-62.5,4,3,4,85,0,0
59404,-62.5,4,3,5,85,0,1
59576,-62.5,4,3,4,85,0,0
59747,-62.5,4,3,4,85,0,1
59919,-62.5,4,3,4,85,0,0
60005,-62.5,4,3,4,85,0,1
60047,-62.5,4,2,4,5,0,1
60092,-62.5,4,3,4,85,0,1
60176,-62.5,4,3,4,85,0,0
60262,-62.5,4,3,4,85,0,1
60390,-62.5,4,2,4,5,0,1
60433,-100,4,3,0,85,0,0
61805,-100,4,3,1,60,0,0
64376,-76.9230769230769,4,3,1,60,0,0
65062,-100,4,3,1,60,0,0
65748,-76.9230769230769,4,3,1,60,0,0
66605,-100,4,3,1,60,0,0
68491,-76.9230769230769,4,3,1,60,0,0
68662,-100,4,3,1,60,0,0
69862,-76.9230769230769,4,3,1,60,0,0
70548,-100,4,3,1,60,0,0
71233,-76.9230769230769,4,3,1,60,0,0
71919,-100,4,3,1,60,0,0
73633,-100,4,3,1,46,0,0
73976,-100,4,3,1,60,0,0
76891,-76.9230769230769,4,3,1,60,0,0
77577,-100,4,3,1,60,0,0
82419,-166.666666666667,4,3,0,60,0,0
84005,-166.666666666667,4,3,0,60,0,0

[Colours]
Combo1 : 239,133,114
Combo2 : 89,126,39
Combo3 : 93,93,93
Combo4 : 109,223,77
Combo5 : 197,220,190
Combo6 : 255,243,159

[HitObjects]
0,0,91,69,0,1:0:0:0:
101,195,262,1,0,0:0:0:0:
97,153,347,1,0,0:0:0:0:
94,112,433,1,0,0:0:0:0:
91,71,519,1,0,0:0:0:0:
88,30,604,1,0,0:0:0:0:
179,205,776,1,0,3:0:0:0:
182,162,862,1,0,3:0:0:0:
186,122,948,1,0,3:0:0:0:
0,0,1119,1,0,0:3:0:0:
0,23,1205,2,0,L|10:69,1,47.0749985633849,0|0,0:3|0:0,0:0:0:0:
201,17,1462,21,2,1:3:0:0:
254,44,1548,1,2,0:0:0:0:
310,68,1633,2,0,L|412:104,1,94.1499971267696,2|8,0:0|1:0,0:0:0:0:
248,129,1976,1,2,0:0:0:0:
248,129,2062,1,2,0:0:0:0:
325,160,2148,1,2,1:3:0:0:
240,222,2319,1,2,0:0:0:0:
240,222,2405,1,2,0:0:0:0:
322,252,2491,2,0,L|424:291,1,94.1499971267698,10|0,1:1|0:0,0:0:0:0:
474,7,2833,5,2,1:3:0:0:
417,32,2919,1,2,0:0:0:0:
361,56,3004,2,0,L|259:92,1,94.1499971267696,2|8,0:0|1:0,0:0:0:0:
438,116,3347,1,2,3:0:0:0:
438,116,3433,1,2,3:0:0:0:
361,147,3519,1,2,3:0:0:0:
446,213,3690,1,2,3:0:0:0:
446,213,3776,1,2,3:0:0:0:
363,238,3862,2,0,B|303:245|303:245|265:174|265:174|208:174,1,174.849991996002,12|0,1:0|3:0,3:0:0:0:
229,336,4205,69,2,1:1:0:0:
229,336,4291,1,2,3:0:0:0:
142,360,4376,2,0,L|88:383,3,47.0749985633849,2|0|8|0,3:0|0:0|1:0|0:0,3:0:0:0:
191,262,4718,1,2,3:0:0:0:
191,262,4804,1,2,3:0:0:0:
112,287,4890,2,0,L|50:313,1,47.0749985633849,2|0,1:0|0:0,0:0:0:0:
152,186,5062,1,2,3:0:0:0:
152,186,5148,1,2,3:0:0:0:
73,215,5233,1,10,3:2:0:0:
64,218,5319,1,0,3:0:0:0:
55,220,5405,1,0,3:0:0:0:
49,222,5491,1,0,3:0:0:0:
4,153,5576,6,0,B|-16:133|44:108|95:88,1,87.424995998001,4|0,3:3|3:3,3:3:0:0:
268,13,5748,2,0,B|288:33|228:58|177:78,1,87.4249959980008,0|0,3:3|3:3,3:3:0:0:
8,13,5919,1,0,3:3:0:0:
8,13,6005,1,0,3:3:0:0:
8,13,6091,2,0,B|-12:33|48:58|99:78,1,87.4249959980008,0|0,3:3|3:3,3:3:0:0:
283,120,6262,1,0,3:3:0:0:
283,120,6348,1,0,3:3:0:0:
283,120,6433,2,0,B|279:148|224:114|178:83,1,87.4249959980008,0|0,3:3|3:3,3:3:0:0:
153,9,6605,1,0,3:3:0:0:
153,9,6691,1,0,3:3:0:0:
153,9,6776,1,0,3:3:0:0:
153,9,6862,1,0,3:3:0:0:
237,7,6948,70,0,L|195:137,1,134.5,6|0,1:3|3:3,3:3:0:0:
136,270,7291,2,0,L|181:144,1,134.5,10|0,1:3|3:3,3:3:0:0:
310,150,7548,1,2,3:3:0:0:
290,163,7633,2,0,L|265:246,1,67.2499999999998,2|0,1:3|0:0,0:0:0:0:
234,299,7805,2,0,L|255:235,1,67.2499999999998,2|0,3:3|0:0,0:0:0:0:
348,21,7976,2,0,L|304:167,1,134.5,10|0,1:3|3:3,3:3:0:0:
342,353,8319,6,0,L|421:362,1,67.2499999999998,2|0,1:3|0:0,0:0:0:0:
482,384,8491,2,0,L|394:375,1,67.2499999999998,2|0,3:3|0:0,0:0:0:0:
177,304,8662,2,0,L|258:312,1,67.2499999999998,10|0,1:3|0:0,0:0:0:0:
329,338,8833,2,0,L|181:321,1,134.5,2|0,3:3|0:0,0:0:0:0:
109,223,9091,1,2,3:3:0:0:
131,243,9176,2,0,B|106:273|106:273|64:301,1,67.2499999999998,2|0,3:3|0:0,0:0:0:0:
0,379,9348,2,0,B|43:374|43:374|60:376|60:376|80:369|80:369|115:365,1,117.687501122355,12|0,1:0|0:0,3:3:0:0:
410,96,9691,70,0,L|443:241,1,134.5,2|0,1:3|3:3,3:3:0:0:
454,376,10033,2,0,L|421:231,1,134.5,10|0,1:3|3:3,3:3:0:0:
321,171,10291,1,2,3:3:0:0:
306,188,10376,2,0,L|325:277,1,67.2499999999998,2|0,1:3|0:0,0:0:0:0:
316,340,10548,2,0,L|297:251,1,67.2499999999998,2|0,3:3|0:0,0:0:0:0:
163,120,10719,2,0,L|203:273,1,134.5,10|0,1:3|3:3,3:3:0:0:
108,4,11062,6,0,L|150:159,1,134.5,2|0,1:3|0:0,3:3:0:0:
0,239,11405,2,0,L|25:169,1,67.2499999999998,10|0,1:3|0:0,0:0:0:0:
61,116,11576,2,0,L|37:183,1,67.2499999999998,2|0,3:3|0:0,0:0:0:0:
55,316,11748,2,2,B|73:348|109:351|109:351|145:356|149:344,1,100.875,2|0,1:3|2:0,3:3:0:0:
296,264,12091,2,2,B|341:249|363:264|363:264|410:300|419:353|379:403|379:403,1,201.749999999999,10|0,1:3|2:0,0:3:0:0:
288,255,12433,70,0,L|147:240,1,134.5,2|0,1:3|2:0,3:3:0:0:
0,242,12776,2,0,L|157:256,1,134.5,10|0,1:3|3:3,3:3:0:0:
217,129,13033,1,2,3:3:0:0:
182,147,13119,2,0,L|99:143,1,67.2499999999998,2|0,1:3|0:0,0:0:0:0:
20,156,13291,2,0,L|96:161,1,67.2499999999998,2|0,3:3|0:0,0:0:0:0:
291,77,13462,1,10,1:3:0:0:
335,91,13548,1,2,0:3:0:0:
379,105,13633,1,2,0:3:0:0:
423,119,13719,1,2,0:3:0:0:
461,134,13805,6,0,L|477:51,1,67.2499999999998,2|0,1:3|0:0,0:0:0:0:
501,6,13976,2,0,L|486:98,1,67.2499999999998,2|0,3:3|0:0,0:0:0:0:
398,283,14148,2,0,L|414:200,1,67.2499999999998,10|0,1:3|0:0,0:0:0:0:
440,135,14319,2,0,L|415:280,1,134.5,2|0,3:3|0:0,0:0:0:0:
395,375,14576,1,2,3:3:0:0:
447,382,14662,2,0,L|435:313,1,67.2499999999998,2|0,3:3|0:0,0:0:0:0:
233,319,14833,2,0,B|186:309|186:309|179:294|179:294|163:295|163:295|93:279,1,117.687501122355,10|0,1:3|0:0,3:3:0:0:
91,12,15176,70,0,L|113:169,1,134.5,2|0,1:3|3:3,3:3:0:0:
105,289,15519,2,0,B|88:154,1,134.5,10|0,1:3|3:3,3:3:0:0:
178,96,15776,1,2,3:3:0:0:
199,86,15862,2,0,L|206:164,1,67.2499999999998,2|0,1:3|0:0,0:0:0:0:
190,237,16033,2,0,L|179:149,1,67.2499999999998,2|0,3:3|0:0,0:0:0:0:
292,120,16205,1,10,1:3:0:0:
295,143,16291,1,0,3:3:0:0:
297,163,16376,1,0,3:3:0:0:
299,180,16462,1,0,3:3:0:0:
300,197,16548,6,0,L|351:198,2,33.6249999999999,0|0|0,1:3|0:0|0:0,0:0:0:0:
419,201,16719,1,0,0:0:0:0:
419,201,16805,1,0,3:3:0:0:
501,206,16976,1,0,3:3:0:0:
501,206,17062,1,0,3:3:0:0:
285,315,17233,2,0,L|289:350,6,33.6249999999999
231,310,17576,2,0,L|263:296,1,33.6249999999999
239,241,17662,2,0,L|267:263,1,33.6249999999999
303,216,17748,2,0,L|298:252,1,33.6249999999999
357,257,17833,2,0,L|322:276,1,33.6249999999999
342,326,17919,69,4,1:2:0:0:
502,194,18091,1,2,3:2:0:0:
502,194,18262,2,0,P|447:163|398:167,1,100.875003848076,0|0,0:2|0:2,0:0:0:0:
282,0,18519,2,0,P|333:35|351:80,1,100.875003848076,2|0,0:2|0:0,0:0:0:0:
502,194,18776,2,0,P|480:173|445:165,1,50.4375019240378,2|0,0:2|0:0,0:0:0:0:
349,68,18948,2,0,P|353:100|352:125,1,50.4375019240378,2|0,0:2|0:0,0:0:0:0:
502,194,19119,2,0,P|446:160|403:163,1,100.875003848076,2|0,0:2|0:0,0:0:0:0:
281,356,19462,5,2,3:2:0:0:
281,356,19633,2,0,P|251:317|189:298,1,100.875003848076,2|0,3:2|3:2,3:2:0:0:
106,146,19891,2,0,P|153:171|182:228,1,100.875003848076,2|0,0:2|0:2,0:0:0:0:
281,356,20148,2,0,B|273:328|249:317,1,50.4375019240378,2|0,0:2|0:0,0:0:0:0:
180,217,20319,1,2,0:2:0:0:
171,266,20404,1,2,0:2:0:0:
142,306,20491,2,0,P|94:330|37:327,1,100.875003848076,2|0,0:2|0:1,0:0:0:0:
23,37,20833,69,2,3:2:0:0:
23,37,21005,2,0,P|89:52|116:85,1,100.875003848076,0|0,0:2|0:2,0:0:0:0:
299,86,21262,2,0,P|233:71|206:38,1,100.875003848076,2|0,0:2|0:0,0:0:0:0:
23,37,21519,2,0,P|56:36|87:49,1,50.4375019240378,2|0,0:2|0:0,0:0:0:0:
212,49,21691,2,0,P|206:24|204:-11,1,50.4375019240378,2|2,0:2|0:0,0:0:0:0:
23,37,21862,2,0,P|89:52|116:85,1,100.875003848076,2|0,0:2|0:0,0:0:0:0:
382,139,22205,5,2,3:2:0:0:
382,139,22376,2,0,P|306:153|274:139,1,100.875003848076,2|0,0:2|0:2,0:0:0:0:
72,217,22633,2,0,P|147:202|184:220,1,100.875003848076,2|0,0:2|0:0,0:0:0:0:
382,139,22890,2,0,P|348:155|315:155,1,50.4375019240378,2|0,0:2|2:0,0:0:0:0:
168,210,23062,2,0,P|190:234|204:268,1,50.4375019240378,2|0,0:2|0:2,0:0:0:0:
382,139,23233,2,0,P|327:176|303:238,1,134.5,2|0,0:2|0:0,0:2:0:0:
287,373,23576,69,2,3:2:0:0:
287,373,23748,2,0,P|286:326|294:308,1,50.4375019240378,2|0,0:2|0:0,0:0:0:0:
450,269,23919,1,2,0:2:0:0:
483,298,24005,2,0,P|436:250|387:245,1,100.875003848076,2|0,0:2|0:0,0:0:0:0:
287,373,24262,2,0,P|285:332|294:308,1,50.4375019240378,0|0,0:2|0:0,0:0:0:0:
403,242,24433,2,0,P|371:247|346:266,1,50.4375019240378,2|0,3:2|0:0,0:0:0:0:
287,373,24605,2,0,P|285:332|328:272,1,100.875003848076,2|0,0:2|0:2,0:2:0:0:
415,66,24948,5,2,3:2:0:0:
415,66,25119,2,0,P|372:54|350:55,1,50.4375019240378,2|0,0:2|0:0,0:0:0:0:
162,170,25290,1,2,0:2:0:0:
162,170,25376,1,2,0:2:0:0:
182,135,25461,1,2,3:2:0:0:
210,106,25547,1,2,0:2:0:0:
242,81,25633,1,2,0:2:0:0:
495,128,25805,1,2,0:2:0:0:
458,92,25891,1,2,3:2:0:0:
415,66,25976,2,0,P|365:53|303:59,1,100.875003848076,0|0,3:2|0:0,0:0:0:0:
36,248,26319,69,2,3:2:0:0:
36,248,26491,2,0,P|89:250|140:288,1,100.875003848076,2|0,3:2|3:2,3:2:0:0:
297,347,26749,2,0,P|256:311|193:303,1,100.875003848076,2|0,0:2|0:0,0:0:0:0:
36,248,27005,2,0,P|75:249|102:258,1,50.4375019240378,2|0,3:2|0:0,0:0:0:0:
211,301,27176,2,0,P|176:306|160:313,1,50.4375019240378,2|0,3:2|0:0,0:0:0:0:
36,248,27348,2,0,P|75:249|102:258,1,50.4375019240378,2|0,3:2|0:0,0:0:0:0:
297,347,27519,5,0,3:0:0:0:
219,286,27691,2,0,L|168:274,1,50.4375019240378,0|0,0:0|3:0,0:0:0:0:
319,211,27862,1,0,3:0:0:0:
499,325,28033,1,0,0:0:0:0:
461,345,28119,1,0,0:3:0:0:
419,363,28205,2,0,P|430:323|424:299,1,50.4375019240378,0|0,0:1|0:1,0:1:0:0:
263,215,28376,2,0,B|295:230|326:213,1,50.4375019240378,0|0,0:1|0:1,0:1:0:0:
441,130,28548,1,0,0:1:0:0:
421,164,28633,1,0,0:1:0:0:
385,170,28719,1,0,0:1:0:0:
350,155,28805,1,0,0:1:0:0:
346,118,28891,69,4,1:2:0:0:
346,118,29062,1,0,3:0:0:0:
154,16,29233,1,8,0:2:0:0:
100,159,29405,1,0,0:0:0:0:
127,164,29491,1,0,0:0:0:0:
151,155,29576,2,0,P|161:125|158:96,1,50.4375019240378
141,12,29748,1,8,0:2:0:0:
31,176,29919,1,0,3:0:0:0:
37,201,30005,1,0,0:0:0:0:
54,218,30091,2,0,P|85:214|127:162,1,100.875003848076,0|0,1:0|1:0,0:0:0:0:
290,349,30433,5,0,3:0:0:0:
132,351,30605,1,8,0:2:0:0:
191,232,30775,1,0,0:0:0:0:
218,227,30861,1,0,0:0:0:0:
242,236,30947,2,0,P|252:266|249:295,1,50.4375019240378
146,342,31118,1,8,0:2:0:0:
295,173,31291,1,0,0:0:0:0:
322,175,31377,1,0,0:0:0:0:
343,191,31462,2,0,P|346:224|317:296,1,100.875003848076,0|0,1:0|1:0,0:0:0:0:
453,355,31805,69,0,3:0:0:0:
451,201,31976,1,8,0:2:0:0:
441,43,32148,1,0,0:0:0:0:
411,46,32233,1,0,0:0:0:0:
383,51,32319,2,0,L|394:106,1,50.4375019240378
460,219,32491,1,8,0:2:0:0:
453,58,32662,1,0,0:0:0:0:
423,61,32747,1,0,0:0:0:0:
395,66,32833,2,0,L|422:177,1,100.875003848076,0|0,1:0|1:0,0:0:0:0:
265,380,33175,5,0,3:0:0:0:
267,226,33347,1,8,0:2:0:0:
277,68,33518,1,0,0:0:0:0:
307,71,33604,1,0,0:0:0:0:
335,76,33690,2,0,L|324:131,1,50.4375019240378
258,244,33861,1,8,0:2:0:0:
265,83,34033,1,0,0:0:0:0:
295,86,34118,1,0,0:0:0:0:
323,91,34205,2,0,L|312:146,1,50.4375019240378,0|0,1:0|0:0,0:0:0:0:
119,325,34376,69,4,1:2:0:0:
216,174,34548,1,0,3:0:0:0:
322,16,34719,1,8,0:2:0:0:
443,196,34891,1,0,3:0:0:0:
398,186,34976,1,0,3:0:0:0:
370,153,35062,1,0,0:0:0:0:
323,32,35233,1,8,0:2:0:0:
124,9,35405,1,0,0:0:0:0:
120,48,35491,1,0,0:0:0:0:
140,77,35576,1,0,1:0:0:0:
173,94,35662,1,0,0:0:0:0:
215,81,35748,5,2,1:3:0:0:
0,82,35919,1,2,0:0:0:0:
40,53,36005,1,2,3:0:0:0:
70,192,36176,1,2,0:0:0:0:
106,168,36262,1,2,3:0:0:0:
220,74,36433,1,2,0:0:0:0:
0,90,36605,1,2,0:0:0:0:
66,40,36691,1,2,3:0:0:0:
71,205,36862,1,2,0:0:0:0:
141,159,36948,1,2,3:0:0:0:
269,360,37119,69,6,0:2:0:0:
254,313,37204,1,0,0:0:0:0:
239,264,37291,1,0,0:0:0:0:
225,216,37377,5,2,0:2:0:0:
189,253,37463,1,0,0:0:0:0:
153,289,37548,1,0,0:0:0:0:
119,326,37634,69,2,0:2:0:0:
169,339,37720,1,0,0:0:0:0:
234,298,37805,5,6,3:2:0:0:
280,286,37890,1,0,3:0:0:0:
330,273,37976,1,0,3:0:0:0:
380,260,38062,69,2,3:2:0:0:
344,224,38147,1,0,3:0:0:0:
308,187,38233,1,0,3:0:0:0:
272,151,38319,5,2,3:2:0:0:
257,200,38406,1,0,3:0:0:0:
293,235,38491,69,6,3:2:0:0:
15,322,39862,54,2,P|65:310|47:372,1,134.5,2|0,1:3|0:0,0:0:0:0:
159,230,40119,2,0,P|209:218|191:280,1,134.5,2|0,0:0|0:0,0:0:0:0:
299,125,40376,2,0,P|327:142|338:173,1,67.2499999999998,2|0,0:0|0:0,0:0:0:0:
36,314,40548,6,0,P|86:302|68:364,1,134.5,2|0,1:3|0:0,0:0:0:0:
180,222,40805,2,0,P|230:210|212:272,1,134.5,2|0,0:0|0:0,0:0:0:0:
329,104,41062,2,0,P|370:143|364:178,1,67.2499999999998,2|0,3:0|0:0,0:0:0:0:
383,358,41233,69,2,1:3:0:0:
371,139,41405,1,2,3:0:0:0:
321,259,41491,1,2,0:0:0:0:
376,26,41662,1,2,3:0:0:0:
253,139,41748,1,2,0:0:0:0:
416,358,41919,5,2,1:3:0:0:
404,139,42091,1,2,3:0:0:0:
354,259,42177,1,2,0:0:0:0:
409,26,42348,1,2,3:0:0:0:
286,139,42434,1,2,0:0:0:0:
512,32,42605,70,0,P|472:95|468:101,1,67.2499999999998,2|0,1:3|0:0,0:0:0:0:
445,238,42776,1,0,0:0:0:0:
504,242,42862,2,0,L|486:157,1,67.2499999999998,2|0,0:0|0:0,0:0:0:0:
409,94,43033,1,0,0:0:0:0:
468,98,43119,2,0,L|450:18,1,67.2499999999998,2|0,3:0|0:0,0:0:0:0:
240,32,43291,6,0,L|275:101,1,67.2499999999998,2|0,1:3|0:0,3:0:0:0:
301,227,43462,1,0,3:0:0:0:
238,234,43548,2,0,L|256:149,1,67.2499999999998,2|0,3:0|0:0,3:0:0:0:
331,97,43719,1,0,3:0:0:0:
272,101,43805,2,0,L|290:21,1,67.2499999999998,2|0,3:0|0:0,0:0:0:0:
376,179,43976,69,2,1:3:0:0:
166,77,44148,1,2,3:0:0:0:
151,9,44233,1,2,0:0:0:0:
178,245,44405,1,2,3:0:0:0:
192,164,44491,1,2,0:0:0:0:
108,153,44576,1,2,3:0:0:0:
98,235,44662,5,2,1:3:0:0:
264,69,44833,1,2,3:0:0:0:
251,2,44918,1,2,0:0:0:0:
170,245,45091,1,2,3:0:0:0:
183,159,45177,1,2,0:0:0:0:
97,149,45262,1,2,3:0:0:0:
83,231,45348,70,0,P|133:265|215:246,1,134.5,2|0,1:3|0:0,0:0:0:0:
255,103,45605,2,0,P|305:137|387:118,1,134.5,2|0,0:3|0:0,0:0:0:0:
461,14,45861,2,0,P|429:23|407:48,1,67.2499999999998,2|0,0:3|0:0,0:0:0:0:
84,261,46033,70,0,P|134:295|216:276,1,134.5,2|0,1:3|0:0,0:0:0:0:
256,133,46290,2,0,P|306:167|388:148,1,134.5,2|0,0:3|0:0,0:0:0:0:
462,44,46546,2,0,P|430:53|408:78,1,67.2499999999998,2|0,0:3|0:0,0:0:0:0:
162,161,46719,69,2,1:3:0:0:
301,183,46891,1,2,3:0:0:0:
288,71,46976,1,2,0:0:0:0:
413,290,47148,1,2,3:0:0:0:
454,120,47233,1,2,0:0:0:0:
174,137,47405,5,2,1:3:0:0:
291,211,47577,1,2,3:0:0:0:
282,99,47662,1,2,0:0:0:0:
403,318,47834,1,2,3:0:0:0:
444,148,47919,1,2,0:0:0:0:
203,381,48091,70,0,P|173:332|190:307,1,67.2499999999998,2|0,1:3|0:0,0:0:0:0:
118,184,48262,1,0,0:0:0:0:
56,192,48348,2,0,P|64:244|74:280,1,67.2499999999998,2|0,0:0|0:0,0:0:0:0:
232,255,48519,1,0,0:0:0:0:
170,263,48605,2,0,P|178:315|188:351,1,67.2499999999998,2|0,3:0|0:0,0:0:0:0:
353,357,48776,6,0,P|320:311|334:285,1,67.2499999999998,2|0,1:3|0:0,3:0:0:0:
316,153,48948,1,0,0:0:0:0:
254,161,49034,2,0,P|262:213|272:249,1,67.2499999999998,2|0,3:0|0:0,3:0:0:0:
430,224,49205,1,0,3:0:0:0:
368,232,49291,2,0,P|376:284|386:320,1,67.2499999999998,2|0,3:0|0:0,0:0:0:0:
503,375,49462,69,2,1:3:0:0:
512,175,49634,1,2,0:0:0:0:
504,239,49719,1,2,0:0:0:0:
381,100,49892,1,2,0:0:0:0:
365,178,49977,1,2,0:0:0:0:
280,161,50063,1,2,0:0:0:0:
507,17,50319,1,2,0:0:0:0:
492,95,50405,1,2,0:0:0:0:
492,95,50491,21,4,1:2:0:0:
372,360,50833,70,0,B|407:389|455:369|461:331|485:286|408:228|347:295|360:304,1,215.199999999999,6|0,1:2|0:0,0:0:0:0:
198,369,51091,2,0,B|233:398|281:378|287:340|311:295|234:237|173:304|186:313,1,215.199999999999,2|0,0:0|0:0,0:0:0:0:
26,326,51348,2,0,B|51:365|76:368|140:304,1,107.6,2|0,0:0|0:0,0:0:0:0:
400,342,51519,70,0,B|435:371|483:351|489:313|513:268|436:210|375:277|388:286,1,215.199999999999,2|0,1:3|0:0,0:0:0:0:
226,351,51777,2,0,B|261:380|309:360|315:322|339:277|262:219|201:286|214:295,1,215.199999999999,2|0,0:0|0:0,0:0:0:0:
54,308,52034,2,0,B|79:347|104:350|168:286,1,107.6,2|0,0:0|0:0,0:0:0:0:
194,29,52206,6,0,L|194:126,1,53.7999999999998,2|0,1:3|2:0,0:0:0:0:
142,268,52377,1,2,0:0:0:0:
20,203,52462,2,0,L|53:262,1,53.7999999999998,2|0,0:0|0:0,0:0:0:0:
208,203,52634,1,2,0:0:0:0:
103,32,52719,1,2,0:0:0:0:
210,18,52891,70,0,L|210:115,1,53.7999999999998,2|0,1:3|2:0,0:0:0:0:
142,246,53062,1,2,0:0:0:0:
20,169,53148,2,0,L|53:228,1,53.7999999999998,2|0,0:0|0:0,0:0:0:0:
227,196,53319,1,2,0:0:0:0:
122,16,53405,1,2,0:0:0:0:
287,64,53576,6,0,P|285:115|222:117,1,87.424995998001,2|0,1:3|0:0,0:0:0:0:
45,46,53748,1,0,0:0:0:0:
107,28,53833,2,0,L|102:124,1,87.424995998001,2|0,0:0|0:0,0:0:0:0:
35,195,54005,1,0,0:0:0:0:
90,177,54091,2,0,L|81:286,1,87.424995998001,2|0,0:0|0:0,0:0:0:0:
49,384,54262,70,0,P|17:344|61:300,1,87.424995998001,2|0,1:3|0:0,0:0:0:0:
253,312,54433,1,0,0:0:0:0:
191,330,54519,2,0,L|200:228,1,87.424995998001,2|0,0:0|0:0,0:0:0:0:
265,137,54690,1,0,0:0:0:0:
210,155,54776,2,0,L|219:46,1,87.424995998001,2|0,0:0|0:0,0:0:0:0:
344,0,54948,5,2,1:3:0:0:
369,127,55119,1,2,0:0:0:0:
323,74,55205,1,2,0:0:0:0:
392,292,55376,1,2,0:0:0:0:
369,219,55462,1,2,0:0:0:0:
448,199,55547,1,2,0:0:0:0:
470,273,55633,69,2,1:3:0:0:
246,239,55805,1,2,0:0:0:0:
301,295,55891,1,2,0:0:0:0:
276,45,56061,1,2,0:0:0:0:
262,120,56147,1,2,0:0:0:0:
185,109,56233,1,2,0:0:0:0:
193,28,56319,6,0,P|258:33|365:158,1,215.199999999999,6|0,1:2|0:0,0:0:0:0:
98,122,56576,2,0,P|163:127|270:252,1,215.199999999999,2|0,0:0|0:0,0:0:0:0:
67,344,56833,2,0,P|47:295|71:249,1,107.6,2|0,0:0|0:0,0:0:0:0:
167,48,57005,70,0,P|232:53|339:178,1,215.199999999999,6|0,1:2|0:0,0:0:0:0:
72,142,57262,2,0,P|137:147|244:272,1,215.199999999999,2|0,0:0|0:0,0:0:0:0:
41,346,57519,2,0,P|21:297|45:251,1,107.6,2|0,0:0|0:0,0:0:0:0:
60,124,57691,6,0,L|90:195,1,53.7999999999998,4|0,1:2|0:0,0:0:0:0:
198,366,57863,1,2,0:0:0:0:
128,265,57948,2,0,L|164:317,1,53.7999999999998,2|0,0:3|0:0,0:0:0:0:
264,240,58120,1,2,0:0:0:0:
86,384,58205,1,2,0:0:0:0:
79,104,58376,70,0,L|109:175,1,53.7999999999998,4|0,1:2|0:0,0:0:0:0:
223,367,58548,1,2,0:0:0:0:
146,260,58633,2,0,L|175:308,1,53.7999999999998,2|0,0:3|0:0,0:0:0:0:
292,274,58805,1,2,0:3:0:0:
108,374,58891,1,2,0:0:0:0:
239,7,59062,5,4,1:2:0:0:
328,384,59233,1,0,1:0:0:0:
0,269,59405,1,4,1:2:0:0:
174,71,59576,1,0,1:0:0:0:
384,211,59748,69,6,1:2:0:0:
333,263,59833,1,0,1:1:0:0:
273,309,59919,1,0,1:1:0:0:
213,351,60005,5,2,1:2:0:0:
207,277,60091,1,4,1:2:0:0:
205,201,60176,1,0,1:1:0:0:
205,128,60262,69,2,1:2:0:0:
271,163,60348,1,0,1:0:0:0:
273,239,60433,22,0,B|272:230|272:230|247:276|247:276|250:260,3,67.2499999999998,6|0|0|0,1:2|0:0|0:0|0:0,0:0:0:0:
449,246,60776,2,0,B|442:261|442:261|417:306|417:306,1,67.2499999999998
449,208,60948,2,0,B|411:273|411:273,1,67.2499999999998
446,166,61119,2,0,B|406:233|406:233,1,67.2499999999998
216,337,61291,1,0,0:0:0:0:
269,340,61376,1,0,0:0:0:0:
326,348,61462,2,0,P|339:324|339:319,3,33.6249999999999
264,264,61633,1,0,3:0:0:0:
242,27,61805,37,0,1:3:0:0:
263,181,61976,1,2,0:0:0:0:
99,201,62148,1,8,1:1:0:0:
75,48,62319,2,0,B|86:58|86:58|99:139,1,67.2499999999998,2|0,0:0|0:0,0:0:0:0:
103,291,62491,1,0,1:1:0:0:
103,291,62576,1,0,0:0:0:0:
103,291,62662,1,2,0:0:0:0:
173,139,62833,1,8,1:1:0:0:
19,163,63005,1,2,0:3:0:0:
198,328,63176,69,0,1:0:0:0:
98,193,63347,1,2,0:0:0:0:
241,83,63519,1,8,1:1:0:0:
337,212,63691,2,0,B|342:200|342:200|294:151,1,67.2499999999998,2|0,0:3|0:0,0:0:0:0:
165,138,63862,1,0,1:2:0:0:
165,138,63948,1,0,0:0:0:0:
165,138,64034,1,2,0:3:0:0:
191,321,64205,1,8,1:1:0:0:
485,279,64376,2,0,B|488:264|488:264|355:196|355:196|352:165,1,174.849991996002,2|0,0:3|1:0,0:0:0:0:
492,371,64719,1,2,0:3:0:0:
368,172,64891,6,0,B|369:183|369:183|501:251|501:251|499:268,1,174.849991996002,8|2,1:1|0:3,0:0:0:0:
367,335,65149,1,0,0:0:0:0:
367,335,65233,2,0,B|358:320|358:320|366:252,1,67.2499999999998,0|0,1:3|0:0,0:0:0:0:
497,102,65405,2,0,B|511:123|511:123|506:164,1,67.2499999999998,2|0,0:3|0:0,0:0:0:0:
383,339,65576,1,8,1:1:0:0:
483,87,65748,2,0,B|487:102|487:102|354:182|354:182|353:215,1,174.849991996002,2|0,0:3|1:1,0:0:0:0:
448,0,66091,1,2,0:3:0:0:
338,192,66262,70,0,B|334:177|334:177|467:97|467:97|465:-13,1,262.274987994003,8|0,1:1|0:0,0:0:0:0:
324,17,66605,2,0,B|315:32|315:32|319:95,1,67.2499999999998,0|0,1:0|0:0,0:0:0:0:
487,211,66776,1,2,0:1:0:0:
487,211,66862,1,0,0:0:0:0:
487,211,66948,2,0,B|498:230|498:230|495:276,1,67.2499999999998,8|0,1:1|0:0,0:0:0:0:
330,357,67119,1,2,0:3:0:0:
204,16,67291,5,0,1:0:0:0:
292,157,67462,1,2,0:3:0:0:
151,245,67633,1,8,1:1:0:0:
63,104,67805,2,0,B|80:107|80:107|119:171,1,67.2499999999998,2|0,0:3|0:0,0:0:0:0:
191,332,67976,1,0,1:2:0:0:
191,332,68062,1,0,0:2:0:0:
191,332,68148,1,2,0:3:0:0:
22,226,68319,1,8,1:1:0:0:
171,0,68491,70,0,B|147:0|147:0|100:104|100:104|55:106,1,174.849991996002,2|0,0:3|1:2,3:2:0:0:
166,220,68833,1,2,0:3:0:0:
260,102,69004,1,8,1:1:0:0:
171,0,69176,2,0,B|205:-2|205:-2|231:42,1,67.2499999999998,2|0,0:3|0:0,0:0:0:0:
373,61,69347,1,0,1:2:0:0:
373,61,69433,1,0,0:0:0:0:
373,61,69519,1,2,0:3:0:0:
332,227,69691,1,8,1:1:0:0:
63,198,69862,2,0,B|66:220|66:220|9:324|9:324|35:385,1,174.849991996002,2|0,0:3|1:2,0:2:0:0:
35,117,70205,5,2,0:3:0:0:
39,347,70376,2,0,B|26:316|26:316|83:212|83:212|80:190,1,174.849991996002,8|2,1:1|0:3,0:2:0:0:
209,327,70634,1,0,0:0:0:0:
209,327,70719,2,0,B|198:316|198:316|131:304,1,67.2499999999998,0|0,1:3|0:0,0:0:0:0:
30,103,70891,2,0,B|35:109|35:109|93:120,1,67.2499999999998,2|0,0:3|0:0,0:0:0:0:
213,343,71062,1,8,1:1:0:0:
187,69,71233,2,0,B|170:107|170:107|223:205|223:205|220:226,1,174.849991996002,2|0,0:3|1:2,0:2:0:0:
261,10,71576,69,2,0:3:0:0:
207,234,71748,2,0,B|210:213|210:213|157:115|157:115|221:-9,1,262.274987994003,8|0,1:1|0:2,0:2:0:0:
333,109,72091,2,0,B|278:112|278:112|267:105,1,67.2499999999998,0|0,1:3|0:0,0:0:0:0:
22,198,72262,1,2,0:3:0:0:
22,198,72348,1,0,0:0:0:0:
22,197,72433,2,0,B|37:188|37:188|92:193,1,67.2499999999998,8|0,1:1|0:0,0:0:0:0:
252,303,72605,1,2,0:3:0:0:
500,46,72776,5,6,1:2:0:0:
335,60,72948,1,2,0:3:0:0:
356,233,73119,1,8,1:1:0:0:
512,216,73291,70,0,B|494:199|494:199|497:148,1,67.2499999999998,2|0,0:3|0:0,0:0:0:0:
500,46,73462,1,0,1:3:0:0:
457,344,73633,69,4,1:2:0:0:
457,344,73976,1,6,0:2:0:0:
500,46,74148,5,6,1:2:0:0:
512,216,74319,1,2,0:3:0:0:
356,233,74491,1,8,1:1:0:0:
335,60,74662,1,2,0:3:0:0:
458,343,74833,1,2,1:2:0:0:
458,343,74919,1,0,0:0:0:0:
458,343,75005,1,2,0:3:0:0:
335,60,75176,1,8,1:1:0:0:
356,233,75348,1,2,0:3:0:0:
500,46,75519,5,6,1:2:0:0:
512,216,75691,1,2,0:3:0:0:
356,233,75862,1,8,1:1:0:0:
335,60,76033,1,2,0:3:0:0:
55,79,76205,37,6,1:2:0:0:
55,79,76548,1,4,0:2:0:0:
335,203,76891,22,0,B|316:197|316:197|274:68|274:68|255:62,1,174.849991996002,6|2,1:2|0:3,0:0:0:0:
512,54,77233,2,0,B|493:60|493:60|451:189|451:189|314:207,1,262.274987994003,8|0,1:1|0:2,0:0:0:0:
386,285,77577,2,0,B|393:290|393:290|394:365,1,67.2499999999998,0|0,1:0|0:0,0:0:0:0:
382,109,77748,1,2,0:3:0:0:
382,109,77833,1,0,0:0:0:0:
382,109,77919,2,0,B|373:102|373:102|372:18,1,67.2499999999998,8|0,1:1|0:0,0:0:0:0:
375,290,78091,1,2,0:3:0:0:
282,7,78262,5,6,1:2:0:0:
275,179,78433,1,2,0:3:0:0:
103,172,78605,1,8,1:1:0:0:
110,0,78776,2,0,B|118:29|118:29|112:75,1,67.2499999999998,2|0,0:3|0:0,0:0:0:0:
86,278,78948,1,0,1:0:0:0:
86,278,79291,2,0,B|80:252|80:252|93:198,1,67.2499999999998,2|0,0:2|0:0,0:0:0:0:
110,0,79462,1,2,0:2:0:0:
110,0,79548,1,2,0:2:0:0:
110,0,79633,70,0,B|123:32|123:32|108:88,1,67.2499999999998,6|2,1:2|0:2,0:0:0:0:
7,175,79805,1,2,0:3:0:0:
176,128,79976,1,8,1:1:0:0:
223,297,80148,2,0,B|210:285|210:285|204:215,1,67.2499999999998,2|0,0:3|0:0,0:0:0:0:
234,69,80319,1,2,1:2:0:0:
234,69,80405,1,0,0:0:0:0:
234,69,80491,1,2,0:3:0:0:
403,22,80662,1,8,1:1:0:0:
454,199,80833,1,2,0:3:0:0:
130,269,81005,5,4,1:2:0:0:
77,11,81176,1,2,1:3:0:0:
388,216,81348,1,4,1:2:0:0:
130,269,81519,1,2,1:3:0:0:
342,0,81691,1,6,1:2:0:0:
351,53,81776,1,0,1:2:0:0:
363,112,81862,1,2,1:3:0:0:
380,171,81948,1,0,1:2:0:0:
389,226,82033,1,4,1:2:0:0:
402,285,82119,1,0,1:2:0:0:
413,346,82205,2,0,L|359:293,1,67.2499999999998,2|0,1:3|0:0,0:0:0:0:
226,227,82376,70,0,L|228:265,4,33.6249999999999,4|0|0|0|0,2:2|0:0|0:0|0:0|0:0,0:0:0:0:
295,141,82633,1,0,0:0:0:0:
297,148,82719,2,0,L|294:239,1,80.6999975372312,0|0,0:2|0:2,0:2:0:0:
179,353,83062,2,0,L|175:307,1,40.3499987686156,0|0,0:2|0:2,0:2:0:0:
110,256,83233,2,0,L|75:252,1,20.1749993843078,0|0,0:2|0:0,0:0:0:0:
108,276,83320,2,0,L|77:259,1,20.1749993843078
89,294,83405,2,0,L|66:266,1,20.1749993843078,0|0,0:2|0:0,0:0:0:0:
66,309,83492,2,0,L|55:275,1,20.1749993843078,0|0,0:2|0:0,0:0:0:0:
38,315,83576,2,0,L|40:279,1,20.1749993843078
38,315,83663,2,0,L|53:283,1,20.1749993843078
17,302,83748,1,4,0:2:0:0:
