osu file format v14

[General]
AudioFilename: audio.mp3
AudioLeadIn: 0
PreviewTime: 38491
Countdown: 1
SampleSet: Drum
StackLeniency: 0.7
Mode: 0
LetterboxInBreaks: 0
WidescreenStoryboard: 1

[Editor]
Bookmarks: 121,2863,6978,17949,33978,39892,50521,50863,60463,61835,81378,83778
DistanceSpacing: 1
BeatDivisor: 4
GridSize: 4
TimelineZoom: 1.299998

[Metadata]
Title:Come To Me
TitleUnicode:Come To Me
Artist:Daniel Seven
ArtistUnicode:Daniel Seven
Creator:Chai the Tea
Version:Hard
Source:Rhythm Control 2
Tags:video game electronic english techno plumblossom parsee mizuhashi 水橋 パルスィ smiling green eyes anime elf uk hardcore happy hardcore daikonsoft
BeatmapID:2246398
BeatmapSetID:1008404

[Difficulty]
HPDrainRate:5
CircleSize:3.9
OverallDifficulty:7
ApproachRate:7
SliderMultiplier:1.68999999999999
SliderTickRate:1

[Events]
//Background and Video events
0,0,"greenparseeflipped.jpg",0,0
//Break Periods
//Storyboard Layer 0 (Background)
//Storyboard Layer 1 (Fail)
//Storyboard Layer 2 (Pass)
//Storyboard Layer 3 (Foreground)
//Storyboard Layer 4 (Overlay)
//Storyboard Sound Samples

[TimingPoints]
91,342.857142857143,4,3,0,60,1,0
91,-142.857142857143,4,3,1,60,0,0
3862,-142.857142857143,4,1,69,60,0,0
3948,-142.857142857143,4,3,1,60,0,0
6948,-125,4,3,1,60,0,0
9348,-125,4,1,69,60,0,0
9434,-125,4,3,1,60,0,0
17919,-142.857142857143,4,3,1,60,0,0
27519,-125,4,3,1,60,0,0
28891,-144.927536231884,4,3,1,60,0,0
35748,-144.927536231884,4,3,5,60,0,0
39862,-117.647058823529,4,3,5,85,0,1
50491,-144.927536231884,4,3,5,85,0,0
50833,-117.647058823529,4,3,5,85,0,1
58891,-117.647058823529,4,3,5,85,0,0
59062,-117.647058823529,4,3,5,85,0,1
59233,-117.647058823529,4,3,5,85,0,0
59404,-117.647058823529,4,3,5,85,0,1
59576,-117.647058823529,4,3,5,85,0,0
59747,-117.647058823529,4,1,4,85,0,1
59919,-117.647058823529,4,1,4,85,0,0
60005,-117.647058823529,4,1,4,85,0,1
60176,-117.647058823529,4,1,4,60,0,0
60262,-117.647058823529,4,1,4,60,0,0
60433,-117.647058823529,4,3,1,60,0,0
61805,-125,4,3,1,60,0,0

[Colours]
Combo1 : 239,133,114
Combo2 : 89,126,39
Combo3 : 93,93,93
Combo4 : 109,223,77
Combo5 : 197,220,190
Combo6 : 255,243,159

[HitObjects]
488,154,91,69,0,1:0:0:0:
444,81,348,1,0,3:0:0:0:
444,81,433,2,0,P|426:80|409:80,3,29.5749990974425,0|0|0|0,3:0|3:0|3:0|3:0,3:0:0:0:
370,101,776,2,0,P|352:100|335:100,2,29.5749990974425,0|0|0,3:0|3:0|3:0,3:0:0:0:
272,53,1119,1,0,3:0:0:0:
272,53,1205,1,0,3:0:0:0:
189,14,1462,22,0,B|155:7|155:7|133:91,1,118.29999638977,2|8,0:1|0:1,0:1:0:0:
45,138,1976,2,0,L|61:68,1,59.149998194885,2|0,0:1|0:1,0:1:0:0:
63,3,2319,2,0,L|47:73,1,59.149998194885,2|8,0:1|0:1,0:1:0:0:
191,167,2833,6,0,B|244:176|244:176|247:244,1,118.29999638977,2|8,0:1|0:1,0:1:0:0:
322,276,3348,2,0,L|325:208,1,59.149998194885,2|0,0:1|0:1,0:1:0:0:
307,132,3691,2,0,B|327:153|327:153|327:198,1,59.149998194885,2|12,0:1|0:1,0:1:0:0:
159,242,4205,70,0,L|121:249,3,29.5749990974425,2|0|0|0,0:1|0:1|0:1|0:1,0:1:0:0:
96,253,4548,1,8,0:1:0:0:
16,266,4719,2,0,L|6:231,3,29.5749990974425,2|0|0|0,0:1|0:1|0:1|0:1,0:1:0:0:
18,219,5062,2,0,L|12:189,3,29.5749990974425,2|0|8|0,0:1|0:1|0:1|0:1,0:1:0:0:
27,163,5405,1,0,0:1:0:0:
7,89,5576,5,4,0:2:0:0:
97,36,5833,2,0,L|103:8,1,29.5749990974425,0|0,3:3|3:3,3:3:0:0:
173,96,6176,1,0,3:3:0:0:
173,96,6262,2,0,L|181:49,3,29.5749990974425,0|0|0|0,0:3|0:3|0:3|0:3,0:3:0:0:
224,53,6605,2,0,L|232:6,3,29.5749990974425,0|0|0|0,0:3|0:3|0:3|0:3,0:3:0:0:
276,1,6948,70,0,B|340:30|340:30|318:101,1,135.199999999999,2|10,0:0|0:1,0:0:0:0:
466,90,7548,2,0,B|398:85|398:85|386:121,1,101.399999999999,2|2,0:0|0:0,0:0:0:0:
378,190,7976,1,10,0:1:0:0:
483,316,8319,6,0,B|445:313|445:313|454:271,1,67.5999999999996,2|2,0:0|0:0,0:0:0:0:
494,210,8662,2,0,B|461:208|461:208|454:251,1,67.5999999999996,10|2,0:1|0:0,0:0:0:0:
360,285,9091,1,0,0:0:0:0:
360,285,9176,2,0,B|368:357,1,67.5999999999996,2|12,0:0|2:1,0:0:0:0:
247,384,9691,70,0,B|257:238,1,135.199999999999,2|10,0:0|0:1,0:0:0:0:
393,234,10291,2,0,B|329:246|329:246|325:299,1,101.399999999999,2|2,0:0|0:0,0:0:0:0:
324,357,10719,1,10,0:1:0:0:
481,374,11062,5,2,0:0:0:0:
493,214,11405,1,10,0:1:0:0:
456,255,11576,1,2,0:0:0:0:
405,238,11748,2,2,P|396:222|401:175,1,67.5999999999996,2|0,0:0|0:0,0:0:0:0:
435,93,12091,2,2,P|401:121|370:118,1,67.5999999999996,10|0,0:1|0:0,0:0:0:0:
277,70,12433,70,0,B|224:105|224:105|222:193,1,135.199999999999,6|10,0:2|0:1,0:0:0:0:
114,156,13033,2,0,B|151:132|151:132|150:216,1,101.399999999999,2|2,0:0|0:0,0:0:0:0:
85,231,13462,1,10,0:1:0:0:
0,145,13805,6,0,B|28:156|28:156|41:112,1,67.5999999999996,6|2,0:2|0:0,0:0:0:0:
20,35,14148,2,0,B|55:42|55:42|47:83,1,67.5999999999996,10|2,0:1|0:0,0:0:0:0:
161,39,14576,1,2,0:0:0:0:
161,39,14661,2,0,B|163:120,1,67.5999999999996,2|10,0:0|0:1,0:0:0:0:
235,198,15176,70,0,B|238:52,1,135.199999999999,6|10,0:2|0:1,0:0:0:0:
100,89,15776,2,0,B|164:70|164:70|161:122,1,101.399999999999,2|2,0:0|0:0,0:0:0:0:
154,187,16205,1,8,0:1:0:0:
141,320,16548,1,4,0:2:0:0:
392,123,17233,2,0,L|441:97,3,33.7999999999998
462,133,17576,2,0,L|510:129,3,33.7999999999998
509,172,17919,5,0,0:0:0:0:
444,220,18091,1,2,0:2:0:0:
444,220,18262,2,2,P|448:259|441:294,1,59.149998194885,2|2,0:2|0:2,0:2:0:0:
363,313,18605,2,2,P|373:279|373:239,1,59.149998194885,2|2,0:2|0:2,0:2:0:0:
303,245,18948,1,2,0:2:0:0:
303,245,19119,1,2,0:2:0:0:
203,384,19462,69,2,0:2:0:0:
203,384,19633,2,2,P|207:344|222:317,1,59.149998194885,2|2,0:2|0:2,0:2:0:0:
170,269,19976,1,2,0:2:0:0:
170,269,20148,2,2,P|145:299|136:329,1,59.149998194885,2|2,0:2|0:2,0:2:0:0:
69,344,20491,1,2,0:2:0:0:
19,199,20833,5,2,0:2:0:0:
19,199,21005,2,2,P|49:182|78:157,1,59.149998194885,2|2,0:2|0:2,0:2:0:0:
130,209,21348,2,2,P|110:228|82:248,1,59.149998194885,2|2,0:2|0:2,0:2:0:0:
142,303,21691,1,2,0:2:0:0:
142,303,21862,1,2,0:2:0:0:
302,237,22205,69,2,3:2:0:0:
302,237,22376,2,2,P|288:195|285:170,1,59.149998194885,2|2,3:2|3:2,3:2:0:0:
355,148,22719,2,2,P|366:189|395:231,2,88.7249972923274,2|2|2,0:2|0:2|0:2,0:2:0:0:
503,81,23576,5,2,0:2:0:0:
503,81,23748,2,2,P|487:120|463:151,1,59.149998194885,2|2,0:2|0:2,0:2:0:0:
418,84,24091,2,2,P|432:58|438:29,1,59.149998194885,2|0,0:2|0:2,0:2:0:0:
368,10,24433,1,2,0:2:0:0:
368,10,24605,1,0,0:0:0:0:
234,59,24948,69,2,0:2:0:0:
234,59,25119,2,2,P|237:91|254:125,1,59.149998194885,2|2,0:2|0:2,0:2:0:0:
189,165,25462,1,2,0:2:0:0:
189,165,25633,1,2,0:2:0:0:
23,0,26319,5,2,0:2:0:0:
23,0,26491,2,2,P|14:36|-3:53,1,59.149998194885,2|2,0:2|0:2,0:2:0:0:
40,112,26833,2,2,P|62:95|81:68,1,59.149998194885,2|2,0:2|3:2,0:2:0:0:
176,90,27176,1,2,0:2:0:0:
176,90,27348,1,2,0:2:0:0:
176,90,27519,2,2,P|208:90|244:106,1,67.5999999999996,6|2,0:2|0:2,0:2:0:0:
245,191,27862,2,2,P|231:179|181:163,1,67.5999999999996,2|2,3:2|3:2,3:2:0:0:
176,240,28205,1,2,0:2:0:0:
176,240,28376,1,2,0:2:0:0:
38,381,28891,69,6,0:2:0:0:
38,381,29063,1,2,0:2:0:0:
38,381,29234,2,2,P|39:348|28:323,1,58.305000088966,10|2,0:2|0:2,0:2:0:0:
90,282,29577,2,2,P|106:310|113:336,1,58.305000088966,2|10,0:2|0:2,0:2:0:0:
189,353,29920,1,2,0:2:0:0:
189,353,30091,1,2,0:2:0:0:
308,213,30434,5,2,3:2:0:0:
308,213,30605,2,2,P|288:247|285:273,1,58.305000088966,10|2,3:2|3:2,3:2:0:0:
350,306,30948,1,2,3:2:0:0:
350,306,31119,2,2,P|356:273|376:249,1,58.305000088966,10|0,3:2|3:2,3:2:0:0:
428,311,31463,1,2,3:2:0:0:
504,158,31805,69,2,0:2:0:0:
508,162,31976,2,2,P|494:131|477:111,1,58.305000088966,10|2,0:2|0:2,0:2:0:0:
430,171,32319,2,2,P|437:199|438:228,1,58.305000088966,2|10,3:2|3:2,3:2:0:0:
364,216,32662,1,2,0:2:0:0:
364,216,32834,1,2,0:2:0:0:
185,224,33177,5,2,0:2:0:0:
185,224,33348,2,2,P|193:199|209:168,1,58.305000088966,10|2,0:2|0:2,0:2:0:0:
142,139,33691,2,2,P|109:186|98:220,2,87.457500133449,2|2|2,3:2|3:2|3:2,3:2:0:0:
86,86,34376,69,6,0:2:0:0:
86,86,34547,1,2,0:2:0:0:
86,86,34719,2,2,P|70:47|53:29,1,58.305000088966,10|2,0:2|0:2,0:2:0:0:
127,0,35062,2,2,P|144:26|157:56,1,58.305000088966,2|10,0:2|0:2,0:2:0:0:
230,84,35405,1,2,0:2:0:0:
230,84,35576,1,2,0:2:0:0:
316,116,35748,6,0,B|348:114|348:114|379:123,1,58.305000088966,2|2,1:3|0:0,0:0:0:0:
396,132,36005,2,0,B|421:146|421:146|444:171,1,58.305000088966,2|2,3:0|3:0,3:0:0:0:
460,202,36262,1,2,0:0:0:0:
392,251,36433,2,0,B|372:225|372:225|345:208,1,58.305000088966,2|2,1:3|0:0,0:0:0:0:
327,200,36691,2,0,B|299:189|299:189|265:189,1,58.305000088966,2|2,3:0|3:0,3:0:0:0:
231,198,36947,1,2,0:0:0:0:
208,276,37119,70,0,P|178:303|173:354,1,87.457500133449,4|2,0:2|0:3,0:0:0:0:
102,248,37633,1,2,0:0:0:0:
102,248,37805,2,0,P|62:238|18:264,1,87.457500133449,6|2,0:2|0:0,0:0:0:0:
0,148,38319,1,2,0:0:0:0:
0,148,38491,1,6,0:2:0:0:
441,7,39862,70,2,P|409:66|425:109,1,107.737502054929,6|2,1:2|0:3,0:3:0:0:
321,24,40376,1,2,0:3:0:0:
267,79,40548,2,2,P|280:144|320:160,1,107.737502054929,2|2,1:3|0:3,0:3:0:0:
191,179,41063,1,2,0:3:0:0:
241,236,41233,70,2,B|287:245|287:245|312:270,1,71.8250013699528,2|2,1:3|0:3,0:3:0:0:
316,274,41491,2,2,B|341:315|341:315|328:352,1,71.8250013699528,2|2,0:3|0:3,0:3:0:0:
318,359,41748,1,2,0:3:0:0:
239,337,41919,2,2,B|203:305|203:305|168:300,1,71.8250013699528,2|2,1:3|0:3,0:3:0:0:
163,299,42177,2,2,B|113:303|113:303|92:336,1,71.8250013699528,2|2,0:3|0:3,0:3:0:0:
85,349,42434,1,2,0:3:0:0:
5,298,42605,6,2,B|-31:275|13:200|0:180,1,107.737502054929,2|2,1:3|0:3,0:3:0:0:
149,185,43119,1,2,0:3:0:0:
97,244,43291,2,2,B|57:228|86:146|69:129,1,107.737502054929,2|2,1:3|0:3,0:3:0:0:
140,65,43805,1,2,0:3:0:0:
194,117,43976,70,2,B|211:85|211:85|208:39,1,71.8250013699528,2|2,1:3|0:3,0:3:0:0:
203,16,44234,1,2,0:3:0:0:
325,8,44405,2,2,L|371:10,2,35.9125006849764,2|2|2,0:3|0:3|0:3,0:3:0:0:
336,45,44662,2,2,B|333:83|333:83|355:116,1,71.8250013699528,2|2,1:3|0:3,0:3:0:0:
373,131,44919,1,2,0:3:0:0:
503,177,45091,1,2,0:3:0:0:
503,177,45176,2,2,L|450:173,1,35.9125006849764,2|2,0:3|0:3,0:3:0:0:
450,209,45348,6,2,P|463:277|444:326,1,107.737502054929,2|2,1:3|0:3,0:3:0:0:
319,236,45862,1,2,0:3:0:0:
345,308,46033,2,2,P|277:321|228:302,1,107.737502054929,2|2,1:3|0:3,0:3:0:0:
172,196,46548,1,2,0:3:0:0:
177,125,46719,70,2,B|139:100|139:100|103:103,1,71.8250013699528,2|2,1:3|0:3,0:3:0:0:
95,101,46976,2,2,B|51:111|51:111|29:139,1,71.8250013699528,2|2,0:3|0:3,0:3:0:0:
30,152,47233,1,2,0:3:0:0:
25,226,47405,2,2,B|70:225|70:225|98:247,1,71.8250013699528,2|2,1:3|3:3,3:3:0:0:
106,250,47662,2,2,B|137:282|137:282|140:318,1,71.8250013699528,2|2,3:3|3:3,3:3:0:0:
133,328,47919,1,2,3:3:0:0:
219,371,48091,6,2,B|232:348|307:350|327:332,1,107.737502054929,2|2,1:3|0:3,0:3:0:0:
447,267,48605,1,2,0:3:0:0:
503,321,48776,2,2,B|481:300|406:302|386:284,1,107.737502054929,2|2,1:3|0:3,0:3:0:0:
289,186,49291,1,2,0:3:0:0:
279,109,49462,70,2,B|315:107|315:107|346:138,1,71.8250013699528,2|2,1:3|0:3,0:3:0:0:
356,150,49720,1,2,0:3:0:0:
481,145,49891,1,2,0:3:0:0:
481,145,49976,2,2,L|501:88,1,35.9125006849764,2|2,0:3|0:3,0:3:0:0:
472,88,50148,2,2,B|448:45|448:45|453:11,1,71.8250013699528,2|2,1:3|0:3,0:3:0:0:
443,20,50405,1,2,0:3:0:0:
443,20,50491,85,6,0:2:0:0:
266,0,50833,86,2,P|227:40|170:56,1,107.737502054929,6|2,1:2|0:0,0:0:0:0:
26,79,51348,1,2,0:0:0:0:
36,0,51519,2,2,P|84:28|112:80,1,107.737502054929,2|2,1:3|0:0,0:0:0:0:
135,212,52033,1,2,0:0:0:0:
66,233,52205,6,2,B|20:246|20:246|9:207,1,71.8250013699528,2|2,1:3|0:3,0:3:0:0:
5,180,52462,2,2,B|-1:160|-1:160|48:148,1,71.8250013699528,2|2,0:3|0:3,0:3:0:0:
82,143,52719,1,2,0:3:0:0:
180,127,52891,2,2,B|157:131|157:131|169:183,1,71.8250013699528,2|2,1:3|3:3,3:3:0:0:
174,203,53148,2,2,B|178:215|178:215|245:198,1,71.8250013699528,2|2,3:3|3:3,3:3:0:0:
267,191,53405,1,2,3:3:0:0:
375,140,53577,70,2,B|412:146|424:170|439:187|428:208|407:205,1,107.737502054929,2|2,1:3|0:3,0:3:0:0:
337,304,54091,1,2,0:3:0:0:
269,257,54262,2,2,B|281:221|306:213|326:200|345:215|339:235,1,107.737502054929,2|2,1:3|0:3,0:3:0:0:
260,349,54776,1,2,0:3:0:0:
341,381,54948,6,2,L|422:368,1,71.8250013699528,2|2,1:3|0:3,0:3:0:0:
439,365,55205,1,2,0:3:0:0:
455,270,55376,2,2,L|506:267,2,35.9125006849764,2|2|2,0:3|0:3|0:3,0:3:0:0:
426,239,55633,2,2,L|343:224,1,71.8250013699528,2|2,1:3|0:3,0:3:0:0:
324,213,55891,1,2,0:3:0:0:
317,100,56062,1,2,0:3:0:0:
317,100,56148,2,2,L|268:101,1,35.9125006849764,2|2,0:3|0:3,0:3:0:0:
276,146,56319,70,2,P|229:139|157:147,1,107.737502054929,6|2,1:2|0:0,0:0:0:0:
162,262,56833,1,2,0:0:0:0:
219,316,57005,2,2,P|240:248|217:208,1,107.737502054929,2|2,1:3|0:0,0:0:0:0:
74,197,57519,1,2,0:0:0:0:
92,279,57691,6,2,B|42:270|42:270|32:297,1,71.8250013699528,6|2,1:2|0:0,0:0:0:0:
31,308,57948,2,2,B|20:359|20:359|45:362,1,71.8250013699528
81,370,58205,1,2,0:0:0:0:
194,374,58376,70,2,B|152:345|152:345|169:322,1,71.8250013699528,6|2,1:2|0:0,0:0:0:0:
174,315,58633,2,2,B|214:274|214:274|236:285,1,71.8250013699528
247,295,58890,1,2,0:0:0:0:
320,369,59062,5,6,0:2:0:0:
402,364,59233,1,2,0:0:0:0:
435,285,59405,69,6,0:2:0:0:
347,284,59576,1,2,0:0:0:0:
313,207,59748,6,2,L|298:162,2,35.9125006849764,6|0|0,1:2|1:2|1:2,1:2:0:0:
351,179,60005,70,0,L|362:135,2,35.9125006849764,2|4|0,1:2|1:2|1:2,1:2:0:0:
392,170,60262,6,2,L|422:137,1,35.9125006849764,2|0,1:2|1:2,1:2:0:0:
457,144,60433,69,6,1:2:0:0:
67,216,61633,1,2,0:2:0:0:
17,135,61805,70,2,P|-3:87|0:66,1,67.5999999999996,6|2,1:2|0:2,0:2:0:0:
87,21,62148,2,2,P|81:75|88:93,1,67.5999999999996,10|2,1:2|0:2,0:2:0:0:
138,144,62491,1,2,1:2:0:0:
284,34,62833,1,10,1:2:0:0:
284,34,63005,1,2,0:2:0:0:
342,87,63176,70,2,P|306:107|277:111,1,67.5999999999996,2|2,1:2|0:2,0:2:0:0:
219,163,63519,2,2,P|261:183|284:185,1,67.5999999999996,10|2,1:2|0:2,0:2:0:0:
181,251,63862,2,2,P|158:209|145:196,1,67.5999999999996,2|2,1:2|3:2,3:2:0:0:
52,182,64205,1,10,1:2:0:0:
52,182,64376,2,2,P|72:217|77:246,1,67.5999999999996,2|2,3:2|1:2,3:2:0:0:
24,306,64719,5,2,0:2:0:0:
24,306,64891,2,2,P|-1:269|-1:243,1,67.5999999999996,10|2,1:2|0:2,0:2:0:0:
98,106,65405,1,2,0:2:0:0:
98,106,65576,1,10,1:2:0:0:
138,177,65748,2,2,P|167:150|180:123,1,67.5999999999996,2|2,0:2|1:2,0:2:0:0:
250,179,66090,1,2,0:2:0:0:
250,179,66262,2,2,P|244:224|186:307,1,135.199999999999,10|0,1:2|1:2,0:2:0:0:
476,360,67119,1,2,0:2:0:0:
476,360,67291,70,2,P|436:358|405:371,1,67.5999999999996,2|2,1:2|0:2,0:2:0:0:
338,286,67633,2,2,P|402:283|418:288,1,67.5999999999996,10|2,1:2|0:2,0:2:0:0:
496,197,67976,2,2,P|448:211|424:209,1,67.5999999999996,2|2,1:2|0:2,0:2:0:0:
352,150,68319,1,10,1:2:0:0:
352,150,68491,2,2,P|390:139|420:120,1,67.5999999999996,2|0,0:2|1:2,0:2:0:0:
390,13,68833,5,2,0:2:0:0:
390,13,69005,2,2,P|336:14|312:24,1,67.5999999999996,10|2,1:2|0:2,0:2:0:0:
247,77,69348,1,2,1:2:0:0:
247,77,69519,2,2,P|288:85|312:101,1,67.5999999999996,2|10,0:2|1:2,0:2:0:0:
224,168,69862,2,2,P|171:123|160:119,1,67.5999999999996,2|0,0:2|1:2,0:2:0:0:
106,169,70205,69,2,0:2:0:0:
106,169,70376,2,2,P|114:197|112:238,1,67.5999999999996,10|0,1:2|0:2,0:2:0:0:
312,226,70891,1,2,0:2:0:0:
312,226,71062,1,10,1:2:0:0:
251,170,71233,2,2,P|267:117|278:106,1,67.5999999999996,2|0,0:2|1:2,0:2:0:0:
262,24,71576,5,2,0:2:0:0:
262,24,71748,2,2,P|217:49|133:48,1,135.199999999999,10|0,1:2|1:2,0:2:0:0:
17,168,72605,1,2,0:2:0:0:
17,168,72776,70,2,B|18:243|12:247,1,67.5999999999996,2|2,1:2|0:2,0:2:0:0:
79,294,73119,2,2,B|94:230|107:225,1,67.5999999999996,10|2,1:2|0:2,0:2:0:0:
175,193,73462,1,2,1:2:0:0:
188,281,73633,1,6,0:2:0:0:
188,281,73976,1,6,0:2:0:0:
278,254,74148,70,2,B|292:181|308:186,1,67.5999999999996,6|2,1:2|0:2,0:2:0:0:
377,230,74491,2,2,B|378:259|372:303,1,67.5999999999996,10|2,1:2|0:2,0:2:0:0:
415,378,74833,1,2,1:2:0:0:
245,330,75176,1,10,1:2:0:0:
261,294,75348,1,2,0:2:0:0:
278,255,75519,6,2,B|302:187,1,67.5999999999996,6|2,1:2|0:2,0:2:0:0:
383,230,75862,2,2,B|372:305,1,67.5999999999996,10|2,1:2|0:2,0:2:0:0:
396,379,76204,1,4,0:2:0:0:
396,379,76548,1,4,0:2:0:0:
462,235,76891,2,2,P|479:177|488:168,1,67.5999999999996,6|2,1:2|0:2,0:2:0:0:
512,97,77233,2,2,P|476:96|386:41,1,135.199999999999,10|2,1:2|1:2,0:2:0:0:
132,10,78091,1,2,0:2:0:0:
71,59,78262,2,2,P|88:91|126:111,1,67.5999999999996,2|2,1:2|0:2,0:2:0:0:
131,189,78605,2,2,P|97:188|65:179,1,67.5999999999996,10|2,1:2|0:2,1:2:0:0:
17,249,78948,1,2,1:2:0:0:
215,374,79291,1,2,0:2:0:0:
249,302,79462,1,2,0:2:0:0:
249,302,79548,1,2,0:2:0:0:
249,302,79633,70,2,P|214:295|171:306,1,67.5999999999996,6|2,1:2|0:2,0:2:0:0:
117,253,79976,2,2,P|143:230|174:221,1,67.5999999999996,10|2,1:2|0:2,0:2:0:0:
174,144,80319,2,2,P|139:128|103:123,1,67.5999999999996,2|2,1:2|0:2,0:2:0:0:
33,84,80662,1,10,1:2:0:0:
33,84,80833,1,2,0:2:0:0:
96,19,81005,5,0,1:2:0:0:
96,19,81176,1,0,1:2:0:0:
170,54,81348,1,0,1:2:0:0:
170,54,81519,1,0,1:2:0:0:
253,34,81691,2,0,L|242:81,3,33.7999999999998,0|0|0|0,1:2|1:2|1:2|1:2,1:2:0:0:
272,88,82033,2,0,L|265:147,2,33.7999999999998,0|0|0,1:2|1:2|1:2,1:2:0:0:
346,173,82376,69,2,1:2:0:0:
346,173,82548,1,2,0:2:0:0:
346,173,82719,1,2,0:2:0:0:
258,244,83062,2,0,L|255:281,2,33.7999999999998,2|0|0,0:2|0:2|0:2,0:2:0:0:
188,326,83405,1,0,0:2:0:0:
412,378,83748,1,4,0:2:0:0:
