osu file format v14

[General]
AudioFilename: audio.ogg
AudioLeadIn: 0
PreviewTime: 144821
Countdown: 0
SampleSet: Normal
StackLeniency: 0.3
Mode: 0
LetterboxInBreaks: 0
WidescreenStoryboard: 0

[Editor]
Bookmarks: 988,16988,32988,48988,77488,80321,104988,112988,136988,144988,167988,176988,184654,208988,216988,240988,248988,281830,289830,297830,305830,313830,326474
DistanceSpacing: 0.6
BeatDivisor: 3
GridSize: 32
TimelineZoom: 1

[Metadata]
Title:Honour For All (Extended)
TitleUnicode:Honour For All (Extended)
Artist:Daniel Licht & Jon Licht
ArtistUnicode:Daniel Licht & Jon Licht
Creator:Vitas2222
Version:Revenge
Source:Dishonored
Tags:English Alternative Progressive Rock Alt Prog Male Vocal Vocals Videogame Video Game Ending Theme Ed OST Original Soundtrack Honor Bethesda Softworks Bethesda-Softworks Arkane Studios
BeatmapID:3095489
BeatmapSetID:1511753

[Difficulty]
HPDrainRate:5.5
CircleSize:5
OverallDifficulty:8
ApproachRate:9
SliderMultiplier:2.4
SliderTickRate:1

[Events]
//Background and Video events
0,0,"BG.jpg",0,0
//Break Periods
//Storyboard Layer 0 (Background)
//Storyboard Layer 1 (Fail)
//Storyboard Layer 2 (Pass)
//Storyboard Layer 3 (Foreground)
//Storyboard Layer 4 (Overlay)
//Storyboard Sound Samples

[TimingPoints]
988,481.927710843374,4,2,5,5,1,0
988,-1000,4,2,5,5,0,0
2273,-1000,4,2,5,5,0,0
2433,437.158469945355,4,2,1,5,1,0
2433,-285.714285714286,4,2,1,5,0,0
2724,-285.714285714286,4,2,5,5,0,0
2870,413.793103448276,4,2,1,5,1,0
2870,-285.714285714286,3,2,1,5,0,0
3145,-285.714285714286,3,2,5,5,0,0
3283,-285.714285714286,3,2,2,5,0,0
3698,456.273764258555,4,2,1,5,1,0
4153,402.010050251256,4,2,1,5,1,0
4153,-285.714285714286,3,2,1,5,0,0
4421,-285.714285714286,3,2,5,5,0,0
4554,538.116591928251,4,2,1,5,1,0
4554,-250,4,2,1,5,0,0
4912,-250,4,2,5,5,0,0
5092,-250,4,2,2,5,0,0
5630,480,4,2,1,5,1,0
5630,-1000,4,2,1,5,0,0
6430,-1000,4,2,5,5,0,0
6590,522.875816993463,4,2,1,5,1,0
6590,-250,4,2,1,5,0,0
6764,-250,4,2,5,5,0,0
6938,615.384615384615,4,2,1,5,1,0
6938,-250,4,2,1,5,0,0
7143,-250,4,2,5,5,0,0
7348,655.737704918032,4,2,1,5,1,0
7348,-250,4,2,1,5,0,0
7566,-250,4,2,5,5,0,0
7785,774.193548387096,4,2,1,5,1,0
7785,-333.333333333333,4,2,1,5,0,0
8043,-333.333333333333,4,2,5,5,0,0
8301,718.562874251496,4,2,2,5,1,0
8301,-1000,4,2,2,5,0,0
8780,863.309352517985,4,2,2,5,1,0
8780,-100,4,2,2,5,0,0
9355,1276.59574468085,4,2,2,5,1,0
10631,489.795918367347,4,2,1,5,1,0
10631,-250,4,2,1,5,0,0
10957,-250,4,2,5,5,0,0
11120,-250,4,2,1,5,0,0
11447,-250,4,2,5,5,0,0
11610,600,4,2,1,5,1,0
11610,-250,4,2,1,5,0,0
12010,-250,4,2,5,5,0,0
12210,542.986425339366,4,2,1,5,1,0
12210,-333.333333333333,4,2,1,5,0,0
12571,-333.333333333333,4,2,5,5,0,0
12752,612.244897959183,4,2,1,5,1,0
12752,-1000,4,2,1,5,0,0
13160,-1000,4,2,5,5,0,0
13364,-1000,4,2,2,5,0,0
13976,512.820512820512,4,2,1,5,1,0
13976,-200,4,2,1,5,0,0
14317,-200,4,2,5,5,0,0
14488,437.956204379562,4,2,1,5,1,0
14779,722.89156626506,4,2,1,5,1,0
14779,-333.333333333333,4,2,1,5,0,0
15260,-333.333333333333,4,2,5,5,0,0
15501,743.955362678239,4,2,1,5,1,0
15501,-1000,4,2,1,5,0,0
15996,-1000,4,2,5,5,0,0
16988,500,4,2,1,5,1,0
16988,-200,4,2,1,5,0,0
17321,-200,4,2,5,5,0,0
17488,-200,4,2,1,5,0,0
17821,-200,4,2,5,5,0,0
17988,-333.333333333333,4,2,1,5,0,0
18321,-333.333333333333,4,2,5,5,0,0
18488,-666.666666666667,4,2,1,5,0,0
18821,-666.666666666667,4,2,5,5,0,0
18988,-333.333333333333,4,2,1,5,0,0
19321,-333.333333333333,4,2,5,5,0,0
19488,-500,4,2,1,5,0,0
19821,-500,4,2,5,5,0,0
19988,-200,4,2,1,5,0,0
20321,-200,4,2,5,5,0,0
20488,-333.333333333333,4,2,1,5,0,0
20821,-333.333333333333,4,2,5,5,0,0
20988,-200,4,2,1,5,0,0
21321,-200,4,2,5,5,0,0
21488,-200,4,2,1,5,0,0
21821,-200,4,2,5,5,0,0
21988,-333.333333333333,4,2,1,5,0,0
22321,-333.333333333333,4,2,5,5,0,0
22488,-333.333333333333,4,2,1,5,0,0
22821,-333.333333333333,4,2,5,5,0,0
22988,-500,4,2,1,5,0,0
23321,-500,4,2,5,5,0,0
23488,-666.666666666667,4,2,1,5,0,0
23821,-666.666666666667,4,2,5,5,0,0
23988,-333.333333333333,4,2,1,5,0,0
24321,-333.333333333333,4,2,5,5,0,0
24488,-333.333333333333,4,2,1,5,0,0
24821,-333.333333333333,4,2,5,5,0,0
24988,-200,4,2,1,5,0,0
25321,-200,4,2,5,5,0,0
25488,-333.333333333333,4,2,1,5,0,0
25821,-333.333333333333,4,2,5,5,0,0
25988,-200,4,2,1,5,0,0
26321,-200,4,2,5,5,0,0
26488,-333.333333333333,4,2,1,5,0,0
26821,-333.333333333333,4,2,5,5,0,0
26988,-500,4,2,1,5,0,0
27321,-500,4,2,5,5,0,0
27488,-666.666666666667,4,2,1,5,0,0
27821,-666.666666666667,4,2,5,5,0,0
27988,-200,4,2,1,5,0,0
28321,-200,4,2,5,5,0,0
28488,-333.333333333333,4,2,1,5,0,0
28821,-333.333333333333,4,2,5,5,0,0
28988,-200,4,2,1,5,0,0
29321,-200,4,2,5,5,0,0
29488,-333.333333333333,4,2,1,5,0,0
29821,-333.333333333333,4,2,5,5,0,0
29988,-200,4,2,1,5,0,0
30321,-200,4,2,5,5,0,0
30488,-333.333333333333,4,2,1,5,0,0
30821,-333.333333333333,4,2,5,5,0,0
30988,-133.333333333333,4,2,1,5,0,0
31321,-133.333333333333,4,2,5,5,0,0
31488,-200,4,2,1,5,0,0
31821,-200,4,2,5,5,0,0
31988,-133.333333333333,4,2,1,5,0,0
32321,-133.333333333333,4,2,5,5,0,0
32488,-200,4,2,1,5,0,0
32821,-200,4,2,5,5,0,0
32988,-333.333333333333,4,1,1,10,0,0
47988,-500,4,1,1,10,0,0
48488,-1000,4,1,1,10,0,0
49988,-333.333333333333,4,1,1,10,0,0
56488,-666.666666666667,4,1,1,10,0,0
56988,-333.333333333333,4,1,1,10,0,0
77488,-200,4,1,1,15,0,0
79154,-133.333333333333,4,1,1,15,0,0
80321,-333.333333333333,4,1,1,20,0,0
80988,-133.333333333333,4,1,1,20,0,0
81654,-200,4,1,1,20,0,0
81988,-333.333333333333,4,1,1,20,0,0
82654,-200,4,1,1,20,0,0
82988,-133.333333333333,4,1,1,20,0,0
83654,-200,4,1,1,20,0,0
83988,-333.333333333333,4,1,1,20,0,0
84988,-133.333333333333,4,1,1,20,0,0
85654,-200,4,1,1,20,0,0
85988,-333.333333333333,4,1,1,20,0,0
86654,-200,4,1,1,20,0,0
86988,-133.333333333333,4,1,1,20,0,0
87654,-200,4,1,1,20,0,0
87988,-80,4,1,1,20,0,0
88988,-133.333333333333,4,1,1,20,0,0
89321,-200,4,1,1,20,0,0
89654,-333.333333333333,4,1,1,20,0,0
89988,-200,4,1,1,20,0,0
90321,-133.333333333333,4,1,1,20,0,0
90988,-100,4,1,1,20,0,0
91654,-133.333333333333,4,1,1,20,0,0
91988,-80,4,1,1,20,0,0
92988,-133.333333333333,4,1,1,20,0,0
93654,-200,4,1,1,20,0,0
93988,-133.333333333333,4,1,1,20,0,0
94321,-200,4,1,1,20,0,0
94654,-333.333333333333,4,1,1,20,0,0
94988,-133.333333333333,4,1,1,20,0,0
95321,-200,4,1,1,20,0,0
95654,-333.333333333333,4,1,1,20,0,0
96321,-200,4,1,1,20,0,0
96988,-133.333333333333,4,1,1,20,0,0
97321,-200,4,1,1,20,0,0
97654,-133.333333333333,4,1,1,20,0,0
97988,-200,4,1,1,20,0,0
98321,-333.333333333333,4,1,1,20,0,0
98988,-133.333333333333,4,1,1,20,0,0
99321,-200,4,1,1,20,0,0
99654,-333.333333333333,4,1,1,20,0,0
99988,-80,4,1,1,20,0,0
100988,-133.333333333333,4,1,1,20,0,0
101321,-200,4,1,1,20,0,0
101654,-333.333333333333,4,1,1,20,0,0
101988,-133.333333333333,4,1,1,20,0,0
102321,-200,4,1,1,20,0,0
102654,-333.333333333333,4,1,1,20,0,0
102988,-133.333333333333,4,1,1,20,0,0
103988,-80,4,1,1,20,0,0
104988,-500,4,1,1,20,0,0
105821,-500,4,1,1,5,0,0
105988,-500,4,1,1,20,0,0
106821,-500,4,1,1,5,0,0
106988,-500,4,1,1,20,0,0
107821,-500,4,1,1,5,0,0
107988,-500,4,1,1,20,0,0
108821,-500,4,1,1,5,0,0
108988,-500,4,1,1,20,0,0
109821,-500,4,1,1,5,0,0
109988,-500,4,1,1,20,0,0
110821,-500,4,1,1,5,0,0
110988,-250,4,1,1,20,0,0
111321,-250,4,1,1,5,0,0
111488,-166.666666666667,4,1,1,20,0,0
111821,-166.666666666667,4,1,1,5,0,0
111988,-125,4,1,1,20,0,0
112321,-125,4,1,1,5,0,0
112488,-100,4,1,1,20,0,0
112821,-100,4,1,1,5,0,0
112988,-133.333333333333,4,1,1,20,0,0
113321,-200,4,1,1,20,0,0
113654,-333.333333333333,4,1,1,20,0,0
113988,-133.333333333333,4,1,1,20,0,0
114321,-200,4,1,1,20,0,0
114654,-333.333333333333,4,1,1,20,0,0
114988,-133.333333333333,4,1,1,20,0,0
115654,-200,4,1,1,20,0,0
115988,-333.333333333333,4,1,1,20,0,0
116988,-133.333333333333,4,1,1,20,0,0
117654,-200,4,1,1,20,0,0
117988,-133.333333333333,4,1,1,20,0,0
118321,-333.333333333333,4,1,1,20,0,0
118988,-133.333333333333,4,1,1,20,0,0
119654,-200,4,1,1,20,0,0
119988,-80,4,1,1,20,0,0
120988,-133.333333333333,4,1,1,20,0,0
121321,-200,4,1,1,20,0,0
121654,-333.333333333333,4,1,1,20,0,0
121988,-80,4,1,1,20,0,0
122988,-133.333333333333,4,1,1,20,0,0
123321,-200,4,1,1,20,0,0
123654,-333.333333333333,4,1,1,20,0,0
123988,-80,4,1,1,20,0,0
124988,-133.333333333333,4,1,1,20,0,0
125654,-200,4,1,1,20,0,0
125988,-133.333333333333,4,1,1,20,0,0
126321,-200,4,1,1,20,0,0
126988,-133.333333333333,4,1,1,20,0,0
127321,-333.333333333333,4,1,1,20,0,0
127988,-133.333333333333,4,1,1,20,0,0
128321,-200,4,1,1,20,0,0
128988,-133.333333333333,4,1,1,20,0,0
129321,-200,4,1,1,20,0,0
129654,-333.333333333333,4,1,1,20,0,0
129988,-80,4,1,1,20,0,0
130988,-133.333333333333,4,1,1,20,0,0
131654,-200,4,1,1,20,0,0
131988,-333.333333333333,4,1,1,20,0,0
132988,-133.333333333333,4,1,1,20,0,0
133654,-200,4,1,1,20,0,0
133988,-133.333333333333,4,1,1,20,0,0
134654,-333.333333333333,4,1,1,20,0,0
134988,-133.333333333333,4,1,1,20,0,0
135988,-80,4,1,1,20,0,0
136988,-500,4,1,1,25,0,0
137821,-500,4,1,1,5,0,0
137988,-500,4,1,1,25,0,0
138821,-500,4,1,1,5,0,0
138988,-500,4,1,1,25,0,0
140821,-500,4,1,1,5,0,0
140988,-500,4,1,1,25,0,0
142821,-500,4,1,1,5,0,0
142988,-250,4,1,1,25,0,0
143321,-250,4,1,1,5,0,0
143488,-166.666666666667,4,1,1,25,0,0
143821,-166.666666666667,4,1,1,5,0,0
143988,-125,4,1,1,25,0,0
144321,-125,4,1,1,5,0,0
144488,-100,4,1,1,25,0,0
144821,-100,4,1,1,5,0,0
144988,-66.6666666666667,4,1,1,25,0,1
145488,-66.6666666666667,4,2,2,25,0,1
145821,-66.6666666666667,4,1,1,25,0,1
145988,-66.6666666666667,4,1,1,25,0,1
146488,-66.6666666666667,4,2,2,25,0,1
146821,-66.6666666666667,4,1,1,25,0,1
146988,-100,4,1,1,25,0,1
147488,-100,4,2,2,25,0,1
147821,-100,4,1,1,25,0,1
147988,-133.333333333333,4,1,1,25,0,1
148988,-66.6666666666667,4,1,1,25,0,1
149488,-66.6666666666667,4,2,2,25,0,1
149821,-66.6666666666667,4,1,1,25,0,1
149988,-66.6666666666667,4,1,1,25,0,1
150488,-66.6666666666667,4,2,2,25,0,1
150821,-66.6666666666667,4,1,1,25,0,1
150988,-100,4,1,1,25,0,1
151488,-100,4,2,2,25,0,1
151821,-100,4,1,1,25,0,1
151988,-200,4,1,1,25,0,1
152988,-66.6666666666667,4,1,1,25,0,1
154488,-66.6666666666667,4,2,6,25,0,1
154821,-66.6666666666667,4,1,1,25,0,1
154988,-100,4,1,1,25,0,1
155488,-100,4,2,2,25,0,1
155821,-100,4,1,1,25,0,1
155988,-133.333333333333,4,1,1,25,0,1
156988,-66.6666666666667,4,1,1,25,0,1
157488,-66.6666666666667,4,2,2,25,0,1
157821,-66.6666666666667,4,1,1,25,0,1
157988,-66.6666666666667,4,1,1,25,0,1
158488,-66.6666666666667,4,2,2,25,0,1
158821,-66.6666666666667,4,1,1,25,0,1
158988,-100,4,1,1,25,0,1
159488,-100,4,2,2,25,0,1
159988,-100,4,1,1,25,0,1
160988,-66.6666666666667,4,1,1,25,0,1
162988,-100,4,1,1,25,0,1
163988,-50,4,1,1,25,0,1
164988,-66.6666666666667,4,1,1,25,0,1
167488,-66.6666666666667,4,2,6,25,0,1
167821,-66.6666666666667,4,1,1,25,0,1
167988,-100,4,1,1,25,0,1
168988,-500,4,1,1,30,0,0
169821,-500,4,1,1,5,0,0
169988,-500,4,1,1,30,0,0
170821,-500,4,1,1,5,0,0
170988,-500,4,1,1,30,0,0
171821,-500,4,1,1,5,0,0
171988,-500,4,1,1,30,0,0
172488,-500,4,1,1,5,0,0
172988,-500,4,1,1,30,0,0
173821,-500,4,1,1,5,0,0
173988,-500,4,1,1,30,0,0
174821,-500,4,1,1,5,0,0
174988,-500,4,1,1,30,0,0
175821,-500,4,1,1,5,0,0
175988,-500,4,1,1,30,0,0
176321,-500,4,1,1,5,0,0
176488,-500,4,1,1,30,0,0
176988,-50,4,1,1,30,0,0
177488,-50,4,1,3,30,0,0
179488,-133.333333333333,4,1,1,30,0,0
179821,-50,4,1,3,30,0,0
181321,-133.333333333333,4,1,1,30,0,0
183488,-133.333333333333,4,2,6,30,0,0
183988,-133.333333333333,4,1,1,30,0,0
184654,-100,4,1,1,30,0,0
184988,-50,4,1,1,30,0,0
185321,-100,4,1,1,30,0,0
185988,-100,4,1,3,30,0,0
186988,-100,4,1,1,30,0,0
187988,-133.333333333333,4,1,1,30,0,0
188321,-50,4,1,1,30,0,0
189321,-100,4,1,1,30,0,0
189988,-133.333333333333,4,1,1,30,0,0
190988,-100,4,1,1,30,0,0
191988,-80,4,1,1,30,0,0
192488,-200,4,1,1,30,0,0
192988,-100,4,1,1,30,0,0
193988,-100,4,1,3,30,0,0
194988,-100,4,1,1,30,0,0
195321,-133.333333333333,4,1,1,30,0,0
195654,-100,4,1,1,30,0,0
196488,-200,4,1,1,30,0,0
196988,-100,4,1,1,30,0,0
197654,-133.333333333333,4,1,1,30,0,0
198488,-50,4,1,1,30,0,0
198988,-133.333333333333,4,1,1,30,0,0
200488,-200,4,1,1,30,0,0
200988,-100,4,1,1,30,0,0
201654,-133.333333333333,4,1,1,30,0,0
201988,-133.333333333333,4,1,3,30,0,0
202988,-100,4,1,1,30,0,0
203988,-50,4,1,1,30,0,0
204488,-200,4,1,1,30,0,0
204988,-100,4,1,1,30,0,0
205654,-133.333333333333,4,1,1,30,0,0
206488,-50,4,1,1,30,0,0
206988,-100,4,1,1,30,0,0
207321,-133.333333333333,4,1,1,30,0,0
207654,-100,4,1,1,30,0,0
207988,-80,4,1,1,30,0,0
208488,-200,4,1,1,30,0,0
208988,-500,4,1,1,30,0,0
209321,-500,4,1,1,5,0,0
209488,-500,4,1,1,30,0,0
209821,-500,4,1,1,5,0,0
209988,-500,4,1,1,30,0,0
210821,-500,4,1,1,5,0,0
210988,-500,4,1,1,30,0,0
211321,-500,4,1,1,5,0,0
211488,-500,4,1,1,30,0,0
211821,-500,4,1,1,5,0,0
211988,-500,4,1,1,30,0,0
212821,-500,4,1,1,5,0,0
212988,-500,4,1,1,30,0,0
213321,-500,4,1,1,5,0,0
213488,-500,4,1,1,30,0,0
213821,-500,4,1,1,5,0,0
213988,-500,4,1,1,30,0,0
214821,-500,4,1,1,5,0,0
214988,-500,4,1,1,30,0,0
216988,-66.6666666666667,4,1,1,30,0,1
217488,-66.6666666666667,4,2,2,30,0,1
217821,-66.6666666666667,4,1,1,30,0,1
217988,-66.6666666666667,4,1,1,30,0,1
218488,-66.6666666666667,4,2,2,30,0,1
218821,-66.6666666666667,4,1,1,30,0,1
218988,-80,4,1,1,30,0,1
219488,-80,4,2,2,30,0,1
219821,-80,4,1,1,30,0,1
219988,-100,4,1,1,30,0,1
220488,-80,4,1,1,30,0,1
220988,-66.6666666666667,4,1,1,30,0,1
221488,-66.6666666666667,4,2,2,30,0,1
221821,-66.6666666666667,4,1,1,30,0,1
221988,-66.6666666666667,4,1,1,30,0,1
222988,-80,4,1,1,30,0,1
223488,-80,4,2,2,30,0,1
223821,-80,4,1,1,30,0,1
223988,-100,4,1,1,30,0,1
224488,-80,4,1,1,30,0,1
224988,-66.6666666666667,4,1,1,30,0,1
226488,-50,4,1,1,30,0,1
226988,-80,4,1,1,30,0,1
227488,-80,4,2,2,30,0,1
227821,-80,4,1,1,30,0,1
227988,-100,4,1,1,30,0,1
228488,-80,4,1,1,30,0,1
228988,-66.6666666666667,4,1,1,30,0,1
229488,-66.6666666666667,4,2,2,30,0,1
229821,-66.6666666666667,4,1,1,30,0,1
229988,-66.6666666666667,4,1,1,30,0,1
230988,-80,4,1,1,30,0,1
231488,-80,4,2,2,30,0,1
231821,-80,4,1,1,30,0,1
232488,-100,4,1,1,30,0,1
232988,-66.6666666666667,4,1,1,30,0,1
234988,-80,4,1,1,30,0,1
236488,-66.6666666666667,4,1,1,30,0,1
238488,-50,4,1,1,30,0,1
239488,-100,4,1,1,30,0,1
239988,-66.6666666666667,4,1,1,30,0,1
240988,-500,4,1,1,30,0,1
241488,-500,4,2,2,30,0,1
241821,-500,4,1,1,30,0,1
242488,-500,4,2,2,30,0,1
242821,-500,4,1,1,30,0,1
243488,-500,4,2,2,30,0,1
243821,-500,4,1,1,30,0,1
243988,-66.6666666666667,4,1,1,30,0,1
244988,-500,4,1,1,30,0,1
245488,-500,4,2,2,30,0,1
245821,-500,4,1,1,30,0,1
246488,-500,4,2,2,30,0,1
246821,-500,4,1,1,30,0,1
247488,-500,4,2,2,30,0,1
247821,-500,4,1,1,30,0,1
247988,-1000,4,1,1,30,0,1
248488,-1000,4,2,2,30,0,1
248821,-1000,4,2,2,5,0,1
248988,504.201680672269,4,1,1,45,1,0
249492,-100,4,1,1,15,0,0
251004,510.63829787234,4,1,1,15,1,0
255089,504.201680672269,4,1,1,15,1,0
257105,508.474576271186,4,1,1,15,1,0
259137,510.63829787234,4,1,1,15,1,0
261179,528.63436123348,4,1,1,15,1,0
263293,504.201680672269,4,1,1,20,1,0
265309,512.820512820513,4,1,1,20,1,0
267360,508.474576271186,4,1,1,20,1,0
269393,504.201680672269,4,1,1,20,1,0
271409,508.474576271186,4,1,1,20,1,0
273444,517.241379310344,4,1,1,20,1,0
275512,521.739130434782,4,1,1,20,1,0
277598,529.100529100529,4,1,1,20,1,1
279714,-400,4,1,1,20,0,1
280243,-400,4,1,1,15,0,1
280772,-400,4,2,4,15,0,1
281301,-400,4,1,1,15,0,1
281654,-400,4,1,1,5,0,1
281830,500,4,1,1,10,1,0
281830,-200,4,2,1,15,0,0
282163,-200,4,2,1,5,0,0
282330,-200,4,2,1,15,0,0
283663,-200,4,2,1,5,0,0
283830,-200,4,2,1,15,0,0
284163,-200,4,2,1,5,0,0
284330,-200,4,2,1,15,0,0
284830,-333.333333333333,4,2,1,15,0,0
285663,-333.333333333333,4,2,1,5,0,0
285830,-200,4,2,1,15,0,0
286163,-200,4,2,1,5,0,0
286330,-200,4,2,1,15,0,0
286830,-333.333333333333,4,2,1,15,0,0
287663,-333.333333333333,4,2,1,5,0,0
287830,-200,4,2,1,15,0,0
288163,-200,4,2,1,5,0,0
288330,-200,4,2,1,15,0,0
288663,-200,4,2,1,5,0,0
288830,-666.666666666667,4,2,1,15,0,0
289830,-200,4,1,1,15,0,0
290830,-333.333333333333,4,1,1,15,0,0
293830,-200,4,1,1,15,0,0
294830,-333.333333333333,4,1,1,15,0,0
295830,-133.333333333333,4,1,1,15,0,0
296830,-666.666666666667,4,1,1,20,0,0
297830,-66.6666666666667,4,1,1,30,0,1
298330,-66.6666666666667,4,2,2,30,0,1
298663,-66.6666666666667,4,2,2,5,0,1
298830,-57.1428571428571,4,1,1,30,0,1
299330,-66.6666666666667,4,1,1,30,0,1
300830,-57.1428571428571,4,1,1,30,0,1
301330,-66.6666666666667,4,1,1,30,0,1
302830,-57.1428571428571,4,1,1,30,0,1
303330,-66.6666666666667,4,1,1,30,0,1
304830,-80,4,1,1,30,0,1
305330,-133.333333333333,4,1,1,30,0,1
305830,-100,4,1,1,30,0,1
306330,-100,4,2,2,30,0,1
306663,-100,4,1,1,30,0,1
307330,-100,4,2,2,30,0,1
307663,-100,4,1,1,30,0,1
308330,-100,4,2,2,30,0,1
308663,-100,4,1,1,30,0,1
308830,-66.6666666666667,4,1,1,30,0,1
309330,-66.6666666666667,4,2,2,30,0,1
309663,-66.6666666666667,4,1,1,30,0,1
310330,-66.6666666666667,4,2,2,30,0,1
310663,-66.6666666666667,4,1,1,30,0,1
310830,-57.1428571428571,4,1,1,30,0,1
311330,-57.1428571428571,4,2,2,30,0,1
311663,-57.1428571428571,4,1,1,30,0,1
311830,-66.6666666666667,4,1,1,30,0,1
312163,-66.6666666666667,4,1,1,5,0,1
312330,-66.6666666666667,4,1,1,30,0,1
313663,-66.6666666666667,4,1,1,5,0,1
313830,-200,4,2,1,20,0,0
314163,-333.333333333333,4,2,5,5,0,0
314330,-333.333333333333,4,2,1,5,0,0
314663,-333.333333333333,4,2,5,5,0,0
314830,-200,4,2,1,5,0,0
315163,-200,4,2,5,5,0,0
315330,-333.333333333333,4,2,1,5,0,0
315663,-333.333333333333,4,2,5,5,0,0
315830,-200,4,2,1,5,0,0
316163,-200,4,2,5,5,0,0
316330,-333.333333333333,4,2,1,5,0,0
316663,-333.333333333333,4,2,5,5,0,0
316830,-333.333333333333,4,2,1,5,0,0
317163,-333.333333333333,4,2,5,5,0,0
317330,-333.333333333333,4,2,1,5,0,0
317663,-333.333333333333,4,2,5,5,0,0
317830,-200,4,2,1,5,0,0
318163,-200,4,2,5,5,0,0
318330,-333.333333333333,4,2,1,5,0,0
318663,-333.333333333333,4,2,5,5,0,0
318830,-200,4,2,1,5,0,0
319163,-200,4,2,5,5,0,0
319330,-333.333333333333,4,2,1,5,0,0
319663,-333.333333333333,4,2,5,5,0,0
319830,-333.333333333333,4,2,1,5,0,0
320163,-333.333333333333,4,2,5,5,0,0
320330,521.739130434783,4,2,1,5,1,0
320330,-200,4,2,1,5,0,0
320677,-200,4,2,5,5,0,0
320851,571.428571428571,4,2,1,5,1,0
320851,-250,4,2,1,5,0,0
321231,-250,4,2,5,5,0,0
321422,631.578947368421,4,2,1,5,1,0
321422,-333.333333333333,4,2,1,5,0,0
321843,-333.333333333333,4,2,5,5,0,0
322053,-500,4,2,1,5,0,0
326474,-500,4,2,5,5,0,0

[Colours]
Combo1 : 181,188,251
Combo2 : 151,244,228
Combo3 : 198,245,175
Combo4 : 227,191,249

[HitObjects]
103,113,988,6,0,P|130:97|168:90,1,64
214,142,2433,6,0,L|221:214,1,55.9999982910157,2|0,0:0|0:0,0:0:0:0:
276,99,2870,2,0,L|284:27,1,55.9999982910157,2|0,0:0|0:0,0:0:0:0:
284,35,3283,1,2,0:0:0:0:
285,25,3698,1,2,0:0:0:0:
354,66,4153,6,0,L|360:121,1,55.9999982910157,2|0,0:0|0:0,0:0:0:0:
421,231,4554,2,0,L|414:306,1,64,2|0,0:0|0:0,0:0:0:0:
414,305,5092,1,2,0:0:0:0:
339,333,5630,2,0,P|316:315|304:308,1,40,2|0,0:0|0:0,0:0:0:0:
237,324,6590,6,0,L|232:292,1,32,2|0,0:0|0:0,0:0:0:0:
171,245,6938,2,0,L|175:211,1,32,2|0,0:0|0:0,0:0:0:0:
229,159,7348,2,0,L|224:121,1,32,2|0,0:0|0:0,0:0:0:0:
174,82,7785,2,0,L|178:57,1,23.9999992675781,2|0,0:0|0:0,0:0:0:0:
233,25,8301,2,0,L|230:10,1,16,2|2,0:0|0:0,0:0:0:0:
229,9,9355,1,2,0:0:0:0:
229,9,10631,6,0,L|296:18,1,64,2|0,0:0|0:0,0:0:0:0:
315,92,11120,2,0,L|245:100,1,64,2|0,0:0|0:0,0:0:0:0:
231,164,11610,2,0,L|294:170,1,64,2|0,0:0|0:0,0:0:0:0:
317,233,12210,2,0,L|261:240,1,47.9999985351563,2|0,0:0|0:0,0:0:0:0:
224,286,12752,2,0,L|204:282,1,16,2|0,0:0|0:0,0:0:0:0:
198,279,13364,1,2,0:0:0:0:
421,341,13976,6,0,L|334:321,1,80,2|0,0:0|0:0,0:0:0:0:
334,320,14488,1,2,0:0:0:0:
465,281,14779,2,0,L|516:276,1,47.9999985351563,2|0,0:0|0:0,0:0:0:0:
501,213,15501,2,0,L|483:210,1,16,2|0,0:0|0:0,0:0:0:0:
460,143,16988,6,0,P|489:120|507:79,1,80,2|0,0:0|0:0,0:0:0:0:
386,131,17488,2,0,P|366:96|366:51,1,80
415,202,17988,6,0,L|407:264,1,47.9999985351563,2|0,0:0|0:0,0:0:0:0:
454,307,18488,2,0,L|458:338,1,23.9999992675781
396,375,18988,6,0,P|372:359|340:348,1,47.9999985351563,2|0,0:0|0:0,0:0:0:0:
305,292,19488,2,0,P|288:300|265:305,1,32
138,264,19988,6,0,P|174:280|196:314,1,80,2|0,0:0|0:0,0:0:0:0:
198,323,20488,2,0,P|166:337|154:349,1,47.9999985351563
114,193,20988,6,0,P|159:182|187:150,1,80,2|0,0:0|0:0,0:0:0:0:
77,129,21488,2,0,P|107:103|159:97,1,80
221,69,21988,6,0,P|248:75|271:91,1,47.9999985351563,2|0,0:0|0:0,0:0:0:0:
314,67,22488,2,0,P|291:74|274:90,1,47.9999985351563
286,161,22988,6,0,P|278:177|274:198,1,32,2|0,0:0|0:0,0:0:0:0:
321,243,23488,2,0,P|322:259|327:274,1,23.9999992675781
413,156,23988,6,0,P|385:169|367:185,1,47.9999985351563,2|0,0:0|0:0,0:0:0:0:
366,184,24488,2,0,P|362:151|356:131,1,47.9999985351563
440,3,24988,6,0,P|422:42|411:90,1,80,2|0,0:0|0:0,0:0:0:0:
409,85,25488,2,0,P|400:54|387:27,1,47.9999985351563
290,108,25988,6,0,P|302:58|316:24,1,80,2|0,0:0|0:0,0:0:0:0:
314,21,26488,2,0,P|298:45|276:61,1,47.9999985351563
215,36,26988,2,0,P|200:45|176:50,1,32
130,15,27488,2,0,P|116:14|104:9,1,23.9999992675781
11,98,27988,6,0,P|53:83|97:74,1,80,2|0,0:0|0:0,0:0:0:0:
142,118,28488,2,0,P|169:120|197:129,1,47.9999985351563
99,176,28988,6,0,P|61:186|23:204,1,80,2|0,0:0|0:0,0:0:0:0:
19,211,29488,2,0,P|51:219|70:231,1,47.9999985351563
101,322,29988,6,0,P|139:302|181:291,1,80,2|0,0:0|0:0,0:0:0:0:
221,238,30488,2,0,P|247:249|277:255,1,47.9999985351563
388,136,30988,6,0,P|370:188|301:198,1,120.000004577637,2|0,0:0|0:0,0:0:0:0:
411,248,31488,2,0,P|460:258|481:288,1,80
486,87,31988,6,0,P|463:128|498:198,1,120.000004577637,2|0,0:0|0:0,0:0:0:0:
387,135,32488,2,0,P|360:101|320:94,1,80
449,23,32988,6,0,L|422:27,2,23.9999992675781,2|0|0,0:2|0:0|0:0,0:0:0:0:
486,87,33488,2,0,L|516:92,2,23.9999992675781,2|0|0,0:2|0:0|0:0,0:0:0:0:
360,57,33988,6,0,L|326:50,2,23.9999992675781,2|0|0,0:2|0:0|0:0,0:0:0:0:
241,18,34488,6,0,L|270:14,2,23.9999992675781,2|0|0,0:2|0:0|0:0,0:0:0:0:
190,73,34988,2,0,L|162:69,2,23.9999992675781,2|0|0,0:2|0:0|0:0,0:0:0:0:
75,28,35488,6,0,L|99:25,2,23.9999992675781,2|0|0,0:2|0:0|0:0,0:0:0:0:
24,83,35988,2,0,L|-1:80,2,23.9999992675781,2|0|0,0:2|0:0|0:0,0:0:0:0:
67,142,36488,2,0,L|91:138,2,23.9999992675781,2|0|0,0:2|0:0|0:0,0:0:0:0:
173,205,36988,6,0,L|146:200,2,23.9999992675781,2|0|0,0:2|0:0|0:0,0:0:0:0:
216,267,37488,2,0,L|244:264,2,23.9999992675781,2|0|0,0:2|0:0|0:0,0:0:0:0:
163,321,37988,2,0,L|139:318,2,23.9999992675781,2|0|0,0:2|0:0|0:0,0:0:0:0:
48,366,38488,6,0,L|74:363,2,23.9999992675781,2|0|0,0:2|0:0|0:0,0:0:0:0:
23,295,38988,2,0,L|-5:292,2,23.9999992675781,2|0|0,0:2|0:0|0:0,0:0:0:0:
47,227,39488,2,0,L|72:224,2,23.9999992675781,2|0|0,0:2|0:0|0:0,0:0:0:0:
161,178,39988,6,0,L|125:173,2,23.9999992675781,2|0|0,0:2|0:0|0:0,0:0:0:0:
204,238,40488,2,0,L|236:234,2,23.9999992675781,2|0|0,0:2|0:0|0:0,0:0:0:0:
319,283,40988,6,0,L|296:280,2,23.9999992675781,2|0|0,0:2|0:0|0:0,0:0:0:0:
370,227,41488,2,0,L|397:224,2,23.9999992675781,2|0|0,0:2|0:0|0:0,0:0:0:0:
479,284,41988,6,0,L|452:279,2,23.9999992675781,2|0|0,0:2|0:0|0:0,0:0:0:0:
508,218,42488,2,0,L|534:215,2,23.9999992675781,2|0|0,0:2|0:0|0:0,0:0:0:0:
435,176,42988,6,0,L|409:172,2,23.9999992675781,2|0|0,0:2|0:0|0:0,0:0:0:0:
488,123,43488,2,0,L|514:120,2,23.9999992675781,2|0|0,0:2|0:0|0:0,0:0:0:0:
370,79,43988,6,0,L|394:82,2,23.9999992675781,2|0|0,0:2|0:0|0:0,0:0:0:0:
255,123,44488,6,0,L|285:120,2,23.9999992675781,2|0|0,0:2|0:0|0:0,0:0:0:0:
368,176,44988,6,0,L|345:173,2,23.9999992675781,2|0|0,0:2|0:0|0:0,0:0:0:0:
397,246,45488,2,0,L|424:243,2,23.9999992675781,2|0|0,0:2|0:0|0:0,0:0:0:0:
283,292,45988,6,0,L|260:289,2,23.9999992675781,2|0|0,0:2|0:0|0:0,0:0:0:0:
322,356,46488,2,0,L|347:353,2,23.9999992675781,2|0|0,0:2|0:0|0:0,0:0:0:0:
250,372,46988,2,0,L|225:368,2,23.9999992675781,2|0|0,0:2|0:0|0:0,0:0:0:0:
322,356,47488,6,0,P|331:324|347:294,1,47.9999985351563,2|0,0:2|0:0,0:0:0:0:
294,258,47988,2,0,P|290:238|283:220,1,32,2|0,0:2|0:0,0:0:0:0:
327,172,48488,2,0,L|330:153,1,16,2|0,0:2|0:0,0:0:0:0:
218,206,48988,5,2,0:2:0:0:
209,133,49154,1,2,0:2:0:0:
229,280,49321,1,2,0:2:0:0:
231,292,49654,5,2,0:2:0:0:
357,275,49988,6,0,L|327:271,2,23.9999992675781,2|0|0,0:2|0:0|0:0,0:0:0:0:
412,222,50488,2,0,L|435:219,2,23.9999992675781,2|0|0,0:2|0:0|0:0,0:0:0:0:
358,168,50988,2,0,L|334:165,2,23.9999992675781,2|0|0,0:2|0:0|0:0,0:0:0:0:
245,116,51488,6,0,L|217:119,2,23.9999992675781,2|0|0,0:2|0:0|0:0,0:0:0:0:
309,77,51988,2,0,L|335:80,2,23.9999992675781,2|0|0,0:2|0:0|0:0,0:0:0:0:
248,32,52488,2,0,L|219:35,2,23.9999992675781,2|0|0,0:2|0:0|0:0,0:0:0:0:
151,46,52988,5,2,0:2:0:0:
76,57,53321,5,2,0:2:0:0:
224,34,53488,2,0,B|223:72|196:99|196:99|217:121|221:149,1,119.999996337891,2|0,0:2|0:0,0:0:0:0:
241,208,54488,1,2,0:2:0:0:
270,358,54821,5,2,0:2:0:0:
262,281,54988,2,0,B|235:287|197:312|197:312|207:282|224:274,1,119.999996337891,2|0,0:2|0:0,0:0:0:0:
143,376,55988,6,0,P|113:348|98:341,1,47.9999985351563,2|0,0:2|0:0,0:0:0:0:
98,344,56488,2,0,P|105:360|108:371,1,23.9999992675781,2|0,0:2|0:0,0:0:0:0:
78,259,56988,6,0,L|84:233,2,23.9999992675781,2|0|0,0:2|0:0|0:0,0:0:0:0:
18,302,57488,2,0,L|23:331,2,23.9999992675781,2|0|0,0:2|0:0|0:0,0:0:0:0:
45,178,57988,6,0,L|51:147,2,23.9999992675781,2|0|0,0:2|0:0|0:0,0:0:0:0:
103,226,58488,2,0,B|127:204|164:188|164:188|143:153|115:137|115:137|144:125|155:104,1,191.999994140625,2|0,0:2|0:0,0:0:0:0:
67,40,59988,6,0,L|96:45,2,23.9999992675781,2|0|0,0:2|0:0|0:0,0:0:0:0:
191,16,60488,6,0,L|163:20,2,23.9999992675781,2|0|0,0:2|0:0|0:0,0:0:0:0:
300,40,60988,1,2,0:2:0:0:
447,18,61321,5,2,0:2:0:0:
373,28,61488,1,2,0:2:0:0:
373,28,61821,5,2,0:2:0:0:
447,18,61988,1,2,0:2:0:0:
447,18,62321,5,2,0:2:0:0:
300,40,62488,1,2,0:2:0:0:
300,40,62821,5,2,0:2:0:0:
373,28,62988,1,2,0:2:0:0:
373,28,63321,5,2,0:2:0:0:
300,40,63488,1,2,0:2:0:0:
431,84,63988,6,0,L|456:87,2,23.9999992675781,2|0|0,0:2|0:0|0:0,0:0:0:0:
308,142,64488,6,0,L|281:146,2,23.9999992675781,2|0|0,0:2|0:0|0:0,0:0:0:0:
417,227,64988,6,0,B|396:242|393:292|393:292|356:271|323:271|323:271|301:292|277:294,1,191.999994140625,2|0,3:2|0:0,0:0:0:0:
213,260,66488,2,0,B|174:263|144:244|144:244|154:286|149:315|149:315|129:300|99:298,1,191.999994140625,2|0,0:2|0:0,0:0:0:0:
43,254,67988,6,0,L|18:258,2,23.9999992675781,2|0|0,0:2|0:0|0:0,0:0:0:0:
78,184,68488,2,0,L|105:187,2,23.9999992675781,2|0|0,0:2|0:0|0:0,0:0:0:0:
173,147,68988,1,2,0:2:0:0:
318,130,69321,5,2,0:2:0:0:
246,138,69488,1,2,0:2:0:0:
246,138,69988,5,2,0:2:0:0:
173,147,70488,1,2,0:2:0:0:
173,147,70821,5,2,0:2:0:0:
246,138,70988,1,2,0:2:0:0:
318,130,71321,5,2,0:2:0:0:
246,138,71654,1,2,0:2:0:0:
173,147,71988,1,2,0:2:0:0:
246,138,72321,1,2,0:2:0:0:
395,191,72988,6,0,L|368:186,2,23.9999992675781,2|0|0,0:2|0:0|0:0,0:0:0:0:
445,246,73488,2,0,L|478:242,2,23.9999992675781,2|0|0,0:2|0:0|0:0,0:0:0:0:
393,301,73988,2,0,L|367:297,2,23.9999992675781,2|0|0,0:2|0:0|0:0,0:0:0:0:
454,353,74488,2,0,L|480:350,2,23.9999992675781,2|0|0,0:2|0:0|0:0,0:0:0:0:
384,379,74988,2,0,L|350:374,2,23.9999992675781,2|0|0,0:2|0:0|0:0,0:0:0:0:
450,343,75488,2,0,L|475:341,2,23.9999992675781,2|0|0,0:2|0:0|0:0,0:0:0:0:
330,313,75988,6,0,L|305:316,2,23.9999992675781,2|0|0,0:2|0:0|0:0,0:0:0:0:
210,286,76488,6,0,L|241:289,2,23.9999992675781,2|0|0,0:2|0:0|0:0,0:0:0:0:
96,330,76988,6,0,L|122:327,2,23.9999992675781,2|0|0,0:2|0:0|0:0,0:0:0:0:
143,228,77488,6,0,B|205:182|276:209|239:242|357:283|446:214|392:108|320:105|292:144|296:177,1,360,2|0,0:2|0:0,0:0:0:0:
173,125,79154,6,0,B|222:173|280:127|264:61|217:36|145:36|104:91|104:91|53:83|21:43,1,360.000013732911,2|0,0:2|0:0,0:0:0:0:
4,119,80321,6,0,L|11:152,1,23.9999992675781,2|0,0:2|0:0,0:0:0:0:
50,196,80654,2,0,L|46:225,1,23.9999992675781,2|0,0:2|0:0,0:0:0:0:
103,334,80988,6,0,P|97:298|84:269,1,60.0000022888184,2|0,0:2|0:0,0:0:0:0:
176,348,81321,2,0,P|200:314|235:292,1,60.0000022888184,2|8,0:2|0:2,0:0:0:0:
158,243,81654,6,0,L|167:200,1,40,2|0,0:2|0:0,0:0:0:0:
130,145,81988,2,0,L|129:119,1,23.9999992675781,2|0,0:2|0:0,0:0:0:0:
230,172,82321,6,0,L|234:147,1,23.9999992675781,2|8,0:2|0:2,0:0:0:0:
292,104,82654,2,0,P|317:111|341:127,1,40,2|0,0:2|0:0,0:0:0:0:
352,17,82988,6,0,P|363:45|394:74,1,60.0000022888184,2|0,0:2|0:0,0:0:0:0:
506,76,83321,2,0,P|472:81|440:105,1,60.0000022888184,2|8,0:2|0:2,0:0:0:0:
396,141,83654,2,0,P|390:161|375:182,1,40,2|0,0:2|0:0,0:0:0:0:
503,159,83988,6,0,L|507:189,1,23.9999992675781,2|0,0:2|0:0,0:0:0:0:
464,236,84321,2,0,L|460:263,1,23.9999992675781,2|8,0:2|0:2,0:0:0:0:
507,310,84654,2,0,L|510:333,1,23.9999992675781,2|0,0:2|0:0,0:0:0:0:
403,363,84988,6,0,P|435:371|465:390,1,60.0000022888184,2|0,0:2|0:0,0:0:0:0:
380,291,85321,2,0,P|370:255|351:228,1,60.0000022888184,2|8,0:2|0:2,0:0:0:0:
309,187,85654,6,0,P|290:201|255:210,1,40,2|0,0:2|0:0,0:0:0:0:
215,179,85988,2,0,L|181:175,1,23.9999992675781,2|0,0:2|0:0,0:0:0:0:
163,241,86321,2,0,L|190:244,1,23.9999992675781,2|8,0:2|0:2,0:0:0:0:
276,292,86654,6,0,P|251:297|231:309,1,40,2|0,0:2|0:0,0:0:0:0:
124,334,86988,6,0,P|160:339|198:356,1,60.0000022888184,2|0,0:2|0:0,0:0:0:0:
58,361,87321,2,0,P|18:352|-11:330,1,60.0000022888184,2|8,0:2|0:2,0:0:0:0:
15,274,87654,2,0,P|48:260|61:239,1,40,2|0,0:2|0:0,0:0:0:0:
70,105,87988,6,0,B|42:14|199:-3|188:148|99:213,1,300,2|8,0:2|0:2,0:0:0:0:
33,190,88821,1,2,0:2:0:0:
100,211,88988,6,0,P|139:195|176:193,1,60.0000022888184,2|0,0:2|0:0,0:0:0:0:
225,197,89321,2,0,P|233:221|243:237,1,40,2|8,0:2|0:2,0:0:0:0:
309,252,89654,2,0,L|316:228,1,23.9999992675781,2|0,0:2|0:0,0:0:0:0:
431,282,89988,6,0,P|423:257|412:234,1,40,2|0,0:2|0:0,0:0:0:0:
372,190,90321,2,0,P|383:155|407:118,1,60.0000022888184,2|8,0:2|0:2,0:0:0:0:
289,140,90654,2,0,P|279:111|259:85,1,60.0000022888184,2|0,0:2|0:0,0:0:0:0:
383,64,90988,6,0,P|333:55|296:22,1,80,2|0,0:2|0:0,0:0:0:0:
454,51,91321,2,0,P|461:98|487:139,1,80,2|8,0:2|0:2,0:0:0:0:
445,191,91654,2,0,P|440:229|423:259,1,60.0000022888184,2|0,0:2|0:0,0:0:0:0:
273,219,91988,6,0,B|204:237|149:127|267:83|359:147|382:212,1,300,2|8,0:2|0:2,0:0:0:0:
445,191,92821,1,2,0:2:0:0:
377,201,92988,6,0,P|345:232|331:255,1,60.0000022888184,2|0,0:2|0:0,0:0:0:0:
288,336,93321,2,0,P|269:306|234:284,1,60.0000022888184,2|8,0:2|0:2,0:0:0:0:
187,322,93654,2,0,P|201:343|208:363,1,40,2|0,0:2|0:0,0:0:0:0:
119,286,93988,6,0,P|137:253|141:216,1,60.0000022888184,2|0,0:2|0:0,0:0:0:0:
131,160,94321,2,0,P|103:151|88:141,1,40,2|8,0:2|0:2,0:0:0:0:
53,89,94654,2,0,L|49:56,1,23.9999992675781,2|0,0:2|0:0,0:0:0:0:
185,116,94988,6,0,P|220:109|254:91,1,60.0000022888184,2|0,0:2|0:0,0:0:0:0:
277,42,95321,2,0,P|302:46|331:56,1,40,2|8,0:2|0:2,0:0:0:0:
359,101,95654,6,0,L|389:98,1,23.9999992675781,2|0,0:2|0:0,0:0:0:0:
428,50,95988,2,0,L|460:53,1,23.9999992675781,2|0,0:2|0:0,0:0:0:0:
428,157,96321,6,0,P|416:177|410:217,1,40,2|8,0:2|0:2,0:0:0:0:
458,246,96654,2,0,P|469:269|475:288,1,40,2|0,0:2|0:0,0:0:0:0:
371,361,96988,6,0,P|402:344|430:337,1,60.0000022888184,2|0,0:2|0:0,0:0:0:0:
385,275,97321,2,0,P|365:267|334:259,1,40,2|8,0:2|0:2,0:0:0:0:
271,200,97654,6,0,P|249:214|212:223,1,60.0000022888184,2|0,0:2|0:0,0:0:0:0:
155,186,97988,2,0,P|171:160|176:139,1,40,2|0,0:2|0:0,0:0:0:0:
128,102,98321,6,0,L|126:72,1,23.9999992675781,2|8,0:2|0:2,0:0:0:0:
170,29,98654,2,0,L|173:5,1,23.9999992675781,2|0,0:2|0:0,0:0:0:0:
296,29,98988,6,0,P|269:46|228:53,1,60.0000022888184,2|0,0:2|0:0,0:0:0:0:
200,112,99321,2,0,P|223:119|242:129,1,40,2|8,0:2|0:2,0:0:0:0:
304,113,99654,2,0,L|329:109,1,23.9999992675781,2|0,0:2|0:0,0:0:0:0:
393,197,99988,6,0,B|386:247|482:283|528:194|498:113|439:69|379:89,1,300,2|8,0:2|0:2,0:0:0:0:
391,85,100988,6,0,P|366:104|337:117,1,60.0000022888184,2|0,0:2|0:0,0:0:0:0:
268,122,101321,2,0,P|275:93|283:74,1,40,2|8,0:2|0:2,0:0:0:0:
229,38,101654,2,0,L|225:9,1,23.9999992675781,2|0,0:2|0:0,0:0:0:0:
197,138,101988,6,0,P|176:112|147:93,1,60.0000022888184,2|0,0:2|0:0,0:0:0:0:
84,102,102321,2,0,P|93:125|99:150,1,40,2|8,0:2|0:2,0:0:0:0:
54,197,102654,2,0,L|49:224,1,23.9999992675781,2|0,0:2|0:0,0:0:0:0:
156,295,102988,6,0,P|131:273|93:258,1,60.0000022888184,2|0,0:2|0:0,0:0:0:0:
227,313,103321,2,0,P|258:297|291:288,1,60.0000022888184,2|8,0:2|0:2,0:0:0:0:
391,362,103654,2,0,P|359:346|321:336,1,60.0000022888184,2|0,0:2|0:0,0:0:0:0:
456,335,103988,6,0,B|482:391|574:366|579:266|513:241|448:238|466:158|506:140,1,300,2|8,0:2|0:2,0:0:0:0:
204,236,104988,6,0,P|242:226|279:199,1,80,0|0,3:0|0:0,0:0:0:0:
84,161,105988,6,0,P|109:176|167:181,1,80,0|0,3:0|0:0,0:0:0:0:
60,24,106988,6,0,P|56:56|83:99,1,80,0|0,3:0|0:0,0:0:0:0:
52,227,107988,6,0,P|76:207|80:152,1,80,0|0,3:0|0:0,0:0:0:0:
203,166,108988,6,0,P|182:135|129:125,1,80,0|0,3:0|0:0,0:0:0:0:
180,254,109988,6,0,P|155:227|141:180,1,80,0|0,3:0|0:0,0:0:0:0:
303,258,110988,6,0,P|265:250|231:221,1,64,0|0,3:0|0:0,0:0:0:0:
449,193,111488,6,0,P|403:215|352:213,1,95.9999970703126,0|0,3:0|0:0,0:0:0:0:
505,21,111988,6,0,P|491:86|435:130,1,128,0|0,3:0|0:0,0:0:0:0:
245,40,112488,6,0,P|331:46|403:92,1,160,0|0,3:0|0:0,0:0:0:0:
276,112,112988,6,0,P|292:143|299:175,1,60.0000022888184,2|0,0:2|0:0,0:0:0:0:
259,228,113321,2,0,P|241:211|221:201,1,40,2|8,0:2|0:2,0:0:0:0:
165,240,113654,2,0,L|140:243,1,23.9999992675781,2|0,0:2|0:0,0:0:0:0:
191,106,113988,6,0,P|178:133|171:162,1,60.0000022888184,2|0,0:2|0:0,0:0:0:0:
107,137,114321,2,0,P|100:112|92:97,1,40,2|8,0:2|0:2,0:0:0:0:
145,51,114654,2,0,L|150:25,1,23.9999992675781,2|0,0:2|0:0,0:0:0:0:
264,86,114988,6,0,P|296:73|320:54,1,60.0000022888184,2|0,0:2|0:0,0:0:0:0:
361,156,115321,2,0,P|362:124|380:86,1,60.0000022888184,2|8,0:2|0:2,0:0:0:0:
443,69,115654,2,0,P|437:47|424:26,1,40,2|0,0:2|0:0,0:0:0:0:
503,115,115988,6,0,L|494:173,1,47.9999985351563,2|0,0:2|0:0,0:0:0:0:
439,203,116488,2,0,L|446:254,1,47.9999985351563,10|0,0:2|0:0,0:0:0:0:
486,368,116988,6,0,P|493:330|506:297,1,60.0000022888184,2|0,0:2|0:0,0:0:0:0:
389,344,117321,2,0,P|382:310|367:281,1,60.0000022888184,2|8,0:2|0:2,0:0:0:0:
305,259,117654,2,0,P|298:286|287:309,1,40,2|0,0:2|0:0,0:0:0:0:
356,201,117988,6,0,P|329:187|301:183,1,60.0000022888184,2|0,0:2|0:0,0:0:0:0:
241,220,118321,2,0,L|218:222,1,23.9999992675781,2|8,0:2|0:2,0:0:0:0:
166,174,118654,2,0,L|139:172,1,23.9999992675781,2|0,0:2|0:0,0:0:0:0:
261,88,118988,6,0,P|233:111|209:122,1,60.0000022888184,2|0,0:2|0:0,0:0:0:0:
109,64,119321,2,0,P|74:57|53:44,1,60.0000022888184,2|8,0:2|0:2,0:0:0:0:
145,3,119654,2,0,P|163:18|176:34,1,40,2|0,0:2|0:0,0:0:0:0:
153,163,119988,6,0,B|111:225|177:291|254:256|274:169|239:111|206:80,1,300,2|8,0:2|0:2,0:0:0:0:
143,95,120821,1,2,0:2:0:0:
211,85,120988,6,0,P|241:107|273:118,1,60.0000022888184,2|0,0:2|0:0,0:0:0:0:
327,86,121321,2,0,P|351:77|371:72,1,40,2|8,0:2|0:2,0:0:0:0:
426,108,121654,2,0,L|456:111,1,23.9999992675781,2|0,0:2|0:0,0:0:0:0:
428,209,121988,6,0,B|364:260|429:338|538:304|548:200|511:142,1,300,2|8,0:2|0:2,0:0:0:0:
510,70,122821,1,2,0:2:0:0:
512,144,122988,6,0,P|477:142|455:133,1,60.0000022888184,2|0,0:2|0:0,0:0:0:0:
377,111,123321,2,0,P|387:136|388:155,1,40,2|8,0:2|0:2,0:0:0:0:
342,200,123654,2,0,L|339:229,1,23.9999992675781,2|0,0:2|0:0,0:0:0:0:
207,348,123988,6,0,B|152:376|82:309|161:215|248:226|324:305,1,300,2|8,0:2|0:2,0:0:0:0:
279,359,124821,1,2,0:2:0:0:
309,291,124988,6,0,P|340:273|376:265,1,60.0000022888184,2|0,0:2|0:0,0:0:0:0:
489,256,125321,2,0,P|497:224|512:190,1,60.0000022888184,2|8,0:2|0:2,0:0:0:0:
462,148,125654,2,0,P|459:121|449:97,1,40,2|0,0:2|0:0,0:0:0:0:
505,1,125988,6,0,P|488:28|460:44,1,60.0000022888184,2|0,0:2|0:0,0:0:0:0:
371,25,126321,2,0,P|352:16|327:12,1,40,2|8,0:2|0:2,0:0:0:0:
278,58,126654,2,0,P|259:68|238:71,1,40,2|0,0:2|0:0,0:0:0:0:
116,47,126988,6,0,P|150:57|187:84,1,60.0000022888184,2|0,0:2|0:0,0:0:0:0:
162,140,127321,2,0,L|168:171,1,23.9999992675781,2|8,0:2|0:2,0:0:0:0:
124,224,127654,2,0,L|119:255,1,23.9999992675781,2|0,0:2|0:0,0:0:0:0:
12,164,127988,6,0,P|33:178|62:214,1,60.0000022888184,2|0,0:2|0:0,0:0:0:0:
32,272,128321,2,0,P|24:297|21:317,1,40,2|8,0:2|0:2,0:0:0:0:
72,366,128654,2,0,P|89:350|114:342,1,40,2|0,0:2|0:0,0:0:0:0:
235,359,128988,6,0,P|204:337|171:323,1,60.0000022888184,2|0,0:2|0:0,0:0:0:0:
136,280,129321,2,0,P|148:256|153:235,1,40,2|8,0:2|0:2,0:0:0:0:
109,187,129654,2,0,L|107:159,1,23.9999992675781,2|0,0:2|0:0,0:0:0:0:
219,168,129988,6,0,B|297:203|340:75|217:37|142:55|91:108,1,300,2|8,0:2|0:2,0:0:0:0:
96,162,130821,1,2,0:2:0:0:
108,92,130988,6,0,P|87:76|50:61,1,60.0000022888184,2|0,0:2|0:0,0:0:0:0:
42,187,131321,2,0,P|71:170|103:162,1,60.0000022888184,2|8,0:2|0:2,0:0:0:0:
151,214,131654,6,0,P|140:235|135:264,1,40,2|0,0:2|0:0,0:0:0:0:
179,306,131988,2,0,P|207:289|256:275,1,71.9999978027344,2|8,0:2|0:2,0:0:0:0:
230,348,132821,1,2,0:2:0:0:
244,276,132988,6,0,P|256:243|272:222,1,60.0000022888184,2|0,0:2|0:0,0:0:0:0:
301,324,133321,2,0,P|330:307|369:300,1,60.0000022888184,2|8,0:2|0:2,0:0:0:0:
377,234,133654,2,0,P|356:214|338:205,1,40,2|0,0:2|0:0,0:0:0:0:
244,276,133988,6,0,P|256:243|272:222,1,60.0000022888184,2|0,0:2|0:0,0:0:0:0:
301,324,134321,2,0,P|330:307|369:300,1,60.0000022888184,2|8,0:2|0:2,0:0:0:0:
414,345,134654,2,0,L|441:348,1,23.9999992675781,2|0,0:2|0:0,0:0:0:0:
410,226,134988,6,0,P|444:212|473:187,1,60.0000022888184,2|0,0:2|0:0,0:0:0:0:
353,128,135321,2,0,P|386:133|413:145,1,60.0000022888184,2|8,0:2|0:2,0:0:0:0:
315,59,135654,2,0,P|345:51|378:27,1,60.0000022888184,2|0,0:2|0:0,0:0:0:0:
239,41,135988,6,0,B|225:-11|120:-19|110:94|167:173|256:198,1,300,2|8,0:2|0:2,0:0:0:0:
45,212,136988,6,0,P|60:251|68:293,1,80,0|0,3:0|0:0,0:0:0:0:
75,361,137988,2,0,P|33:370|-8:389,1,80,2|0,2:0|0:0,0:0:0:0:
137,314,138988,6,0,P|215:307|311:277,1,176,0|0,3:0|0:0,0:0:0:0:
191,183,140988,6,0,P|270:190|364:223,1,176,0|0,3:0|0:0,0:0:0:0:
298,105,142988,6,0,P|325:130|351:144,1,64,0|0,3:0|0:0,0:0:0:0:
197,30,143488,6,0,P|204:76|235:122,1,95.9999970703126,0|0,3:0|0:0,0:0:0:0:
220,302,143988,6,0,P|217:228|170:165,1,128,0|0,3:0|0:0,0:0:0:0:
295,324,144488,6,0,P|356:241|425:222,1,160,0|0,3:0|0:0,0:0:0:0:
299,127,144988,6,0,B|378:131|386:-13|250:-20|134:40|128:209|204:298|154:345|-6:358|22:212|85:216,1,600.000022888184,6|0,3:2|0:0,0:0:0:0:
4,113,145988,6,0,B|71:66|300:76|176:167|257:263|411:286|543:258|490:79|393:117|383:159,1,600.000022888184,2|0,0:2|0:0,0:0:0:0:
220,271,146988,6,0,B|48:373|-58:158|96:97|184:162|172:235,1,400,2|0,0:2|0:0,0:0:0:0:
172,217,147988,6,0,P|186:175|199:153,1,60.0000022888184,2|0,0:2|0:0,0:0:0:0:
264,147,148321,2,0,P|284:115|307:93,1,60.0000022888184,2|8,0:2|0:2,0:0:0:0:
371,119,148654,2,0,P|404:100|435:92,1,60.0000022888184,2|0,0:2|0:0,0:0:0:0:
484,276,148988,6,0,B|432:244|281:212|353:333|203:373|10:354|14:149|168:54|292:112|238:255|169:223,1,600.000022888184,6|0,3:2|0:0,0:0:0:0:
350,351,149988,6,0,B|405:283|397:166|250:192|189:41|335:-79|477:-38|534:45|496:147|386:176|356:63,1,600.000022888184,2|0,0:2|0:0,0:0:0:0:
215,20,150988,6,0,B|271:92|252:192|84:162|55:298|133:370,1,400,2|0,0:2|0:0,0:0:0:0:
128,363,151988,6,0,P|177:321|168:263,1,120,2|8,0:2|0:2,0:0:0:0:
169,262,152988,5,6,0:2:0:0:
267,287,153154,1,2,0:2:0:0:
330,367,153321,1,2,0:2:0:0:
311,222,153488,5,10,0:2:0:0:
407,189,153654,1,2,0:2:0:0:
445,94,153821,1,2,0:2:0:0:
266,160,153988,5,2,0:2:0:0:
266,160,154321,6,0,B|236:109|234:44|234:44|219:108|161:131|161:131|208:183|211:255,1,360.000013732911,2|0,0:2|0:0,0:0:0:0:
51,357,154988,6,0,B|127:276|273:293|204:379|353:415|425:312,1,400,2|0,0:2|0:0,0:0:0:0:
418,320,155988,6,0,P|431:267|346:285,1,180.000006866455,2|8,0:2|0:2,0:0:0:0:
346,296,156654,5,2,0:2:0:0:
485,225,156988,6,0,B|424:135|302:140|298:226|264:289|187:329|18:241|6:129|140:45|239:136|174:202,1,600.000022888184,6|0,0:2|0:0,0:0:0:0:
349,82,157988,6,0,B|403:4|297:-52|175:9|224:145|319:226|367:316|367:316|318:286|225:311,1,600.000022888184,2|0,0:2|0:0,0:0:0:0:
95,288,158988,6,0,B|52:354|152:411|258:361|248:203|29:200|50:66|127:11,1,480,2|0,0:2|0:0,0:0:0:0:
220,59,160154,5,2,0:2:0:0:
218,76,160238,1,2,0:2:0:0:
216,93,160321,1,2,0:2:0:0:
295,72,160488,1,8,0:2:0:0:
295,72,160988,6,0,P|365:83|423:116,1,120.000004577637,6|0,0:2|0:0,0:0:0:0:
308,172,161321,2,0,P|237:181|174:206,1,120.000004577637,2|8,0:2|0:2,0:0:0:0:
353,244,161654,5,2,0:2:0:0:
347,289,161738,1,2,0:2:0:0:
340,333,161821,1,2,0:2:0:0:
239,297,161988,6,0,B|189:259|130:245|74:400|-56:342|-40:185|78:187|94:256,1,360.000013732911,2|8,0:2|0:2,0:0:0:0:
25,150,162654,1,2,0:2:0:0:
19,105,162738,1,2,0:2:0:0:
12,60,162821,1,2,0:2:0:0:
110,25,162988,6,0,B|169:-21|245:14|205:49|277:80|331:37,1,240,2|8,0:2|0:2,0:0:0:0:
435,0,163654,1,2,0:2:0:0:
429,35,163738,1,2,0:2:0:0:
423,69,163821,1,2,0:2:0:0:
397,257,163988,6,0,B|386:299|253:321|240:202|381:166|208:125|109:130|208:261|3:279|-26:155|0:101,1,480,2|8,0:2|0:2,0:0:0:0:
0,155,164988,6,0,P|67:130|114:123,1,120.000004577637,6|0,0:2|0:0,0:0:0:0:
233,78,165321,2,0,P|283:99|365:108,1,120.000004577637,2|8,0:2|0:2,0:0:0:0:
493,149,165654,5,2,0:2:0:0:
448,152,165738,1,2,0:2:0:0:
403,159,165821,1,2,0:2:0:0:
362,247,165988,6,0,B|468:214|470:388|358:391|170:360|177:250,1,360.000013732911,2|8,0:2|0:2,0:0:0:0:
121,208,166654,1,2,0:2:0:0:
76,214,166738,1,2,0:2:0:0:
32,222,166821,1,2,0:2:0:0:
162,145,166988,6,0,P|225:151|298:177,1,120.000004577637,2|0,0:2|0:0,0:0:0:0:
419,146,167321,6,0,B|491:103|387:-13|270:80|339:248|450:243,1,360.000013732911,2|0,0:2|0:0,0:0:0:0:
453,246,167988,6,0,P|363:252|249:346,1,240,2|8,0:2|0:2,0:0:0:0:
16,38,168988,6,0,P|58:43|96:59,1,80,8|0,3:2|0:0,0:0:0:0:
154,88,169988,2,0,P|196:75|241:70,1,80,2|0,2:0|0:0,0:0:0:0:
294,102,170988,2,0,P|324:107|371:130,1,80,2|0,2:0|0:0,0:0:0:0:
411,183,171988,2,0,B|442:176|442:176|424:188,1,48,2|0,2:0|0:0,0:0:0:0:
31,355,172988,6,0,P|67:338|111:327,1,80,8|0,3:2|0:0,0:0:0:0:
165,293,173988,2,0,P|206:298|242:312,1,80,2|0,2:0|0:0,0:0:0:0:
295,357,174988,2,0,P|336:341|381:332,1,80,2|0,2:0|0:0,0:0:0:0:
433,364,175988,2,0,L|479:368,1,32,2|0,2:0|0:0,0:0:0:0:
505,310,176488,5,0,3:0:0:0:
476,225,176654,1,0,3:0:0:0:
392,191,176821,1,0,3:0:0:0:
425,38,176988,6,0,B|440:70|440:70|307:43|307:43|296:46|296:46|188:22|188:22|204:60,1,320,8|0,3:2|0:0,0:0:0:0:
201,56,177488,1,10,0:2:0:0:
209,82,177654,1,2,0:2:0:0:
216,108,177821,1,2,0:2:0:0:
116,147,177988,5,2,0:2:0:0:
133,76,178154,1,2,0:2:0:0:
106,8,178321,1,2,0:2:0:0:
41,139,178488,5,10,0:2:0:0:
48,183,178654,1,2,0:2:0:0:
57,227,178821,1,2,0:2:0:0:
126,255,178988,5,2,0:2:0:0:
125,272,179154,1,2,0:2:0:0:
123,290,179321,1,2,0:2:0:0:
200,225,179488,6,0,L|190:158,1,60.0000022888184,8|0,0:2|0:0,0:0:0:0:
190,156,179821,5,2,0:2:0:0:
193,129,179988,1,2,0:2:0:0:
243,75,180154,1,2,0:2:0:0:
232,4,180321,1,2,0:2:0:0:
314,108,180488,5,10,0:2:0:0:
313,124,180654,1,2,0:2:0:0:
312,140,180821,1,2,0:2:0:0:
377,57,180988,6,0,B|383:90|383:90|388:93|388:93|384:97|384:97|389:133|389:133|385:148|385:148|390:187|390:187|386:193|386:193|392:198|392:198|397:231,1,160,10|0,0:2|0:0,0:0:0:0:
410,278,181321,6,0,P|446:258|474:251,1,60.0000022888184,2|8,0:2|0:2,0:0:0:0:
491,323,181654,2,0,P|470:344|452:372,1,60.0000022888184,2|0,0:2|0:0,0:0:0:0:
381,379,181988,2,0,P|358:351|330:338,1,60.0000022888184,2|0,0:2|0:0,0:0:0:0:
93,301,182488,5,8,0:2:0:0:
108,53,182988,6,0,B|120:109|120:109|181:128|181:128|172:187|172:187|210:231|210:231|198:292|198:292|224:346|224:346|282:338|282:338|308:284|308:284|279:223,1,540.000020599366,0|8,0:0|0:2,0:0:0:0:
266,152,184654,6,0,P|299:153|338:176,1,80,2|0,0:2|0:0,0:0:0:0:
430,69,184988,6,0,B|417:31|417:31|401:153,1,160,8|0,3:2|0:0,0:0:0:0:
438,218,185321,2,0,P|473:200|518:193,1,80,2|8,0:2|0:2,0:0:0:0:
452,301,185654,2,0,P|417:285|375:276,1,80,2|0,0:2|0:0,0:0:0:0:
315,307,185988,5,2,0:2:0:0:
270,310,186154,1,2,0:2:0:0:
225,315,186321,1,2,0:2:0:0:
167,273,186488,5,10,0:2:0:0:
158,270,186654,1,2,0:2:0:0:
149,267,186821,1,2,0:2:0:0:
250,230,186988,6,0,P|288:209|328:207,1,80,2|0,0:2|0:0,0:0:0:0:
195,187,187321,2,0,P|218:150|212:104,1,80,2|8,0:2|0:2,0:0:0:0:
339,141,187654,2,0,P|302:127|280:95,1,80,2|0,0:2|0:0,0:0:0:0:
318,36,187988,2,0,P|348:30|373:14,1,60.0000022888184,2|0,0:2|0:0,0:0:0:0:
449,74,188321,6,2,B|423:41|465:26|506:78|441:111|432:146|473:192,1,160,2|10,0:2|0:2,0:0:0:0:
457,169,188988,6,0,B|488:152|488:152|358:165,1,160,10|0,0:2|0:0,0:0:0:0:
427,249,189321,2,0,P|459:277|482:320,1,80,2|8,0:2|0:2,0:0:0:0:
355,268,189654,2,0,P|314:292|271:293,1,80,2|0,0:2|0:0,0:0:0:0:
241,240,189988,6,0,P|203:232|179:215,1,60.0000022888184,2|0,0:2|0:0,0:0:0:0:
186,155,190321,2,0,P|160:132|152:105,1,60.0000022888184,2|8,0:2|0:2,0:0:0:0:
195,58,190654,2,0,P|187:22|194:-6,1,60.0000022888184,2|0,0:2|0:0,0:0:0:0:
272,106,190988,6,0,P|302:93|363:88,1,80,2|0,0:2|0:0,0:0:0:0:
262,201,191321,2,0,P|281:234|287:282,1,80,2|8,0:2|0:2,0:0:0:0:
174,211,191654,2,0,P|134:215|89:203,1,80,2|0,0:2|0:0,0:0:0:0:
213,141,191988,6,0,P|282:141|421:189,1,200,2|0,0:2|0:0,0:0:0:0:
410,189,192488,6,0,B|415:229|415:229|405:237|405:237|401:277,1,80,8|0,0:2|0:0,0:0:0:0:
280,276,192988,6,0,P|323:286|356:311,1,80,2|0,0:2|0:0,0:0:0:0:
250,209,193321,2,0,P|242:164|222:135,1,80,2|8,0:2|0:2,0:0:0:0:
207,269,193654,2,0,P|168:289|130:292,1,80,2|0,0:2|0:0,0:0:0:0:
62,241,193988,5,2,0:2:0:0:
57,195,194154,1,2,0:2:0:0:
51,149,194321,1,2,0:2:0:0:
116,44,194488,5,10,0:2:0:0:
117,33,194654,1,2,0:2:0:0:
120,22,194821,1,2,0:2:0:0:
165,114,194988,6,0,P|201:96|246:88,1,80,2|0,0:2|0:0,0:0:0:0:
307,124,195321,2,0,P|315:154|331:178,1,60.0000022888184,2|8,0:2|0:2,0:0:0:0:
358,73,195654,6,0,P|411:59|435:36,1,80,2|0,0:2|0:0,0:0:0:0:
501,3,195988,1,0,0:0:0:0:
484,89,196154,1,0,0:0:0:0:
419,149,196321,1,0,0:0:0:0:
478,293,196488,6,0,B|484:253|484:253|476:244|476:244|470:204,1,80,8|0,3:2|0:0,0:0:0:0:
405,307,196988,6,0,P|381:280|331:262,1,80,2|0,0:2|0:0,0:0:0:0:
240,356,197321,2,0,P|198:340|174:307,1,80,2|8,0:2|0:2,0:0:0:0:
188,237,197654,6,0,P|221:253|257:259,1,60.0000022888184,2|0,0:2|0:0,0:0:0:0:
293,200,197988,2,0,P|330:197|358:182,1,60.0000022888184,2|0,0:2|0:0,0:0:0:0:
374,115,198321,1,2,0:2:0:0:
234,151,198488,6,0,B|261:134|261:134|121:145,1,160,8|0,0:2|0:0,0:0:0:0:
133,144,198988,6,0,P|120:107|100:79,1,60.0000022888184,2|0,0:2|0:0,0:0:0:0:
176,54,199321,2,0,P|185:23|200:-2,1,60.0000022888184,2|8,0:2|0:2,0:0:0:0:
272,9,199654,2,0,P|281:40|282:68,1,60.0000022888184,2|0,0:2|0:0,0:0:0:0:
296,143,199988,2,0,P|333:125|363:117,1,60.0000022888184,2|0,0:2|0:0,0:0:0:0:
424,114,200321,1,2,0:2:0:0:
398,261,200488,6,0,B|402:221|402:221|393:211|393:211|389:174,1,80,8|0,3:2|0:0,0:0:0:0:
325,272,200988,6,0,P|287:251|230:238,1,80,2|0,0:2|0:0,0:0:0:0:
147,318,201321,2,0,P|116:332|58:341,1,80,2|8,0:2|0:2,0:0:0:0:
17,290,201654,2,0,P|41:253|45:220,1,60.0000022888184,2|0,0:2|0:0,0:0:0:0:
16,149,201988,5,2,0:2:0:0:
7,74,202154,1,2,0:2:0:0:
0,0,202321,1,2,0:2:0:0:
94,57,202488,5,10,0:2:0:0:
92,72,202654,1,2,0:2:0:0:
91,87,202821,1,2,0:2:0:0:
149,173,202988,6,0,P|185:152|226:143,1,80,2|0,0:2|0:0,0:0:0:0:
282,15,203321,2,0,P|267:52|269:98,1,80,2|8,0:2|0:2,0:0:0:0:
338,216,203654,2,0,P|322:187|285:151,1,80,2|0,0:2|0:0,0:0:0:0:
201,260,203988,6,2,B|164:210|78:252|89:360|194:373|345:351|380:295,1,320
323,333,204488,6,0,B|363:338|363:338|371:346|371:346|414:354,1,80,8|0,3:2|0:0,0:0:0:0:
279,266,204988,6,0,P|322:240|340:211,1,80,2|0,0:2|0:0,0:0:0:0:
374,92,205321,2,0,P|416:131|458:141,1,80,2|8,0:2|0:2,0:0:0:0:
495,92,205654,2,0,P|485:60|459:27,1,60.0000022888184,2|0,0:2|0:0,0:0:0:0:
401,26,205988,2,0,B|373:25|345:7|345:7|337:39|298:54,1,120.000004577637,2|0,0:2|0:0,0:0:0:0:
171,33,206488,6,0,B|141:2|141:2|159:138,1,160,8|0,0:2|0:0,0:0:0:0:
156,117,206988,6,0,P|118:92|73:82,1,80,2|0,0:2|0:0,0:0:0:0:
13,118,207321,2,0,P|29:149|38:182,1,60.0000022888184,2|8,0:2|0:2,0:0:0:0:
62,295,207654,6,0,P|106:271|146:261,1,80,2|0,0:2|0:0,0:0:0:0:
254,301,207988,2,0,B|294:338|356:326|342:304|413:291|448:331,1,200,2|0,0:2|0:0,0:0:0:0:
424,212,208488,6,0,B|417:172|417:172|408:164|408:164|412:127,1,80,8|0,3:2|0:0,0:0:0:0:
344,220,208988,6,0,L|339:187,1,32,0|0,3:0|0:0,0:0:0:0:
286,150,209488,2,0,L|291:113,1,32
343,79,209988,2,0,L|330:-4,1,80
221,111,210988,6,0,L|216:144,1,32,0|0,3:0|0:0,0:0:0:0:
163,181,211488,2,0,L|168:218,1,32
220,252,211988,2,0,L|207:335,1,80
99,221,212988,6,0,L|94:188,1,32,0|0,3:0|0:0,0:0:0:0:
41,151,213488,2,0,L|46:114,1,32
98,80,213988,2,0,L|85:-3,1,80
164,115,214988,5,0,0:0:0:0:
164,115,215488,1,0,0:0:0:0:
164,115,215988,5,0,0:0:0:0:
217,167,216154,1,0,0:0:0:0:
291,156,216321,1,0,0:0:0:0:
326,53,216488,5,0,3:0:0:0:
432,78,216654,1,0,3:0:0:0:
469,181,216821,1,0,3:0:0:0:
316,233,216988,6,0,B|356:198|428:257|396:361|286:360|173:296|141:200|47:127|-57:220|-6:365|101:299,1,600.000022888184,14|0,3:2|0:0,0:0:0:0:
244,173,217988,6,0,B|185:255|21:111|163:5|262:-5|364:44|236:222|508:237|536:147,1,600.000022888184,2|0,0:2|0:0,0:0:0:0:
493,284,218988,6,0,B|393:217|182:220|291:342|43:298|14:225,1,500,2|0,0:2|0:0,0:0:0:0:
67,173,219988,6,0,P|147:170|223:198,1,160,2|0,0:2|0:0,0:0:0:0:
228,191,220488,6,0,P|136:162|27:178,1,200,10|0,0:2|0:0,0:0:0:0:
123,325,220988,6,0,B|39:349|-5:252|90:198|183:199|230:284|208:355|208:355|256:239|394:220,1,600.000022888184,6|0,0:2|0:0,0:0:0:0:
512,356,221988,6,0,B|489:413|389:393|395:305|432:254|507:233,1,240.000009155274,2|0,0:2|0:0,0:0:0:0:
399,89,222488,5,10,0:2:0:0:
391,16,222654,1,2,0:2:0:0:
405,170,222988,6,0,B|322:123|236:121|255:219|66:250|-13:113|88:-3|201:48|193:112,1,500,2|0,0:2|0:0,0:0:0:0:
200,101,223988,6,0,P|139:56|86:122,1,160,2|0,0:2|0:0,0:0:0:0:
81,103,224488,6,0,P|148:50|209:127,1,200,10|0,0:2|0:0,0:0:0:0:
38,203,224988,6,0,P|102:229|158:214,1,120.000004577637,6|0,0:2|0:0,0:0:0:0:
257,175,225321,2,0,P|320:157|373:160,1,120.000004577637,2|8,0:2|0:2,0:0:0:0:
444,184,225654,1,2,0:2:0:0:
500,245,225821,1,2,0:2:0:0:
512,326,225988,2,0,P|464:302|387:281,1,120.000004577637,2|0,0:2|0:0,0:0:0:0:
427,112,226321,5,2,0:2:0:0:
338,247,226488,2,0,B|324:215|324:215|299:363,1,160,8|0,0:2|0:0,0:0:0:0:
303,338,226988,6,0,B|260:407|135:366|107:253|195:169|347:170|284:31|236:-4,1,500,2|0,0:2|0:0,0:0:0:0:
176,15,227988,6,0,P|150:63|164:170,1,160,2|0,0:2|0:0,0:0:0:0:
155,170,228488,6,0,P|140:75|194:-14,1,200,10|0,0:2|0:0,0:0:0:0:
27,124,228988,6,0,B|107:13|259:37|268:133|286:265|424:312|494:248|510:150|424:85|351:129|362:213,1,600.000022888184,6|0,0:2|0:0,0:0:0:0:
511,10,229988,6,0,B|490:75|393:66|428:38|335:17|293:94,1,240.000009155274,2|0,0:2|0:0,0:0:0:0:
302,79,230488,6,0,B|371:110|437:68|379:29|454:-7|510:10,1,240.000009155274,10|0,0:2|0:0,0:0:0:0:
457,212,230988,6,0,B|514:248|579:196|556:99|438:38|338:163|357:239|246:268|153:192,1,500,2|0,0:2|0:0,0:0:0:0:
92,52,232154,5,2,0:2:0:0:
96,37,232238,1,2,0:2:0:0:
102,23,232321,1,2,0:2:0:0:
13,41,232488,2,0,P|39:109|54:199,1,160,8|0,0:2|0:0,0:0:0:0:
86,369,232988,6,0,B|-8:327|86:207|195:262|198:362|273:381|336:314,1,360.000013732911,6|8,0:2|0:2,0:0:0:0:
369,220,233654,5,2,0:2:0:0:
364,201,233738,1,2,0:2:0:0:
360,182,233821,1,2,0:2:0:0:
470,70,233988,6,0,B|471:13|402:-20|344:39|373:130|450:155,1,240.000009155274,2|0,0:2|0:0,0:0:0:0:
499,266,234488,5,10,0:2:0:0:
423,282,234654,1,2,0:2:0:0:
389,352,234821,1,2,0:2:0:0:
241,350,234988,6,0,B|182:300|252:237|318:260|362:299,1,200,2|0,0:2|0:0,0:0:0:0:
347,208,235488,1,8,0:2:0:0:
319,109,235654,5,2,0:2:0:0:
325,67,235738,1,2,0:2:0:0:
332,26,235821,1,2,0:2:0:0:
225,94,235988,6,0,P|179:61|31:38,1,200,2|0,0:2|0:0,0:0:0:0:
40,31,236488,6,0,P|156:42|252:121,1,240.000009155274,10|0,0:2|0:0,0:0:0:0:
230,284,236988,6,0,P|171:134|66:94,1,240.000009155274,6|0,0:2|0:0,0:0:0:0:
28,138,237488,1,8,0:2:0:0:
55,224,237654,5,2,0:2:0:0:
48,267,237738,1,2,0:2:0:0:
41,310,237821,1,2,0:2:0:0:
203,371,237988,5,2,0:2:0:0:
262,314,238154,1,2,0:2:0:0:
344,303,238321,1,2,0:2:0:0:
488,183,238488,6,0,B|525:176|525:176|373:151,1,160,8|0,0:2|0:0,0:0:0:0:
404,156,238988,5,2,0:2:0:0:
439,78,239154,1,2,0:2:0:0:
512,32,239321,1,2,0:2:0:0:
405,3,239488,6,0,B|361:-11|316:3|328:31|282:50|240:22,1,160,8|0,0:2|0:0,0:0:0:0:
123,109,239988,6,0,B|47:50|150:-47|265:32|225:105|118:177|209:248,1,360.000013732911,2|8,0:2|0:2,0:0:0:0:
480,348,240988,6,0,P|486:313|504:267,1,80,4|0,3:2|0:0,0:0:0:0:
323,214,241988,6,0,P|318:172|300:126,1,80,4|0,0:2|0:0,0:0:0:0:
478,85,242988,6,0,P|487:42|506:-2,1,80,4|0,0:2|0:0,0:0:0:0:
370,87,243988,6,0,B|432:73|424:-13|342:-42|249:-1|227:145|367:182,1,360.000013732911,2|8,0:2|0:2,0:0:0:0:
36,19,244988,6,0,P|31:48|14:97,1,80,4|0,3:2|0:0,0:0:0:0:
184,155,245988,6,0,P|193:203|206:240,1,80,2|0,0:2|0:0,0:0:0:0:
34,296,246988,6,0,P|26:341|7:378,1,80,2|0,0:2|0:0,0:0:0:0:
86,384,247988,6,0,L|129:377,1,40,2|0,2:0|0:0,0:0:0:0:
34,296,248988,5,4,3:2:0:0:
48,222,249492,1,0,0:0:0:0:
63,150,249996,1,0,0:0:0:0:
77,78,250164,1,0,0:0:0:0:
95,5,250500,1,0,0:0:0:0:
95,5,250836,1,0,0:0:0:0:
63,150,251004,1,0,3:0:0:0:
238,25,251684,5,0,0:0:0:0:
241,40,251855,1,0,0:0:0:0:
244,55,252025,1,0,0:0:0:0:
471,281,253046,5,0,3:0:0:0:
471,281,253386,1,0,0:0:0:0:
398,273,253557,1,0,0:0:0:0:
398,273,253897,1,0,0:0:0:0:
324,265,254067,1,0,0:0:0:0:
251,256,254238,1,0,0:0:0:0:
177,246,254578,1,0,0:0:0:0:
177,246,254918,1,0,0:0:0:0:
324,265,255089,1,0,3:0:0:0:
103,291,255761,5,0,0:0:0:0:
107,276,255929,1,0,0:0:0:0:
84,384,256097,1,0,3:0:0:0:
84,384,256601,1,0,0:0:0:0:
143,161,257105,5,0,3:0:0:0:
143,161,257443,1,0,0:0:0:0:
216,154,257613,1,0,0:0:0:0:
290,145,257952,1,0,0:0:0:0:
363,138,258121,1,0,0:0:0:0:
436,132,258291,1,0,0:0:0:0:
511,126,258630,1,0,0:0:0:0:
511,126,258969,1,0,0:0:0:0:
363,138,259137,1,0,3:0:0:0:
465,328,259817,5,0,0:0:0:0:
462,313,259988,1,0,0:0:0:0:
458,298,260158,1,0,0:0:0:0:
250,245,260839,5,0,0:0:0:0:
253,230,261009,1,0,0:0:0:0:
233,333,261179,1,0,3:0:0:0:
295,16,262236,5,0,3:0:0:0:
79,252,263293,5,4,3:2:0:0:
79,252,263629,1,0,0:0:0:0:
152,243,263797,1,0,0:0:0:0:
152,243,264133,1,0,0:0:0:0:
225,233,264301,1,0,0:0:0:0:
299,224,264469,1,0,0:0:0:0:
372,214,264805,1,0,0:0:0:0:
372,214,265141,1,0,0:0:0:0:
225,233,265309,1,0,3:0:0:0:
155,89,265821,5,0,0:0:0:0:
155,89,266163,1,0,0:0:0:0:
229,95,266334,1,0,0:0:0:0:
303,102,266505,1,0,0:0:0:0:
303,102,266847,1,0,0:0:0:0:
452,39,267360,5,0,3:0:0:0:
461,113,267868,1,0,0:0:0:0:
461,113,268207,1,0,0:0:0:0:
470,186,268376,1,0,0:0:0:0:
478,259,268546,1,0,0:0:0:0:
478,259,268885,1,0,0:0:0:0:
255,291,269393,5,0,3:0:0:0:
178,283,269897,1,0,0:0:0:0:
178,283,270233,1,0,0:0:0:0:
104,275,270401,1,0,0:0:0:0:
30,264,270569,1,0,0:0:0:0:
322,201,270905,5,0,3:0:0:0:
470,186,271241,5,0,3:0:0:0:
322,201,271409,1,0,3:0:0:0:
249,185,271917,5,0,0:0:0:0:
177,169,272425,1,0,0:0:0:0:
106,154,272595,1,0,0:0:0:0:
36,139,272934,1,0,0:0:0:0:
277,77,273444,5,0,3:0:0:0:
277,77,273788,1,0,0:0:0:0:
351,67,273961,1,0,0:0:0:0:
424,59,274478,1,0,0:0:0:0:
497,50,274650,1,0,0:0:0:0:
203,90,274995,5,0,3:0:0:0:
239,384,275512,5,0,3:0:0:0:
239,384,276555,5,0,0:0:0:0:
203,90,277598,5,0,3:0:0:0:
164,312,277950,5,0,3:0:0:0:
0,275,278127,1,0,3:0:0:0:
318,335,278479,5,0,3:0:0:0:
287,169,278656,1,0,3:0:0:0:
254,6,278832,1,0,3:0:0:0:
164,312,279185,5,0,3:0:0:0:
138,111,279361,1,0,3:0:0:0:
340,85,279538,1,0,3:0:0:0:
373,285,279714,2,0,B|406:250|378:196|312:204|275:262|322:341,1,220,0|0,3:0|0:0,0:0:0:0:
379,368,281830,6,0,P|416:337|457:325,1,80,2|0,0:0|0:0,0:0:0:0:
495,276,282330,5,2,0:0:0:0:
497,251,282580,5,2,0:0:0:0:
500,226,282830,6,0,B|519:182|496:123|446:149|420:82|450:46,1,200,2|0,0:0|0:0,0:0:0:0:
394,2,283830,2,0,P|351:12|316:34,1,80,2|0,0:0|0:0,0:0:0:0:
269,78,284330,5,2,0:0:0:0:
245,71,284580,5,2,0:0:0:0:
220,66,284830,6,0,P|235:96|252:189,1,119.999996337891,2|0,0:0|0:0,0:0:0:0:
285,245,285830,6,0,P|323:215|357:201,1,80,2|0,0:0|0:0,0:0:0:0:
415,256,286330,5,2,0:0:0:0:
420,281,286580,5,2,0:0:0:0:
425,310,286830,6,0,P|377:328|322:370,1,119.999996337891,2|0,0:0|0:0,0:0:0:0:
255,328,287830,6,0,P|260:278|246:233,1,80,2|0,0:0|0:0,0:0:0:0:
267,178,288330,2,0,P|252:136|259:90,1,80,2|0,0:0|0:0,0:0:0:0:
296,45,288830,2,0,L|292:8,1,35.9999989013672,2|0,0:0|0:0,0:0:0:0:
366,76,289830,6,0,P|415:88|454:112,1,80,2|0,0:2|0:0,0:0:0:0:
504,143,290330,5,2,0:2:0:0:
502,168,290580,5,2,0:2:0:0:
497,199,290830,6,0,P|443:212|385:250,1,119.999996337891,2|0,0:2|0:0,0:0:0:0:
346,299,291830,5,2,0:2:0:0:
277,259,292080,5,2,0:2:0:0:
281,244,292330,5,2,0:2:0:0:
286,229,292580,5,2,0:2:0:0:
290,214,292830,6,0,P|246:195|215:172,1,71.9999978027344,2|0,0:2|0:0,0:0:0:0:
83,129,293830,6,0,P|45:190|14:282,1,160,2|0,0:2|0:0,0:0:0:0:
4,347,294663,5,2,0:2:0:0:
23,352,294830,2,0,P|84:330|147:322,1,119.999996337891,2|0,0:2|0:0,0:0:0:0:
217,275,295830,6,0,B|301:258|327:103|232:57|143:136|213:202,1,300.000011444092,2|0,0:2|0:0,0:0:0:0:
158,236,296830,6,0,P|146:228|135:224,1,23.9999992675781,2|0,0:2|0:0,0:0:0:0:
64,153,297330,5,0,3:0:0:0:
116,65,297496,1,0,3:0:0:0:
218,51,297663,1,0,3:0:0:0:
279,211,297830,6,0,B|234:138|346:56|433:148|377:315|303:324|303:324|222:227|70:278,1,600.000022888184,6|0,3:2|0:0,0:0:0:0:
244,75,298830,6,0,P|143:170|1:205,1,280.000002670288,2|0,0:2|0:0,0:0:0:0:
107,61,299330,6,0,P|135:145|265:246,1,240.000009155274,10|0,3:2|0:0,0:0:0:0:
410,260,299830,6,0,B|433:211|359:166|289:234|332:331|378:372,1,240.000009155274,2|0,0:2|0:0,0:0:0:0:
471,341,300330,1,8,3:2:0:0:
512,234,300496,1,0,3:0:0:0:
472,125,300663,1,0,3:0:0:0:
315,147,300830,6,0,P|213:167|40:238,1,280.000002670288,2|0,0:2|0:0,0:0:0:0:
97,346,301330,6,0,P|232:284|330:259,1,240.000009155274,10|0,3:2|0:0,0:0:0:0:
383,125,301830,6,0,B|456:127|443:11|321:20|263:135,1,240.000009155274,6|0,3:2|0:0,0:0:0:0:
244,168,302330,1,8,3:2:0:0:
214,236,302496,1,0,3:0:0:0:
222,310,302663,1,0,3:0:0:0:
64,364,302830,6,0,P|86:240|19:95,1,280.000002670288,2|0,0:2|0:0,0:0:0:0:
107,42,303330,6,0,P|165:154|185:278,1,240.000009155274,10|0,3:2|0:0,0:0:0:0:
341,378,303830,6,0,P|363:246|424:147,1,240.000009155274,2|0,0:2|0:0,0:0:0:0:
491,209,304330,1,10,3:2:0:0:
468,322,304496,1,0,3:0:0:0:
369,380,304663,1,0,3:0:0:0:
252,336,304830,6,0,P|282:214|336:123,1,200,2|0,0:2|0:0,0:0:0:0:
380,103,305330,6,0,P|402:169|411:225,1,120.000004577637,10|0,3:2|0:0,0:0:0:0:
225,146,305830,6,0,B|261:107|257:49|220:13|80:33|86:189|188:291,1,400,4|0,3:2|0:0,0:0:0:0:
325,369,306830,6,0,B|430:273|365:145|303:227|267:55|368:-6,1,400,2|0,0:2|0:0,0:0:0:0:
436,137,307830,6,0,B|375:188|479:314|596:181|532:49|420:-5,1,400,2|0,0:2|0:0,0:0:0:0:
339,134,308830,6,0,B|413:90|385:-9|255:-30|171:70|198:204|238:294|265:309|265:309|310:227|381:229,1,600.000022888184,2|0,0:2|0:0,0:0:0:0:
182,349,309830,6,0,B|160:205|39:176|39:176|166:168|213:48|168:-28|39:-7|76:99,1,600.000022888184,4|0,3:2|0:0,0:0:0:0:
79,282,310830,6,0,B|214:223|254:76|254:76|264:192|391:312|391:312|324:267|244:275,1,700.00000667572,4|0,3:2|0:0,0:0:0:0:
342,125,311830,6,0,P|396:216|503:304,1,240.000009155274,4|0,3:2|0:0,0:0:0:0:
512,196,312330,1,8,3:2:0:0:
475,96,312496,1,0,3:0:0:0:
374,57,312663,1,0,3:0:0:0:
248,103,312830,5,0,0:0:0:0:
172,115,312996,1,0,0:0:0:0:
111,69,313163,1,0,0:0:0:0:
320,113,313330,6,0,B|309:232|309:232|294:249|294:249|285:349,1,240.000009155274,8|0,0:2|0:0,0:0:0:0:
218,358,313830,6,0,P|194:313|160:287,1,80,2|0,0:0|0:0,0:0:0:0:
103,288,314330,2,0,P|106:318|115:336,1,47.9999985351563
146,228,314830,6,0,P|136:184|115:148,1,80,2|0,0:0|0:0,0:0:0:0:
67,109,315330,2,0,P|85:78|90:48,1,47.9999985351563
177,118,315830,6,0,P|219:95|260:84,1,80,2|0,0:0|0:0,0:0:0:0:
320,99,316330,2,0,P|309:124|305:151,1,47.9999985351563
307,152,316830,2,0,P|319:126|337:108,1,47.9999985351563
398,128,317330,2,0,P|421:110|442:103,1,47.9999985351563
407,200,317830,6,0,P|385:232|375:280,1,80,2|0,0:0|0:0,0:0:0:0:
384,344,318330,2,0,P|410:326|433:315,1,47.9999985351563
316,312,318830,6,0,P|284:294|227:284,1,80,2|0,0:0|0:0,0:0:0:0:
172,293,319330,2,0,P|183:316|191:343,1,47.9999985351563
185,343,319830,2,0,P|169:314|150:296,1,47.9999985351563
39,324,320330,6,0,P|78:302|103:263,1,80,2|0,0:0|0:0,0:0:0:0:
72,214,320851,2,0,P|87:178|91:141,1,64
40,107,321422,2,0,P|34:74|23:48,1,47.9999985351563
146,105,322053,6,0,B|124:57|180:16|237:34|249:131|199:178|199:178|247:152|302:162,1,336,2|0,0:0|0:0,0:0:0:0:
