osu file format v14

[General]
AudioFilename: audio.mp3
AudioLeadIn: 0
PreviewTime: 14546
Countdown: 1
SampleSet: None
StackLeniency: 0.7
Mode: 0
LetterboxInBreaks: 0
WidescreenStoryboard: 0

[Editor]
DistanceSpacing: 2.2
BeatDivisor: 4
GridSize: 4
TimelineZoom: 1

[Metadata]
Title:Pop Danthology 2013
TitleUnicode:Pop Danthology 2013
Artist:Daniel Kim
ArtistUnicode:Daniel Kim
Creator:Nitronic Techno
Version:Insane
Source:
Tags:
BeatmapID:1416214
BeatmapSetID:669517

[Difficulty]
HPDrainRate:7.5
CircleSize:4
OverallDifficulty:8
ApproachRate:9
SliderMultiplier:1.9
SliderTickRate:1

[Events]
//Background and Video events
0,0,"2013.png",0,0
//Break Periods
2,72676,84754
//Storyboard Layer 0 (Background)
//Storyboard Layer 1 (Fail)
//Storyboard Layer 2 (Pass)
//Storyboard Layer 3 (Foreground)
//Storyboard Sound Samples

[TimingPoints]
64,517.241379310345,4,2,0,50,1,0
4719,-100,4,2,0,60,0,0
8339,-100,4,1,0,45,0,0
10926,-100,4,1,0,55,0,0
12477,-100,4,1,0,65,0,0
14546,-100,4,1,0,80,0,0
16615,-90.9090909090909,4,1,0,70,0,0
33167,-86.9565217391304,4,1,0,70,0,0
51658,472.44094488189,4,1,0,70,1,0
57327,-83.3333333333333,4,1,0,80,0,0
72476,461.538461538462,4,1,0,80,1,0
87014,-100,4,2,0,20,0,0
87245,447.761194029851,4,1,0,50,1,0
87245,-125,4,1,0,50,0,0
101573,-100,4,1,0,80,0,0
115901,428.571428571429,4,2,0,60,1,0
115901,-133.333333333333,4,2,0,60,0,0
122758,-105.263157894737,4,1,0,40,0,0
126186,-100,4,1,0,60,0,0
129615,-83.3333333333333,4,1,0,80,0,1
143329,857.142857142857,4,1,0,60,1,0
143329,-66.6666666666667,4,1,0,60,0,0
157043,468.75,4,1,0,60,1,0
172043,-83.3333333333333,4,1,0,75,0,1
179543,-90.9090909090909,4,1,0,75,0,1
183293,-81.3008130081301,4,1,0,75,0,1
187043,-117.647058823529,4,1,0,40,0,0
194543,-95.2380952380952,4,1,0,65,0,0
202043,-153.846153846154,4,1,0,65,0,0
203918,-76.9230769230769,4,1,0,65,0,0
211418,937.5,4,1,0,100,1,0
218918,468.75,4,1,0,80,1,0
218918,-83.3333333333333,4,1,0,80,0,0
233918,500,4,2,0,60,1,0
235918,517.241379310345,4,1,0,80,1,0
260745,740.740740740741,4,1,0,50,1,0
284448,-76.9230769230769,4,1,0,70,0,0
296300,-66.6666666666667,4,1,0,80,0,1
308152,-55.5555555555556,4,1,0,80,0,1
320004,-100,4,1,0,80,0,0

[HitObjects]
74,186,64,6,0,P|131:151|172:157,1,95
227,88,581,2,0,P|217:150|257:247,1,142.5,8|0,0:0|0:0,0:0:0:0:
256,250,1098,2,0,P|316:265|360:252,1,95
435,221,1615,2,0,P|447:169|435:121,1,95,8|0,0:0|0:0,0:0:0:0:
283,50,2132,6,0,P|268:103|284:241,1,190,0|8,0:0|0:0,0:0:0:0:
366,191,2908,1,0,0:0:0:0:
197,191,3167,1,0,0:0:0:0:
281,235,3426,1,0,0:0:0:0:
265,328,3684,1,8,0:0:0:0:
243,337,3814,1,0,0:0:0:0:
219,337,3943,1,0,0:0:0:0:
126,317,4201,6,0,B|77:295|86:242|86:242|92:191|42:155,1,190,0|8,0:0|0:0,0:0:0:0:
96,77,4977,1,0,0:0:0:0:
134,80,5107,1,0,0:0:0:0:
171,82,5236,2,0,P|189:137|245:165,1,95
293,158,5753,2,0,P|333:131|345:84,1,95,8|0,0:0|0:0,0:0:0:0:
380,72,6141,1,0,0:0:0:0:
417,73,6270,6,0,P|446:139|407:247,1,190,0|8,0:0|0:0,0:0:0:0:
273,292,7176,1,0,0:0:0:0:
273,292,7305,2,0,P|241:232|267:105,1,190,0|8,0:0|0:0,0:0:0:0:
185,55,8081,1,0,0:0:0:0:
106,107,8339,6,0,L|63:207,1,95
155,154,8857,2,0,L|107:254,1,95,8|0,0:0|0:0,0:0:0:0:
123,271,9245,1,0,0:0:0:0:
143,297,9374,2,0,L|258:297,1,95
331,280,9891,2,0,L|297:179,1,95,8|0,0:0|0:0,0:0:0:0:
338,102,10408,6,0,P|260:61|163:112,1,190,0|8,0:0|0:0,0:0:0:0:
162,241,11314,1,0,0:0:0:0:
162,241,11443,2,0,P|174:305|161:343,1,95
345,332,11960,2,0,P|337:286|350:241,1,95,8|0,0:0|0:0,0:0:0:0:
309,154,12477,6,0,P|364:146|348:27,1,190,0|8,0:0|0:0,0:0:0:0:
203,154,13253,2,0,P|148:146|164:27,1,190
256,56,14029,1,8,0:0:0:0:
256,151,14288,1,0,0:0:0:0:
256,245,14546,5,4,0:0:0:0:
81,86,16615,6,0,P|61:160|75:218,1,104.500003189087,2|0,0:0|0:0,0:0:0:0:
127,269,17132,2,0,P|174:196|177:111,1,156.750004783631,8|0,0:0|0:0,0:0:0:0:
180,127,17650,2,0,P|252:144|288:122,1,104.500003189087,0|2,0:0|0:0,0:0:0:0:
219,44,18167,1,10,0:0:0:0:
336,217,18426,1,2,0:0:0:0:
391,129,18684,6,0,P|327:141|265:194,1,104.500003189087,2|0,0:0|0:0,0:0:0:0:
229,243,19201,2,0,P|167:272|71:240,1,156.750004783631,8|0,0:0|0:0,0:0:0:0:
84,251,19719,2,0,L|154:348,1,104.500003189087,0|2,0:0|0:0,0:0:0:0:
256,304,20236,2,2,L|256:191,1,104.500003189087,10|2,0:0|0:0,0:0:0:0:
427,251,20753,6,0,L|358:348,1,104.500003189087
325,228,21270,2,0,P|376:198|396:93,1,156.750004783631,8|0,0:0|0:0,0:0:0:0:
400,108,21788,2,0,P|339:80|275:102,1,104.500003189087,0|2,0:0|0:0,0:0:0:0:
207,151,22305,2,2,P|280:159|325:140,1,104.500003189087,10|2,0:0|0:0,0:0:0:0:
207,85,22822,6,0,P|156:82|111:108,1,104.500003189087
159,198,23339,2,0,B|198:245|198:245|198:357,1,156.750004783631,8|0,0:0|0:0,0:0:0:0:
198,343,23857,2,0,L|274:266,1,104.500003189087,0|8,0:0|0:0,0:0:0:0:
115,264,24374,1,8,0:0:0:0:
198,343,24632,1,2,0:0:0:0:
311,324,24891,6,0,P|368:331|413:296,1,104.500003189087,2|0,0:0|0:0,0:0:0:0:
422,279,25279,1,0,0:0:0:0:
438,252,25408,2,0,P|452:191|369:108,1,156.750004783631,8|0,0:0|0:0,0:0:0:0:
369,113,25926,2,0,L|269:174,1,104.500003189087,0|2,0:0|0:0,0:0:0:0:
183,127,26443,2,2,L|293:56,1,104.500003189087,10|2,0:0|0:0,0:0:0:0:
165,56,26960,6,0,P|124:107|163:242,1,209.000006378174,0|8,0:0|0:0,0:0:0:0:
213,153,27865,1,0,0:0:0:0:
213,153,27995,1,0,0:0:0:0:
256,247,28253,1,2,0:0:0:0:
299,153,28512,1,10,0:0:0:0:
330,53,28770,2,0,P|406:76|342:253,1,313.500009567261,2|8,0:0|0:0,0:0:0:0:
256,290,29805,5,0,0:0:0:0:
226,268,29934,1,0,0:0:0:0:
196,245,30064,1,0,0:0:0:0:
105,192,30322,2,2,L|65:289,2,104.500003189087,2|10|2,0:0|0:0|0:0,0:0:0:0:
76,91,31098,6,0,P|133:60|181:61,1,104.500003189087
257,119,31615,2,0,P|202:143|99:117,1,156.750004783631,8|0,0:0|0:0,0:0:0:0:
131,101,32132,1,0,0:0:0:0:
115,204,32391,1,8,0:0:0:0:
397,204,32650,5,8,0:0:0:0:
313,58,33167,6,0,L|346:176,1,109.250002083778,4|0,0:0|0:0,0:0:0:0:
199,58,33684,2,0,L|166:176,1,109.250002083778,8|0,0:0|0:0,0:0:0:0:
212,196,34072,1,0,0:0:0:0:
256,228,34201,2,0,L|256:351,1,109.250002083778
197,237,34719,2,0,L|137:336,1,109.250002083778,8|2,0:0|0:0,0:0:0:0:
315,237,35236,6,0,L|375:336,1,109.250002083778,0|2,0:0|0:0,0:0:0:0:
415,230,35753,2,0,P|464:169|460:120,1,109.250002083778,8|0,0:0|0:0,0:0:0:0:
421,107,36141,1,0,0:0:0:0:
373,79,36270,2,2,P|293:61|197:84,2,163.875003125668
299,160,37305,5,2,0:0:0:0:
299,160,37564,1,0,0:0:0:0:
368,244,37822,1,8,0:0:0:0:
225,299,38081,1,0,0:0:0:0:
377,282,38339,1,2,0:0:0:0:
225,258,38598,1,0,0:0:0:0:
365,323,38857,2,0,P|306:350|195:326,1,163.875003125668,8|0,0:0|0:0,0:0:0:0:
171,315,39374,5,2,0:0:0:0:
90,211,39632,1,0,0:0:0:0:
225,304,39891,1,8,0:0:0:0:
234,140,40150,1,0,0:0:0:0:
306,322,40408,2,0,P|372:296|411:196,1,163.875003125668,2|0,0:0|0:0,0:0:0:0:
411,178,40926,5,8,0:0:0:0:
255,58,41184,1,8,0:0:0:0:
145,65,41443,6,0,P|103:120|127:274,1,218.500004167557,4|8,0:0|0:0,0:0:0:0:
257,346,42348,1,0,0:0:0:0:
303,317,42477,2,0,P|343:248|336:197,1,109.250002083778
303,118,42995,2,0,P|280:182|279:241,1,109.250002083778,8|2,0:0|0:0,0:0:0:0:
172,252,43512,5,0,0:0:0:0:
288,94,43770,1,2,0:0:0:0:
287,290,44029,1,10,0:0:0:0:
172,130,44288,1,2,0:0:0:0:
359,192,44546,2,2,P|423:178|452:143,1,109.250002083778
349,101,45064,5,10,0:0:0:0:
256,235,45322,2,0,P|326:276|373:261,2,109.250002083778
284,91,46098,5,8,0:0:0:0:
273,221,46357,2,0,P|338:222|373:178,2,109.250002083778
235,111,47132,5,8,0:0:0:0:
279,205,47391,2,0,P|324:180|336:119,1,109.250002083778,0|2,0:0|0:0,0:0:0:0:
240,89,47908,6,0,P|215:41|171:10,1,109.250002083778,2|10,0:0|0:0,0:0:0:0:
159,154,48425,1,2,0:0:0:0:
175,256,48683,1,2,0:0:0:0:
271,294,48942,1,2,0:0:0:0:
352,229,49201,1,10,0:0:0:0:
337,127,49460,1,0,0:0:0:0:
256,52,49719,5,2,0:0:0:0:
219,106,49977,1,0,0:0:0:0:
310,69,50236,5,2,0:0:0:0:
259,143,50494,1,0,0:0:0:0:
360,70,50753,5,2,0:0:0:0:
283,181,51011,1,0,0:0:0:0:
412,67,51658,5,2,0:0:0:0:
296,233,51894,1,0,0:0:0:0:
478,49,52602,5,2,0:0:0:0:
303,297,52838,1,0,0:0:0:0:
34,49,53547,5,2,0:0:0:0:
209,297,53783,1,0,0:0:0:0:
34,335,54492,5,2,0:0:0:0:
209,87,54728,1,0,0:0:0:0:
478,335,55437,5,2,0:0:0:0:
303,87,55673,1,0,0:0:0:0:
256,341,56382,5,2,0:0:0:0:
256,37,56618,1,2,0:0:0:0:
256,192,56854,1,8,0:0:0:0:
72,56,57327,6,0,P|70:141|127:229,1,170.999994781494,4|0,0:0|0:0,0:0:0:0:
143,225,57799,2,2,L|192:278,3,56.9999982604981
206,187,58272,2,8,L|269:126,2,75.9999976806641,8|8|8,0:2|0:2|0:2,0:2:0:0:
259,240,58744,2,2,P|321:278|395:274,1,113.999996520996
394,277,59098,2,8,P|446:238|464:132,1,170.999994781494,8|0,0:0|0:0,0:0:0:0:
365,83,59689,6,2,L|309:46,3,56.9999982604981
296,135,60161,2,8,L|220:169,2,75.9999976806641,8|8|8,0:2|0:2|0:2,0:2:0:0:
228,74,60634,1,2,0:0:0:0:
125,123,60870,1,8,0:0:0:0:
72,224,61106,6,0,P|110:283|227:300,1,170.999994781494,4|0,0:0|0:0,0:0:0:0:
259,292,61579,2,0,L|322:160,1,113.999996520996,0|2,0:0|0:0,0:0:0:0:
267,134,61933,1,2,0:0:0:0:
201,151,62051,2,0,L|133:253,1,113.999996520996,2|2,0:0|0:0,0:0:0:0:
69,241,62406,1,2,0:0:0:0:
48,175,62524,2,0,L|120:72,1,113.999996520996,2|0,0:0|0:0,0:0:0:0:
206,39,62996,5,8,0:0:0:0:
206,39,63232,1,0,0:0:0:0:
204,153,63469,1,8,0:0:0:0:
204,153,63705,1,0,0:0:0:0:
316,134,63941,1,8,0:0:0:0:
419,180,64177,1,0,0:0:0:0:
419,286,64413,1,8,0:0:0:0:
316,240,64649,1,0,0:0:0:0:
256,337,64886,6,0,P|191:341|105:261,1,170.999994781494,4|0,0:0|0:0,0:0:0:0:
105,244,65358,1,2,0:0:0:0:
116,199,65476,1,2,0:0:0:0:
127,154,65595,1,2,0:0:0:0:
145,112,65713,1,2,0:0:0:0:
97,39,65831,6,8,L|30:-8,2,75.9999976806641,8|8|8,0:2|0:2|0:2,0:2:0:0:
211,33,66303,2,2,P|261:83|355:86,1,113.999996520996
339,106,66658,1,0,0:0:0:0:
378,113,66776,6,0,P|436:150|476:250,1,170.999994781494,8|0,0:0|0:0,0:0:0:0:
475,281,67248,1,2,0:0:0:0:
435,286,67366,1,2,0:0:0:0:
395,291,67484,1,2,0:0:0:0:
355,297,67602,1,2,0:0:0:0:
285,327,67720,6,8,P|262:354|223:376,2,75.9999976806641,8|8|8,0:2|0:2|0:2,0:2:0:0:
286,239,68193,1,2,0:0:0:0:
201,162,68429,1,8,0:0:0:0:
79,57,68665,6,0,L|43:231,1,170.999994781494,4|0,0:0|0:0,0:0:0:0:
37,251,69138,2,0,P|97:291|168:285,1,113.999996520996,0|2,0:0|0:0,0:0:0:0:
188,240,69492,1,2,0:0:0:0:
186,165,69610,2,0,P|127:127|60:135,1,113.999996520996,2|2,0:0|0:0,0:0:0:0:
35,176,69965,1,2,0:0:0:0:
37,251,70083,2,0,P|96:289|160:289,1,113.999996520996,2|0,0:0|0:0,0:0:0:0:
255,201,70555,5,8,0:0:0:0:
372,110,70791,1,2,0:0:0:0:
300,151,70909,2,2,L|302:67,1,56.9999982604981
221,90,71264,1,2,0:0:0:0:
149,131,71382,2,2,L|151:47,1,56.9999982604981
37,127,71736,1,8,0:0:0:0:
44,252,71972,2,8,P|99:300|172:301,1,113.999996520996
256,331,72476,5,4,0:0:0:0:
256,192,85399,12,0,87014,0:0:0:0:
93,51,87245,5,0,0:0:0:0:
197,95,87468,2,0,P|251:111|293:102,2,76,0|8|0,0:0|0:0|0:0,0:0:0:0:
100,156,88140,1,0,0:0:0:0:
207,192,88364,2,0,P|205:244|181:298,2,76,0|8|0,0:0|0:0|0:0,0:0:0:0:
256,88,89036,5,0,0:0:0:0:
305,192,89259,2,0,P|307:244|331:298,2,76,0|8|0,0:0|0:0|0:0,0:0:0:0:
419,194,89931,2,2,P|423:247|415:280,1,76
322,331,90379,2,2,P|311:283|322:244,1,76,10|2,0:0|0:0,0:0:0:0:
195,257,90827,6,2,P|200:294|190:331,1,76
93,269,91275,2,2,P|88:231|93:194,1,76,10|2,0:0|0:0,0:0:0:0:
180,120,91722,2,0,P|231:89|247:52,2,76,2|0|10,0:0|0:0|0:0,0:0:0:0:
206,23,92394,1,0,0:0:0:0:
317,48,92618,5,2,0:0:0:0:
376,145,92842,1,0,0:0:0:0:
286,75,93065,1,8,0:0:0:0:
395,101,93289,1,0,0:0:0:0:
294,154,93513,6,2,L|346:64,1,76
218,154,93961,2,2,L|166:64,1,76,10|2,0:0|0:0,0:0:0:0:
94,164,94409,6,0,L|58:245,1,76
108,338,94856,2,2,P|149:340|201:260,1,114,10|2,0:0|0:0,0:0:0:0:
132,269,95304,2,0,L|169:201,1,76
255,276,95752,2,0,L|255:361,1,76,8|0,0:0|0:0,0:0:0:0:
404,338,96200,6,2,P|363:340|311:260,1,114
380,269,96648,2,0,L|343:201,1,76,8|0,0:0|0:0,0:0:0:0:
255,129,97095,2,0,L|255:45,1,76
319,152,97543,2,0,L|363:76,1,76,8|0,0:0|0:0,0:0:0:0:
193,152,97991,6,0,L|149:76,1,76
117,194,98439,1,8,0:0:0:0:
81,301,98662,1,0,0:0:0:0:
186,166,98886,5,0,0:0:0:0:
175,330,99109,1,0,0:0:0:0:
269,192,99334,5,8,0:0:0:0:
291,302,99557,1,0,0:0:0:0:
397,209,99782,6,0,P|430:129|419:51,1,152,0|8,0:0|0:0,0:0:0:0:
329,128,100453,2,0,P|251:143|181:113,1,152
132,43,101125,1,10,0:0:0:0:
103,186,101349,1,2,0:0:0:0:
122,327,101573,6,0,L|158:204,1,95,2|0,0:0|0:0,0:0:0:0:
256,274,102021,1,8,0:0:0:0:
335,192,102245,1,0,0:0:0:0:
311,80,102468,2,0,L|355:171,1,95,2|0,0:0|0:0,0:0:0:0:
222,292,102916,2,0,L|307:249,1,95,8|0,0:0|0:0,0:0:0:0:
92,160,103364,2,0,L|140:243,1,95,2|0,0:0|0:0,0:0:0:0:
213,29,103812,2,0,L|128:72,1,95,8|0,0:0|0:0,0:0:0:0:
97,161,104259,2,0,L|150:264,2,95,2|0|8,0:0|0:0|0:0,0:0:0:0:
39,237,104931,1,0,0:0:0:0:
87,318,105155,6,0,L|146:218,1,95,2|0,0:0|0:0,0:0:0:0:
216,285,105603,1,8,0:0:0:0:
56,192,105827,1,0,0:0:0:0:
219,96,106050,2,0,L|171:180,1,95,2|0,0:0|0:0,0:0:0:0:
292,109,106498,2,0,L|343:14,1,95,8|0,0:0|0:0,0:0:0:0:
385,137,106946,5,2,0:0:0:0:
386,232,107170,1,0,0:0:0:0:
294,258,107394,2,0,P|246:251|212:206,1,95,8|0,0:0|0:0,0:0:0:0:
272,141,107842,2,0,P|223:88|145:82,2,142.5,2|0|0,0:0|0:0|0:0,0:0:0:0:
127,137,108737,5,2,0:0:0:0:
126,232,108961,1,0,0:0:0:0:
218,258,109185,2,0,P|266:251|300:206,1,95,8|0,0:0|0:0,0:0:0:0:
240,141,109633,2,0,P|289:88|367:82,2,142.5,2|0|0,0:0|0:0|0:0,0:0:0:0:
385,247,110528,5,2,0:0:0:0:
386,152,110752,1,0,0:0:0:0:
294,126,110976,2,0,P|246:133|212:178,1,95,8|0,0:0|0:0,0:0:0:0:
272,243,111424,2,0,P|223:296|145:302,2,142.5,2|0|0,0:0|0:0|0:0,0:0:0:0:
208,148,112319,6,0,L|133:80,1,95,2|0,0:0|0:0,0:0:0:0:
304,148,112767,2,0,L|379:80,1,95,8|0,0:0|0:0,0:0:0:0:
304,236,113215,2,0,L|379:304,1,95,2|0,0:0|0:0,0:0:0:0:
208,236,113662,2,0,L|133:304,1,95,8|0,0:0|0:0,0:0:0:0:
116,192,114110,5,8,0:0:0:0:
256,52,114334,1,0,0:0:0:0:
396,192,114558,1,8,0:0:0:0:
256,332,114782,1,0,0:0:0:0:
206,241,115006,5,8,0:0:0:0:
206,142,115230,1,0,0:0:0:0:
305,142,115454,1,8,0:0:0:0:
305,241,115678,1,0,0:0:0:0:
208,141,115901,6,0,L|208:223,1,71.2500027179719,4|0,0:0|0:0,0:0:0:0:
268,107,116329,2,0,L|268:191,1,71.2500027179719,2|0,0:0|0:0,0:0:0:0:
346,143,116758,1,2,0:0:0:0:
356,227,116972,1,0,0:0:0:0:
434,259,117186,1,2,0:0:0:0:
509,218,117401,1,0,0:0:0:0:
387,198,117615,6,0,L|356:129,1,71.2500027179719,2|0,0:0|0:0,0:0:0:0:
256,178,118043,2,0,L|256:84,1,71.2500027179719,2|0,0:0|0:0,0:0:0:0:
125,198,118472,1,2,0:0:0:0:
154,133,118686,1,0,0:0:0:0:
93,145,118901,1,2,0:0:0:0:
188,187,119115,1,0,0:0:0:0:
174,271,119329,6,0,P|152:308|122:319,1,71.2500027179719,2|0,0:0|0:0,0:0:0:0:
256,247,119758,2,0,L|256:325,1,71.2500027179719,2|0,0:0|0:0,0:0:0:0:
338,271,120186,2,0,P|360:308|390:319,1,71.2500027179719,2|0,0:0|0:0,0:0:0:0:
331,192,120615,2,0,L|404:192,1,71.2500027179719,2|0,0:0|0:0,0:0:0:0:
314,120,121043,6,2,P|268:106|167:159,1,142.500005435944
102,224,121901,2,2,P|193:219|254:171,1,142.500005435944
343,284,122758,6,0,L|415:201,1,90.2499975900651,8|0,0:0|0:0,0:0:0:0:
169,284,123186,2,0,L|97:201,1,90.2499975900651,8|0,0:0|0:0,0:0:0:0:
315,131,123615,2,0,L|279:227,1,90.2499975900651,8|0,0:0|0:0,0:0:0:0:
197,131,124043,2,0,L|233:227,1,90.2499975900651,8|0,0:0|0:0,0:0:0:0:
184,294,124472,5,8,0:0:0:0:
94,307,124686,1,0,0:0:0:0:
204,244,124901,1,8,0:0:0:0:
68,263,125115,1,0,0:0:0:0:
226,202,125329,2,0,L|269:106,1,90.2499975900651,8|0,0:0|0:0,0:0:0:0:
42,223,125758,2,0,L|-1:127,1,90.2499975900651,8|0,0:0|0:0,0:0:0:0:
76,85,126186,5,8,0:0:0:0:
203,149,126401,1,8,0:0:0:0:
97,244,126615,1,8,0:0:0:0:
205,303,126829,1,8,0:0:0:0:
256,212,127043,1,8,0:0:0:0:
307,303,127258,1,8,0:0:0:0:
415,244,127472,1,8,0:0:0:0:
309,149,127686,1,8,0:0:0:0:
436,85,127901,5,4,0:0:0:0:
256,192,128008,12,4,129615,0:0:0:0:
206,120,129829,6,0,P|248:98|310:121,1,113.999996520996,0|8,0:0|0:0,0:0:0:0:
336,228,130258,2,0,P|320:293|286:336,2,113.999996520996,8|2|0,0:0|0:0|0:0,0:0:0:0:
176,228,130901,2,0,P|192:293|226:336,1,113.999996520996,8|0,0:0|0:0,0:0:0:0:
256,228,131329,5,2,0:0:0:0:
121,333,131543,1,0,0:0:0:0:
85,172,131758,1,8,0:0:0:0:
214,61,131972,1,8,0:0:0:0:
298,61,132186,1,2,0:0:0:0:
427,172,132400,1,0,0:0:0:0:
391,333,132615,1,8,0:0:0:0:
256,228,132829,1,0,0:0:0:0:
208,124,133043,6,0,L|178:246,1,113.999996520996,2|0,0:0|0:0,0:0:0:0:
73,273,133472,2,0,L|105:155,1,113.999996520996,8|8,0:0|0:0,0:0:0:0:
304,124,133901,2,0,L|334:246,1,113.999996520996,2|0,0:0|0:0,0:0:0:0:
439,273,134330,2,0,L|407:155,1,113.999996520996,8|0,0:0|0:0,0:0:0:0:
360,59,134758,5,2,0:0:0:0:
152,59,134972,1,0,0:0:0:0:
204,125,135186,5,8,0:0:0:0:
308,125,135401,1,8,0:0:0:0:
228,212,135615,5,2,0:0:0:0:
228,212,135829,1,0,0:0:0:0:
258,301,136043,5,8,0:0:0:0:
258,301,136258,1,0,0:0:0:0:
146,324,136472,6,0,L|96:217,1,113.999996520996,2|0,0:0|0:0,0:0:0:0:
60,112,136901,2,8,P|116:126|169:176,1,113.999996520996
366,324,137329,2,0,L|416:217,1,113.999996520996,2|0,0:0|0:0,0:0:0:0:
452,112,137758,2,0,P|396:126|343:176,1,113.999996520996,8|0,0:0|0:0,0:0:0:0:
256,220,138186,6,0,L|256:346,1,113.999996520996,2|0,0:0|0:0,0:0:0:0:
172,256,138615,2,8,P|126:303|74:301,1,113.999996520996
340,256,139043,2,0,P|386:303|438:301,1,113.999996520996,2|0,0:0|0:0,0:0:0:0:
432,189,139472,2,0,P|388:135|334:112,1,113.999996520996,8|0,0:0|0:0,0:0:0:0:
80,189,139901,2,0,P|124:135|178:112,1,113.999996520996,2|0,0:0|0:0,0:0:0:0:
196,224,140329,2,8,P|216:156|212:90,1,113.999996520996
316,224,140758,2,0,P|296:156|300:90,1,113.999996520996,2|0,0:0|0:0,0:0:0:0:
256,8,141186,2,0,L|256:128,1,113.999996520996,8|0,0:0|0:0,0:0:0:0:
366,92,141615,5,2,0:0:0:0:
394,202,141829,1,0,0:0:0:0:
298,59,142044,5,8,0:0:0:0:
295,229,142258,1,8,0:0:0:0:
230,94,142472,5,2,0:0:0:0:
199,203,142686,1,0,0:0:0:0:
162,39,142901,5,8,0:0:0:0:
74,184,143115,1,0,0:0:0:0:
52,95,143329,6,0,P|100:100|176:183,1,142.500005435944,4|0,0:0|0:0,0:0:0:0:
44,230,143971,1,2,0:0:0:0:
44,337,144186,1,0,0:0:0:0:
150,341,144400,1,2,0:0:0:0:
152,234,144614,1,0,0:0:0:0:
256,136,144829,6,2,L|256:55,1,71.2500027179719
308,192,145257,1,8,0:0:0:0:
204,192,145471,1,8,0:0:0:0:
204,192,145579,1,8,0:0:0:0:
204,192,145686,1,8,0:0:0:0:
137,275,145900,5,2,0:0:0:0:
375,275,146114,1,2,0:0:0:0:
196,325,146329,1,2,0:0:0:0:
315,325,146543,1,2,0:0:0:0:
256,237,146757,6,0,L|256:330,1,71.2500027179719,8|2,0:0|0:0,0:0:0:0:
255,326,147079,1,2,0:0:0:0:
255,343,147186,1,2,0:0:0:0:
113,326,147400,2,2,L|74:251,1,71.2500027179719
170,204,147829,2,2,L|210:275,1,71.2500027179719
311,266,148257,1,8,0:0:0:0:
328,238,148364,1,8,0:0:0:0:
346,211,148471,1,8,0:0:0:0:
425,282,148686,2,0,L|375:348,1,71.2500027179719,0|2,0:0|0:0,0:0:0:0:
452,193,149114,5,2,0:0:0:0:
272,251,149329,1,2,0:0:0:0:
383,98,149543,1,2,0:0:0:0:
383,287,149757,1,2,0:0:0:0:
272,134,149971,2,2,P|309:131|343:161,1,71.2500027179719
240,250,150614,6,0,P|203:253|169:223,1,71.2500027179719,8|2,0:0|0:0,0:0:0:0:
102,160,151043,1,0,0:0:0:0:
233,103,151257,1,2,0:0:0:0:
79,300,151471,2,0,P|124:324|157:324,1,71.2500027179719,0|2,0:0|0:0,0:0:0:0:
223,246,151900,2,0,P|189:217|154:213,1,71.2500027179719,2|8,0:0|0:0,0:0:0:0:
293,242,152329,1,8,0:0:0:0:
323,219,152436,1,8,0:0:0:0:
359,212,152543,1,8,0:0:0:0:
424,338,152757,1,2,0:0:0:0:
221,263,152971,1,2,0:0:0:0:
429,204,153186,1,2,0:0:0:0:
295,374,153400,1,2,0:0:0:0:
304,159,153614,6,0,L|274:83,1,71.2500027179719,8|2,0:0|0:0,0:0:0:0:
270,76,153936,1,2,0:0:0:0:
262,59,154043,1,2,0:0:0:0:
122,85,154257,1,2,0:0:0:0:
23,126,154471,2,2,P|60:157|153:183,1,142.500005435944
206,273,155114,1,8,0:0:0:0:
193,306,155221,1,8,0:0:0:0:
180,339,155329,1,8,0:0:0:0:
66,253,155543,1,2,0:0:0:0:
201,211,155757,1,2,0:0:0:0:
311,211,155971,1,2,0:0:0:0:
446,253,156185,1,4,0:0:0:0:
131,104,157043,5,8,0:0:0:0:
131,104,157160,1,0,0:0:0:0:
231,204,157394,1,0,0:0:0:0:
231,204,157511,1,8,0:0:0:0:
88,191,157746,1,0,0:0:0:0:
196,98,157980,2,0,P|259:80|349:109,1,142.5,8|0,0:0|0:0,0:0:0:0:
332,97,158449,2,0,L|360:205,1,95,8|0,0:0|0:0,0:0:0:0:
308,324,158918,6,0,L|335:220,1,95,8|0,0:0|0:0,0:0:0:0:
286,177,159269,1,0,0:0:0:0:
218,198,159386,2,0,L|183:301,1,95,8|0,0:0|0:0,0:0:0:0:
202,66,159855,6,0,L|171:155,1,95,8|0,0:0|0:0,0:0:0:0:
103,176,160206,1,0,0:0:0:0:
57,121,160323,2,0,L|80:29,1,95,8|0,0:0|0:0,0:0:0:0:
223,25,160793,5,8,0:0:0:0:
223,25,160910,1,0,0:0:0:0:
354,80,161144,1,0,0:0:0:0:
354,80,161261,1,8,0:0:0:0:
219,128,161496,1,0,0:0:0:0:
299,10,161730,2,0,P|365:6|441:34,1,142.5,8|0,0:0|0:0,0:0:0:0:
436,30,162199,2,0,L|463:147,1,95,8|0,0:0|0:0,0:0:0:0:
448,266,162668,6,0,L|448:147,1,95,8|0,0:0|0:0,0:0:0:0:
390,129,163019,1,0,0:0:0:0:
332,170,163136,2,0,L|332:283,1,95,8|0,0:0|0:0,0:0:0:0:
265,291,163488,1,0,0:0:0:0:
199,262,163605,2,0,L|199:141,1,95,8|0,0:0|0:0,0:0:0:0:
56,158,164074,2,0,L|56:278,1,95,8|0,0:0|0:0,0:0:0:0:
181,321,164543,5,8,0:0:0:0:
228,322,164660,1,0,0:0:0:0:
355,269,164894,1,0,0:0:0:0:
308,271,165011,1,8,0:0:0:0:
229,217,165246,1,0,0:0:0:0:
297,151,165480,2,0,P|363:148|435:100,1,142.5,8|0,0:0|0:0,0:0:0:0:
427,109,165949,2,0,L|321:80,1,95,8|0,0:0|0:0,0:0:0:0:
240,91,166418,6,0,L|121:91,1,95,8|0,0:0|0:0,0:0:0:0:
122,231,166886,2,0,L|229:231,1,95,8|0,0:0|0:0,0:0:0:0:
257,172,167238,1,0,0:0:0:0:
314,129,167355,2,0,L|429:129,1,95,8|0,0:0|0:0,0:0:0:0:
416,271,167824,2,0,L|315:271,1,95,8|0,0:0|0:0,0:0:0:0:
256,352,168293,5,8,0:0:0:0:
256,352,168410,1,0,0:0:0:0:
180,118,168644,1,0,0:0:0:0:
180,118,168761,1,8,0:0:0:0:
378,262,168996,1,2,0:0:0:0:
133,262,169230,1,8,0:0:0:0:
133,262,169347,1,0,0:0:0:0:
331,118,169582,1,0,0:0:0:0:
331,118,169699,1,8,0:0:0:0:
256,352,169933,1,2,0:0:0:0:
121,303,170168,5,8,0:0:0:0:
391,303,170402,1,8,0:0:0:0:
256,256,170636,1,8,0:0:0:0:
256,279,170753,1,8,0:0:0:0:
256,302,170871,1,8,0:0:0:0:
256,325,170988,1,8,0:0:0:0:
256,348,171105,5,4,0:0:0:0:
256,36,171574,5,4,0:3:0:0:
199,135,172043,6,0,P|257:148|313:134,1,113.999996520996,2|0,0:0|0:0,0:0:0:0:
196,193,172511,2,0,P|192:266|211:310,2,113.999996520996,8|0|2,0:0|0:0|0:0,0:0:0:0:
305,303,173214,2,0,P|322:249|316:193,2,113.999996520996,0|8|0,0:0|0:0|0:0,0:0:0:0:
198,344,173918,5,2,0:0:0:0:
120,218,174152,1,0,0:0:0:0:
216,105,174386,1,8,0:0:0:0:
354,161,174621,1,0,0:0:0:0:
343,309,174855,6,2,L|278:207,1,113.999996520996
335,111,175324,2,2,L|411:217,1,113.999996520996
401,54,175793,6,0,P|333:39|228:79,1,170.999994781494,2|0,0:0|0:0,0:0:0:0:
213,87,176261,2,0,P|135:127|88:111,1,113.999996520996,8|0,0:0|0:0,0:0:0:0:
262,132,176730,2,0,P|321:119|386:137,1,113.999996520996,2|0,0:0|0:0,0:0:0:0:
319,189,177199,1,8,0:0:0:0:
142,50,177433,1,0,0:0:0:0:
74,232,177668,6,0,P|59:294|81:351,1,113.999996520996,2|0,0:0|0:0,0:0:0:0:
171,173,178136,2,0,L|116:64,1,113.999996520996,8|0,0:0|0:0,0:0:0:0:
341,173,178605,2,0,L|392:71,1,113.999996520996,8|0,0:0|0:0,0:0:0:0:
438,232,179073,2,0,P|453:286|438:340,1,113.999996520996,8|0,0:0|0:0,0:0:0:0:
333,331,179543,6,2,P|264:320|197:262,1,156.750004783631
168,263,180011,2,2,P|138:218|183:117,1,156.750004783631
179,98,180480,2,0,P|237:81|299:98,1,104.500003189087,2|8,0:0|0:0,0:0:0:0:
358,157,180949,2,0,P|288:172|243:157,1,104.500003189087,2|8,0:0|0:0,0:0:0:0:
152,171,181418,2,2,P|130:240|168:322,1,156.750004783631
182,330,181886,2,0,P|240:346|287:331,1,104.500003189087,8|0,0:0|0:0,0:0:0:0:
255,232,182355,1,8,0:0:0:0:
204,44,182589,1,2,0:0:0:0:
356,166,182824,1,8,0:0:0:0:
161,157,183058,1,2,0:0:0:0:
324,50,183293,5,8,0:0:0:0:
352,42,183410,1,8,0:0:0:0:
380,34,183527,1,8,0:0:0:0:
462,116,183761,2,0,P|472:194|456:240,1,116.85000178299,2|0,0:0|0:0,0:0:0:0:
363,293,184230,2,0,P|327:233|329:169,1,116.85000178299,8|0,0:0|0:0,0:0:0:0:
149,293,184699,2,0,P|185:233|183:169,1,116.85000178299,2|0,0:0|0:0,0:0:0:0:
50,116,185168,5,8,0:0:0:0:
332,0,185636,1,8,0:0:0:0:
462,267,186105,1,8,0:0:0:0:
180,398,186574,1,8,0:0:0:0:
80,223,187043,5,4,0:0:0:0:
157,200,187277,2,0,P|189:155|193:109,1,80.750001540184,2|0,0:0|0:0,0:0:0:0:
274,121,187746,2,0,P|322:159|362:165,1,80.750001540184,2|0,0:0|0:0,0:0:0:0:
306,236,188214,2,0,P|265:277|254:311,2,80.750001540184,2|0|2,0:0|0:0|0:0,0:0:0:0:
385,253,188918,6,2,P|440:258|479:172,1,161.500003080368
348,77,189855,2,2,P|285:40|235:109,1,161.500003080368
291,154,190558,1,2,0:0:0:0:
313,231,190793,6,0,L|352:319,1,80.750001540184,2|0,0:0|0:0,0:0:0:0:
199,231,191261,2,0,L|160:319,1,80.750001540184,2|0,0:0|0:0,0:0:0:0:
256,192,191730,2,0,L|256:96,1,80.750001540184,2|0,0:0|0:0,0:0:0:0:
189,65,192199,2,0,L|146:114,1,40.375000770092,2|8,0:0|0:0,0:0:0:0:
185,160,192433,2,8,L|223:119,1,40.375000770092
274,153,192668,6,0,L|182:251,1,121.125002310276,8|0,0:0|0:0,0:0:0:0:
172,267,193136,2,8,P|184:316|231:339,1,80.750001540184
286,345,193605,2,0,L|359:243,1,121.125002310276,8|0,0:0|0:0,0:0:0:0:
356,220,194074,2,8,P|329:180|279:161,1,80.750001540184
210,121,194543,6,0,P|148:136|96:120,1,99.7499969558717,8|0,0:0|0:0,0:0:0:0:
36,271,195011,2,0,P|50:225|29:181,1,99.7499969558717,2|0,0:0|0:0,0:0:0:0:
191,352,195480,2,0,P|133:332|94:349,1,99.7499969558717,2|8,0:0|0:0,0:0:0:0:
243,175,195949,1,8,0:0:0:0:
231,225,196066,1,8,0:0:0:0:
246,272,196183,1,8,0:0:0:0:
331,324,196418,5,8,0:0:0:0:
429,336,196652,2,0,P|412:266|280:257,1,199.499993911743,8|0,0:0|0:0,0:0:0:0:
200,256,197355,2,0,L|112:311,1,99.7499969558717,2|0,0:0|0:0,0:0:0:0:
205,192,197824,2,0,L|292:125,1,99.7499969558717,2|0,0:0|0:0,0:0:0:0:
105,97,198293,6,0,P|93:163|124:248,1,149.624995433808,8|0,0:0|0:0,0:0:0:0:
134,268,198761,1,2,0:0:0:0:
256,225,198996,1,0,0:0:0:0:
131,236,199230,1,2,0:0:0:0:
258,259,199465,1,0,0:0:0:0:
147,203,199699,1,8,0:0:0:0:
197,246,199816,1,8,0:0:0:0:
245,286,199934,1,8,0:0:0:0:
369,321,200168,6,4,P|402:271|355:146,1,199.499993911743
118,52,201105,1,4,0:0:0:0:
118,52,201339,2,4,P|94:119|161:239,1,199.499993911743
209,279,202043,5,8,0:0:0:0:
287,293,202277,2,0,L|264:223,2,61.7499971733095
303,197,202980,2,0,L|257:74,1,123.499994346619
262,80,203918,6,0,P|197:113|144:104,1,123.499994346619,2|0,0:0|0:0,0:0:0:0:
107,117,204269,1,0,0:0:0:0:
73,144,204386,2,0,L|45:212,1,61.7499971733095,2|0,0:0|0:0,0:0:0:0:
124,299,204738,2,8,P|189:314|243:297,2,123.499994346619
302,248,205558,6,0,P|216:211|169:231,2,123.499994346619,0|2|0,0:0|0:0|0:0,0:0:0:0:
342,263,206144,1,0,0:0:0:0:
384,258,206261,1,2,0:0:0:0:
405,220,206378,1,0,0:0:0:0:
403,176,206496,1,0,0:0:0:0:
384,137,206613,1,0,0:0:0:0:
351,108,206730,1,2,0:0:0:0:
311,91,206847,1,0,0:0:0:0:
269,101,206964,2,0,P|195:116|169:158,1,123.499994346619,0|2,0:0|0:0,0:0:0:0:
250,304,207668,6,0,P|315:271|368:280,1,123.499994346619,2|0,0:0|0:0,0:0:0:0:
405,267,208019,1,0,0:0:0:0:
439,240,208136,2,0,L|467:172,1,61.7499971733095,2|0,0:0|0:0,0:0:0:0:
388,85,208488,2,8,P|323:70|269:87,2,123.499994346619
210,136,209308,6,0,P|296:173|343:153,2,123.499994346619,0|2|0,0:0|0:0|0:0,0:0:0:0:
170,121,209894,1,0,0:0:0:0:
128,126,210011,1,2,0:0:0:0:
107,164,210128,1,0,0:0:0:0:
109,208,210246,1,8,0:0:0:0:
128,247,210363,1,0,0:0:0:0:
161,276,210480,1,10,0:0:0:0:
201,293,210597,1,0,0:0:0:0:
243,283,210714,2,0,P|317:268|343:226,1,123.499994346619,8|10,0:0|0:0,0:0:0:0:
258,139,211183,1,8,0:0:0:0:
170,176,211418,6,2,P|165:249|239:303,1,142.5
342,176,212355,2,2,P|347:249|273:303,1,142.5
200,138,213293,2,2,P|252:129|310:147,1,95
384,114,213996,1,2,0:0:0:0:
410,89,214113,1,8,0:0:0:0:
436,65,214230,1,8,0:0:0:0:
341,56,214464,2,2,L|298:88,2,47.5
245,56,215168,6,2,P|203:81|100:61,1,142.5
77,158,216105,1,8,0:0:0:0:
77,158,216339,2,2,P|114:200|206:206,1,142.5,10|2,0:0|0:0,0:0:0:0:
285,176,217277,1,2,0:0:0:0:
364,227,217511,1,2,0:0:0:0:
329,315,217746,1,2,0:0:0:0:
236,335,217980,5,4,0:0:0:0:
236,335,218918,6,0,P|166:291|140:197,1,170.999994781494,8|0,0:0|0:0,0:0:0:0:
130,174,219386,2,0,P|75:143|17:158,1,113.999996520996,8|0,0:0|0:0,0:0:0:0:
182,215,219855,2,0,P|245:234|305:211,1,113.999996520996,8|0,0:0|0:0,0:0:0:0:
239,163,220324,1,8,0:0:0:0:
64,212,220558,1,0,0:0:0:0:
120,311,220793,6,0,P|146:255|127:199,1,113.999996520996,8|0,0:0|0:0,0:0:0:0:
201,49,221261,2,0,P|184:102|204:155,1,113.999996520996,8|0,0:0|0:0,0:0:0:0:
256,256,221730,1,8,0:0:0:0:
358,305,221964,1,0,0:0:0:0:
245,289,222199,1,8,0:0:0:0:
357,271,222433,1,8,0:0:0:0:
271,346,222668,6,0,P|312:280|309:187,1,170.999994781494,8|0,0:0|0:0,0:0:0:0:
303,158,223136,2,0,L|209:77,1,113.999996520996,8|0,0:0|0:0,0:0:0:0:
102,84,223605,1,8,0:0:0:0:
115,196,223839,1,0,0:0:0:0:
152,87,224074,1,8,0:0:0:0:
77,172,224308,1,8,0:0:0:0:
137,269,224543,6,0,P|210:292|293:247,1,170.999994781494,8|0,0:0|0:0,0:0:0:0:
306,229,225011,2,0,L|306:108,1,113.999996520996,8|0,0:0|0:0,0:0:0:0:
420,108,225480,1,8,0:0:0:0:
357,202,225714,1,0,0:0:0:0:
487,114,225949,1,8,0:0:0:0:
392,255,226183,1,0,0:0:0:0:
298,320,226418,6,0,P|220:334|136:268,1,170.999994781494,8|0,0:0|0:0,0:0:0:0:
119,265,226886,2,0,L|47:358,1,113.999996520996,8|0,0:0|0:0,0:0:0:0:
109,210,227355,2,0,L|183:109,1,113.999996520996,8|0,0:0|0:0,0:0:0:0:
69,128,227824,1,8,0:0:0:0:
136,356,228058,1,0,0:0:0:0:
79,256,228293,6,0,P|155:227|247:256,1,170.999994781494,8|0,0:0|0:0,0:0:0:0:
259,264,228761,2,0,P|317:275|380:259,1,113.999996520996,8|0,0:0|0:0,0:0:0:0:
434,169,229230,1,8,0:0:0:0:
432,129,229347,1,2,0:0:0:0:
412,94,229464,1,2,0:0:0:0:
302,62,229699,1,8,0:0:0:0:
255,165,229933,1,8,0:0:0:0:
369,166,230168,6,0,P|378:235|308:311,1,170.999994781494,2|0,0:0|0:0,0:0:0:0:
271,314,230636,1,8,0:0:0:0:
329,185,230870,1,8,0:0:0:0:
187,184,231105,6,0,P|175:97|263:2,1,170.999994781494,2|0,0:0|0:0,0:0:0:0:
262,20,231574,1,8,0:0:0:0:
192,172,231808,1,8,0:0:0:0:
360,173,232043,6,0,P|373:274|310:366,1,170.999994781494,2|0,0:0|0:0,0:0:0:0:
315,354,232511,2,0,P|257:350|206:319,1,113.999996520996,2|0,0:0|0:0,0:0:0:0:
177,212,232980,2,0,P|229:237|266:282,1,113.999996520996,2|0,0:0|0:0,0:0:0:0:
122,252,233449,2,0,P|96:191|123:135,1,113.999996520996,2|0,0:0|0:0,0:0:0:0:
189,106,233918,6,2,P|254:119|360:104,2,142.5
122,174,234918,1,0,0:0:0:0:
390,210,235918,6,0,P|328:234|262:209,1,95,4|0,0:0|0:0,0:0:0:0:
256,215,236305,1,0,0:0:0:0:
210,230,236435,2,0,P|163:231|122:210,1,95,2|0,0:0|0:0,0:0:0:0:
148,118,236952,2,0,P|210:95|249:104,1,95,2|2,0:0|0:0,0:0:0:0:
280,118,237340,2,2,P|340:133|430:103,1,142.5
448,202,237986,5,2,0:0:0:0:
430,246,238116,1,0,0:0:0:0:
392,275,238245,1,0,0:0:0:0:
346,289,238374,1,0,0:0:0:0:
298,297,238504,2,0,P|231:315|178:293,1,95,2|0,0:0|0:0,0:0:0:0:
159,309,238892,1,0,0:0:0:0:
127,273,239021,2,0,P|99:217|104:167,1,95,2|2,0:0|0:0,0:0:0:0:
133,152,239409,1,2,0:0:0:0:
367,116,240055,5,2,0:0:0:0:
319,112,240185,1,0,0:0:0:0:
272,122,240314,1,0,0:0:0:0:
200,185,240573,2,0,P|263:198|303:186,1,95,2|0,0:0|0:0,0:0:0:0:
353,263,241090,2,2,P|285:247|247:262,1,95
236,273,241478,2,2,P|167:283|88:243,1,142.5
71,218,241995,1,0,0:0:0:0:
93,176,242124,5,2,0:0:0:0:
93,128,242254,1,0,0:0:0:0:
93,80,242383,1,0,0:0:0:0:
185,59,242642,2,8,L|201:179,1,95
419,176,243159,5,2,0:0:0:0:
419,128,243289,1,0,0:0:0:0:
419,80,243418,1,0,0:0:0:0:
327,59,243676,2,8,L|311:179,1,95
197,230,244193,6,0,L|185:325,1,95,2|0,0:0|0:0,0:0:0:0:
314,230,244711,2,0,L|327:325,1,95,2|0,0:0|0:0,0:0:0:0:
357,170,245228,2,2,P|299:130|269:124,1,95
251,157,245616,2,2,P|198:174|116:132,1,142.5
109,45,246262,5,2,0:0:0:0:
151,66,246392,1,0,0:0:0:0:
192,88,246521,1,0,0:0:0:0:
320,88,246780,2,0,L|414:44,1,95,2|0,0:0|0:0,0:0:0:0:
416,142,247297,2,2,P|363:181|313:187,1,95
290,172,247685,2,2,P|241:199|200:284,1,142.5
110,245,248331,6,0,L|128:141,1,95,2|0,0:0|0:0,0:0:0:0:
239,167,248849,1,2,0:0:0:0:
272,200,248978,1,0,0:0:0:0:
311,226,249107,1,0,0:0:0:0:
354,245,249236,1,0,0:0:0:0:
402,245,249366,2,2,L|384:141,1,95
366,107,249754,2,2,P|310:83|237:120,1,142.5
205,148,250271,1,0,0:0:0:0:
175,185,250400,5,2,0:0:0:0:
137,214,250530,1,0,0:0:0:0:
100,243,250659,1,0,0:0:0:0:
149,324,250918,2,8,L|215:246,1,95
337,185,251435,5,2,0:0:0:0:
375,214,251565,1,0,0:0:0:0:
412,243,251694,1,0,0:0:0:0:
363,324,251953,2,8,L|297:246,1,95
294,156,252469,5,2,0:0:0:0:
308,110,252599,1,2,0:0:0:0:
323,65,252728,1,2,0:0:0:0:
417,63,252986,2,8,L|383:154,1,95
349,240,253504,2,2,P|302:281|231:296,1,95
224,297,253892,2,2,P|160:285|104:206,1,142.5
218,156,254538,5,2,0:0:0:0:
204,110,254668,1,2,0:0:0:0:
189,65,254797,1,2,0:0:0:0:
95,63,255055,2,8,L|129:154,1,95
166,243,255573,2,0,P|275:264|370:228,2,190,2|2|10,0:0|0:0|0:0,0:0:0:0:
71,230,256866,5,8,0:0:0:0:
120,149,257124,1,8,0:0:0:0:
213,132,257383,1,8,0:0:0:0:
304,159,257642,1,8,0:0:0:0:
299,252,257900,1,8,0:0:0:0:
392,235,258159,1,8,0:0:0:0:
441,154,258417,1,8,0:0:0:0:
420,61,258676,6,2,L|359:34,1,47.5
291,84,259064,1,2,0:0:0:0:
256,51,259193,1,2,0:0:0:0:
196,125,259452,2,2,L|155:78,1,47.5
82,137,259840,1,2,0:0:0:0:
98,181,259969,2,0,P|151:211|202:205,2,95,2|2|8,0:0|0:0|0:0,0:0:0:0:
182,128,260745,6,0,P|232:112|328:136,1,142.5,4|2,0:0|0:0,0:0:0:0:
288,219,261485,2,0,P|338:231|403:197,2,95,2|0|2,0:0|0:0|0:0,0:0:0:0:
156,273,262782,2,2,L|114:233,1,47.5
133,146,263337,1,2,0:0:0:0:
208,88,263707,6,2,P|272:69|351:109,1,142.5
258,147,264448,2,2,P|245:210|264:271,1,95
415,333,265189,2,2,P|434:258|402:164,1,142.5
353,262,265930,2,2,P|301:271|240:252,1,95
76,308,266670,5,8,0:2:0:0:
54,227,266856,1,0,0:2:0:0:
95,153,267041,1,8,0:2:0:0:
177,131,267226,1,0,0:2:0:0:
250,172,267411,1,8,0:2:0:0:
273,254,267596,1,0,0:2:0:0:
231,327,267782,1,8,0:2:0:0:
150,350,267967,1,0,0:2:0:0:
76,308,268152,6,2,P|59:227|83:143,1,142.5
141,233,268893,2,2,P|206:218|251:185,1,95
436,76,269633,5,8,0:2:0:0:
458,157,269819,1,0,0:2:0:0:
417,231,270004,1,8,0:2:0:0:
335,253,270189,1,0,0:2:0:0:
262,212,270374,1,8,0:2:0:0:
239,130,270559,1,0,0:2:0:0:
281,57,270745,1,8,0:2:0:0:
362,34,270930,1,0,0:2:0:0:
436,76,271115,6,2,P|453:157|429:241,1,142.5
371,151,271856,2,2,P|306:166|261:199,1,95
131,65,272596,6,0,P|117:130|113:193,1,95,8|2,0:0|0:0,0:0:0:0:
192,212,273152,1,2,0:0:0:0:
272,162,273337,2,0,P|265:102|247:38,1,95,2|8,0:0|0:0,0:0:0:0:
351,59,274078,1,2,0:0:0:0:
413,130,274263,1,2,0:0:0:0:
395,223,274448,1,2,0:0:0:0:
312,270,274633,1,2,0:0:0:0:
216,267,274819,2,8,P|159:242|125:192,1,95
296,267,275559,6,0,P|353:242|387:192,1,95,8|2,0:0|0:0,0:0:0:0:
357,124,276115,1,2,0:0:0:0:
274,77,276300,2,0,P|232:101|202:149,1,95,2|8,0:0|0:0,0:0:0:0:
23,193,277041,1,2,0:0:0:0:
106,237,277226,1,2,0:0:0:0:
200,237,277411,1,2,0:0:0:0:
284,192,277596,1,2,0:0:0:0:
232,111,277782,2,8,P|172:97|145:100,1,47.5
103,143,278152,2,8,P|154:165|188:170,1,47.5
255,209,278522,6,8,P|297:243|315:301,1,95,8|2,0:0|0:0,0:0:0:0:
256,151,279263,2,8,P|215:95|216:47,1,95,8|2,0:0|0:0,0:0:0:0:
174,192,280004,2,0,P|124:216|66:209,1,95,8|2,0:2|0:2,0:2:0:0:
338,192,280745,2,0,P|388:168|446:175,1,95,8|2,0:2|0:2,0:2:0:0:
256,334,281485,5,8,0:2:0:0:
256,238,281856,1,2,0:2:0:0:
114,192,282226,5,8,0:2:0:0:
210,192,282597,1,2,0:2:0:0:
256,50,282967,5,8,0:0:0:0:
254,97,283152,1,2,0:0:0:0:
259,144,283337,1,2,0:0:0:0:
398,192,283707,5,8,0:0:0:0:
302,192,284078,1,2,0:0:0:0:
211,275,284448,6,0,P|142:320|65:243,1,185.249991519928,4|2,0:0|0:0,0:0:0:0:
148,218,285189,1,2,0:0:0:0:
148,32,285559,1,2,0:0:0:0:
256,92,285930,2,8,L|285:167,1,61.7499971733095
255,224,286300,2,8,L|282:295,1,61.7499971733095
160,241,286670,1,2,0:0:0:0:
382,345,287041,1,2,0:0:0:0:
443,265,287411,6,0,P|375:319|301:275,1,185.249991519928,4|2,0:0|0:0,0:0:0:0:
364,218,288152,1,2,0:0:0:0:
364,32,288522,1,2,0:0:0:0:
184,79,288893,2,8,L|154:142,1,61.7499971733095
143,264,289263,2,8,L|206:294,1,61.7499971733095
328,305,289633,2,2,L|358:242,1,61.7499971733095
369,120,290004,2,2,L|306:90,1,61.7499971733095
194,60,290374,6,0,P|143:74|116:131,1,92.6249957599642,2|0,0:0|0:0,0:0:0:0:
107,133,290745,2,0,P|108:175|141:225,1,92.6249957599642,2|0,0:0|0:0,0:0:0:0:
156,238,291115,2,0,P|215:264|275:248,2,123.499994346619,2|2|2,0:0|0:0|0:0,0:0:0:0:
156,113,292041,1,0,0:0:0:0:
279,112,292226,1,8,0:0:0:0:
281,235,292411,1,0,0:0:0:0:
168,284,292596,2,2,L|141:348,1,61.7499971733095
344,284,292967,2,2,L|371:348,1,61.7499971733095
256,272,293337,6,2,L|256:202,2,61.7499971733095
198,148,294078,2,8,P|256:124|320:150,2,123.499994346619
201,332,295189,2,2,P|243:351|317:328,1,123.499994346619
339,240,295745,1,2,0:0:0:0:
173,240,295930,1,2,0:0:0:0:
256,155,296300,6,2,P|285:123|179:58,1,213.750008153916
190,124,297041,2,2,P|213:167|296:79,1,213.750008153916
248,75,297782,2,2,P|213:55|201:171,1,213.750008153916,2|2,0:2|0:2,0:2:0:0:
245,144,298522,2,2,P|259:200|334:120,1,213.750008153916,2|2,0:2|0:2,0:2:0:0:
211,69,299263,6,2,L|188:138,1,71.2500027179719
301,69,299633,2,2,L|324:138,1,71.2500027179719
406,253,300004,1,8,0:0:0:0:
106,253,300374,1,8,0:0:0:0:
326,354,300745,6,0,L|362:283,1,71.2500027179719
186,354,301115,2,0,L|150:283,1,71.2500027179719
256,227,301485,2,2,L|256:71,1,142.500005435944
154,292,302226,6,0,P|202:308|367:284,1,213.750008153916,4|2,0:0|0:0,0:0:0:0:
222,233,302967,2,2,P|156:223|82:238,1,142.500005435944
183,49,303707,2,0,L|154:130,1,71.2500027179719
329,49,304078,2,2,L|358:130,1,71.2500027179719
187,191,304448,2,2,P|238:207|343:178,1,142.500005435944
190,357,305189,6,0,P|173:305|208:218,1,142.500005435944,4|2,0:0|0:0,0:0:0:0:
256,132,305745,1,2,0:0:0:0:
310,224,305930,2,0,P|338:289|322:357,1,142.500005435944,2|8,0:0|0:0,0:0:0:0:
176,266,306670,5,2,0:0:0:0:
186,161,306856,1,2,0:0:0:0:
289,139,307041,1,2,0:0:0:0:
342,230,307226,1,2,0:0:0:0:
272,308,307411,5,8,0:2:0:0:
194,147,307596,1,8,0:2:0:0:
351,231,307782,1,8,0:2:0:0:
174,256,307967,1,8,0:2:0:0:
303,132,308152,6,2,P|351:141|459:64,1,170.999994781494
349,63,308707,2,2,P|342:124|417:219,1,170.999994781494
474,139,309263,2,2,P|403:125|281:252,1,256.499992172241
384,251,310004,1,0,0:0:0:0:
183,213,310189,1,0,0:0:0:0:
101,114,310374,5,8,0:2:0:0:
299,104,310559,1,8,0:2:0:0:
144,228,310745,1,8,0:2:0:0:
196,37,310930,1,8,0:2:0:0:
267,222,311115,6,2,P|320:246|430:217,1,170.999994781494
344,158,311670,2,2,P|330:218|385:341,1,170.999994781494
424,236,312226,2,2,P|345:229|188:317,1,256.499992172241,2|0,0:0|0:0,0:0:0:0:
313,310,312967,2,8,P|303:251|230:166,2,170.999994781494
44,262,314078,6,2,P|94:275|213:265,1,170.999994781494
342,79,314819,2,2,P|288:64|170:81,1,170.999994781494
468,262,315559,2,2,P|418:275|237:189,1,256.499992172241
360,185,316300,1,2,0:0:0:0:
201,55,316670,1,8,0:0:0:0:
311,55,316856,1,8,0:0:0:0:
196,113,317041,6,2,P|178:175|196:286,1,170.999994781494
316,271,317596,2,2,P|334:209|316:98,1,170.999994781494
257,26,318152,1,2,0:0:0:0:
78,77,318337,2,8,P|56:141|80:332,1,256.499992172241
434,307,319078,2,8,P|456:243|432:52,1,256.499992172241
256,192,320004,5,4,0:0:0:0:
