osu file format v14

[General]
AudioFilename: audio.mp3
AudioLeadIn: 0
PreviewTime: 6787
Countdown: 0
SampleSet: Soft
StackLeniency: 0.7
Mode: 2
LetterboxInBreaks: 0
WidescreenStoryboard: 1

[Editor]
DistanceSpacing: 1
BeatDivisor: 4
GridSize: 4
TimelineZoom: 1.5

[Metadata]
Title:My Little Pony Theme Song (TV Size)
TitleUnicode:My Little Pony Theme Song (TV Size)
Artist:Daniel Ingram
ArtistUnicode:Daniel Ingram
Creator:Kukkai
Version:Light Overdose
Source:My Little Pony: Friendship Is Magic
Tags:mlp:fim mlp intro opening Rebecca Shoichet Ashleigh Ball Andrea Libman Shannon Chan-Kent Kazumi Evans Lauren Faust cv: fluttershy applejack twilight sparkle pinkie pie rarity rainbow dash cartoon anime rock english songs of ponyville
BeatmapID:4088083
BeatmapSetID:1964936

[Difficulty]
HPDrainRate:5
CircleSize:3.8
OverallDifficulty:9.2
ApproachRate:9.2
SliderMultiplier:2
SliderTickRate:1

[Events]
//Background and Video events
Video,-1154,"intro.mp4"
0,0,"loyalty.jpg",0,0
//Break Periods
//Storyboard Layer 0 (Background)
//Storyboard Layer 1 (Fail)
//Storyboard Layer 2 (Pass)
//Storyboard Layer 3 (Foreground)
//Storyboard Layer 4 (Overlay)
//Storyboard Sound Samples

[TimingPoints]
1121,535.714285714286,4,2,1,50,1,0
1121,-76.9230769230769,4,2,1,50,0,0
1388,315.789473684211,4,2,1,50,1,8
1545,279.069767441861,4,2,1,50,1,8
1824,461.538461538462,4,2,1,50,1,8
1824,-90.9090909090909,4,2,1,50,0,8
2285,310.880829015544,4,2,1,50,1,8
2906,535.714285714286,4,2,1,50,1,0
2906,-76.9230769230769,4,2,1,50,0,0
3173,260.869565217391,4,2,1,50,1,8
3303,285.714285714286,4,2,1,50,1,8
3588,428.571428571429,4,2,1,50,1,8
3588,-90.9090909090909,4,2,1,50,0,8
4016,600,4,2,1,50,1,8
4331,500,4,2,1,50,1,8
4816,480,4,2,1,50,1,0
4816,-71.4285714285714,4,2,1,50,0,0
5176,-71.4285714285714,4,2,1,20,0,0
5296,-71.4285714285714,4,2,1,55,0,0
5656,-71.4285714285714,4,2,1,20,0,0
5776,-71.4285714285714,4,2,1,60,0,0
6136,-71.4285714285714,4,2,1,20,0,0
6256,521.739130434783,4,2,1,65,1,8
6256,-71.4285714285714,4,2,1,65,0,0
6647,-71.4285714285714,4,2,1,20,0,0
6787,540.540540540541,4,2,1,70,1,0
6787,-62.5,4,2,1,70,0,1
15435,-62.5,4,2,1,45,0,0
19759,-62.5,4,2,1,50,0,0
21922,-62.5,4,2,1,53,0,0
22462,-62.5,4,2,1,55,0,0
23003,-62.5,4,2,1,60,0,0
23543,-62.5,4,2,1,65,0,0
24084,-62.5,4,2,1,70,0,1
30570,-62.5,4,2,1,70,0,0
34895,-90.9090909090908,4,2,1,15,0,0

[Colours]
Combo1 : 223,233,46
Combo2 : 176,98,255
Combo3 : 255,128,255
Combo4 : 0,244,244

[HitObjects]
164,252,1121,6,0,L|312:252,1,129.999994049073,2|2,0:2|0:2,0:0:0:0:
204,252,1545,1,2,0:2:0:0:
328,248,1824,2,0,L|88:248,1,220.000006713867,2|2,0:2|0:2,0:0:0:0:
348,252,2906,6,0,P|380:180|332:160,1,129.999994049073,2|2,0:2|0:2,0:0:0:0:
276,156,3303,1,2,0:2:0:0:
160,160,3588,2,0,L|400:160,1,220.000006713867,2|2,0:2|0:2,0:0:0:0:
380,160,4331,1,2,0:2:0:0:
144,348,4816,6,0,P|84:304|164:224,1,209.999993591309,2|0,0:2|0:2,0:0:0:0:
300,228,5296,2,0,P|368:188|280:112,1,209.999993591309,2|0,0:2|0:2,0:0:0:0:
84,228,5776,2,0,P|20:184|104:108,1,209.999993591309,2|0,0:2|0:2,0:0:0:0:
304,228,6256,2,0,P|368:184|288:104,1,209.999993591309,2|0,0:2|0:2,0:0:0:0:
80,264,6787,6,0,L|248:264,2,160,6|8|2,1:2|0:2|1:2,0:0:0:0:
288,260,7462,2,0,L|288:172,1,80,2|8,0:2|0:2,0:0:0:0:
80,264,7732,6,0,P|32:224|100:160,1,160,2|0,1:2|0:2,0:0:0:0:
280,160,8138,2,0,L|360:160,2,80,10|0|0,0:2|0:2|0:0,0:0:0:0:
120,164,8678,1,8,0:2:0:0:
464,164,8949,5,0,1:2:0:0:
464,244,9084,1,2,0:2:0:0:
384,244,9219,1,10,0:2:0:0:
464,244,9354,1,2,0:2:0:0:
252,244,9489,2,0,L|80:244,1,160,2|10,1:2|0:2,0:0:0:0:
292,184,9895,6,0,L|292:96,1,80,2|0,1:2|0:2,0:0:0:0:
172,108,10165,2,0,L|172:24,1,80,2|8,1:2|0:2,0:0:0:0:
420,72,10435,2,0,L|260:72,2,160,2|2|2,0:2|0:2|0:2,0:0:0:0:
200,232,11111,6,0,L|24:232,2,160,2|8|2,1:2|0:2|1:2,0:0:0:0:
412,236,11786,2,0,L|412:140,1,80,2|8,0:2|0:2,0:0:0:0:
200,232,12057,6,0,L|24:232,1,160,2|0,1:2|0:2,0:0:0:0:
240,180,12462,2,0,L|240:100,1,80,10|0,0:2|0:2,0:0:0:0:
160,100,12732,1,0,1:2:0:0:
320,100,13003,2,0,L|404:100,1,80,10|2,0:2|0:2,0:0:0:0:
180,224,13273,5,2,1:2:0:0:
100,228,13408,2,0,L|100:116,1,80,2|8,0:2|0:2,0:0:0:0:
296,164,13678,2,0,L|400:164,1,80,2|0,0:2|1:2,0:0:0:0:
120,88,13949,2,0,L|32:88,1,80,2|8,0:2|0:2,0:0:0:0:
280,348,14219,6,0,P|328:296|264:248,1,160,2|2,1:2|0:2,0:0:0:0:
52,252,14624,2,0,L|144:252,1,80,10|0,0:2|0:2,0:0:0:0:
348,252,14895,1,2,1:2:0:0:
400,252,14985,1,0,0:2:0:0:
400,200,15075,1,0,0:2:0:0:
184,204,15165,1,8,0:2:0:0:
132,204,15255,1,0,0:2:0:0:
132,152,15345,1,0,0:2:0:0:
348,152,15435,5,2,1:2:0:0:
72,124,16516,5,2,1:2:0:0:
400,144,17597,5,2,1:2:0:0:
44,288,19489,5,2,1:2:0:0:
388,292,19759,6,0,L|500:292,2,80,2|2|0,1:2|0:2|0:2,0:0:0:0:
308,292,20165,2,0,L|308:192,1,80,2|0,0:2|0:2,0:0:0:0:
388,212,20435,1,2,0:2:0:0:
268,212,20570,1,2,0:2:0:0:
388,212,20705,1,2,0:2:0:0:
160,348,20841,6,0,L|160:256,1,80,2|2,1:2|0:2,0:0:0:0:
240,268,21111,2,0,L|240:164,1,80,0|2,0:2|0:2,0:0:0:0:
160,176,21381,2,0,L|64:176,1,80,0|0,0:2|0:2,0:0:0:0:
224,116,21651,2,0,L|340:116,1,80,2|0,0:2|0:2,0:0:0:0:
92,340,21922,6,0,L|92:248,1,80,2|0,1:2|0:2,0:0:0:0:
172,260,22192,2,0,L|80:260,1,80,10|0,0:2|0:2,0:0:0:0:
304,256,22462,2,0,L|304:160,1,80,2|0,1:2|0:2,0:0:0:0:
180,172,22732,2,0,L|180:80,1,80,10|0,0:2|0:2,0:0:0:0:
384,88,23003,5,10,1:2:0:0:
503,88,23138,1,8,0:2:0:0:
384,88,23273,1,10,0:2:0:0:
503,88,23408,1,10,0:2:0:0:
248,276,23543,1,8,0:0:0:0:
144,276,23678,1,8,0:0:0:0:
388,216,23814,1,8,0:0:0:0:
491,216,23949,1,8,0:0:0:0:
224,152,24084,6,0,L|48:152,2,160,6|8|2,1:2|0:2|1:2,0:0:0:0:
432,256,24759,2,0,L|344:256,1,80,2|8,0:2|0:2,0:0:0:0:
140,256,25030,6,0,P|96:208|152:144,1,160,2|0,1:2|0:2,0:0:0:0:
352,144,25435,2,0,L|448:144,2,80,10|0|0,0:2|0:0|1:2,0:0:0:0:
192,144,25976,2,0,L|192:244,1,80,10|2,0:2|0:2,0:0:0:0:
404,304,26246,6,0,P|448:268|392:200,1,160,2|10,1:2|0:2,0:0:0:0:
200,248,26651,2,0,L|200:148,1,80,2|0,0:2|1:2,0:0:0:0:
280,172,26922,2,0,L|368:172,1,80,2|8,0:2|0:2,0:0:0:0:
152,180,27192,6,0,P|108:144|168:76,1,160,2|2,1:2|0:2,0:0:0:0:
240,76,27597,1,8,0:2:0:0:
448,76,27732,2,0,L|448:164,1,80,2|0,1:2|1:2,0:0:0:0:
240,76,28003,2,0,L|160:76,2,80,8|8|8,0:2|0:2|0:2,0:0:0:0:
452,336,28408,6,0,P|484:300|416:220,1,160,6|8,1:2|0:2,0:0:0:0:
352,224,28814,1,8,0:2:0:0:
128,164,28949,2,0,L|320:164,1,160,4|8,1:2|0:2,0:0:0:0:
368,168,29354,1,8,0:2:0:0:
144,348,29489,6,0,P|88:324|144:264,1,160,4|8,1:2|0:2,0:0:0:0:
212,264,29895,1,8,0:2:0:0:
436,276,30030,2,0,L|436:192,1,80,4|8,1:2|0:2,0:0:0:0:
212,200,30300,1,8,0:0:0:0:
315,201,30435,1,8,0:0:0:0:
48,120,30570,5,4,1:2:0:0:
256,192,30841,12,0,34895,0:2:0:0:
