osu file format v14

[General]
AudioFilename: audio.mp3
AudioLeadIn: 0
PreviewTime: 6718
Countdown: 0
SampleSet: Normal
StackLeniency: 0.7
Mode: 1
LetterboxInBreaks: 0
WidescreenStoryboard: 1

[Editor]
Bookmarks: 16634,25283,29604
DistanceSpacing: 0.6
BeatDivisor: 4
GridSize: 32
TimelineZoom: 2.799999

[Metadata]
Title:My Little Pony Theme Song (TV Size)
TitleUnicode:My Little Pony Theme Song (TV Size)
Artist:Daniel Ingram
ArtistUnicode:Daniel Ingram
Creator:-Flashlight-
Version:Futsuu
Source:My Little Pony: Friendship Is Magic
Tags:mlp mlp:fim intro opening Rebecca Shoichet Ashleigh Ball Andrea Libman Shannon Chan-Kent Kazumi Evans Lauren Faust cv: fluttershy applejack twilight sparkle pinkie pie rarity rainbow dash cartoon anime rock english songs of ponyville ost original soundtrack sound track
BeatmapID:3780870
BeatmapSetID:1840807

[Difficulty]
HPDrainRate:9.5
CircleSize:5
OverallDifficulty:4
ApproachRate:5
SliderMultiplier:1.4
SliderTickRate:1

[Events]
//Background and Video events
0,0,"bg.jpg",0,-20
Video,0,"output.mp4"
//Break Periods
//Storyboard Layer 0 (Background)
//Storyboard Layer 1 (Fail)
//Storyboard Layer 2 (Pass)
//Storyboard Layer 3 (Foreground)
//Storyboard Layer 4 (Overlay)
//Storyboard Sound Samples

[TimingPoints]
1121,535.714285714286,4,1,0,70,1,0
1121,-56.056056056056,4,1,0,70,0,0
1388,315.789473684211,4,1,0,70,1,8
1388,-95.095095095095,4,1,0,70,0,8
1545,279.069767441861,4,1,0,70,1,8
1545,-107.607607607607,4,1,0,70,0,8
1824,461.538461538462,4,1,0,70,1,8
1824,-65.065065065065,4,1,0,70,0,8
2285,310.880829015544,4,1,0,70,1,8
2285,-96.5965965965966,4,1,0,70,0,8
2906,535.714285714286,4,1,0,70,1,0
2906,-56.056056056056,4,1,0,70,0,0
3173,260.869565217391,4,1,0,70,1,8
3173,-115.115115115115,4,1,0,70,0,8
3303,285.714285714286,4,1,0,70,1,8
3303,-105.105105105105,4,1,0,70,0,8
3588,428.571428571429,4,1,0,70,1,8
3588,-70.07007007007,4,1,0,70,0,8
4016,600,4,1,0,70,1,8
4016,-50.0500500500501,4,1,0,70,0,8
4331,500,4,1,0,70,1,8
4331,-60.0600600600601,4,1,0,70,0,8
4816,480,4,1,0,80,1,0
4816,-62.5625625625626,4,1,0,80,0,0
6736,480,4,1,0,80,1,8
6787,540.540540540541,4,1,0,90,1,0
6787,-55.5555555555556,4,1,0,90,0,1
15435,-55.5555555555556,4,1,0,90,0,0
15503,-55.5555555555556,4,1,0,70,0,0
21922,-55.5555555555556,4,1,0,80,0,0
24084,-55.5555555555556,4,1,0,90,0,1
30570,-55.5555555555556,4,1,0,90,0,0
30705,-55.5555555555556,4,1,0,90,0,0
30841,-55.5555555555556,4,1,0,86,0,0
30976,-55.5555555555556,4,1,0,82,0,0
31111,-55.5555555555556,4,1,0,78,0,0
31246,-55.5555555555556,4,1,0,74,0,0
31381,-55.5555555555556,4,1,0,69,0,0
31516,-55.5555555555556,4,1,0,65,0,0
31651,-55.5555555555556,4,1,0,61,0,0
31786,-55.5555555555556,4,1,0,57,0,0
31922,-55.5555555555556,4,1,0,53,0,0
32057,-55.5555555555556,4,1,0,49,0,0
32192,-55.5555555555556,4,1,0,45,0,0
32327,-55.5555555555556,4,1,0,41,0,0
32462,-55.5555555555556,4,1,0,36,0,0
32597,-55.5555555555556,4,1,0,32,0,0
32732,-55.5555555555556,4,1,0,28,0,0
32868,-55.5555555555556,4,1,0,24,0,0
33003,-55.5555555555556,4,1,0,20,0,0

[HitObjects]
256,192,1121,5,8,0:0:0:0:
256,192,1824,1,0,0:0:0:0:
256,192,2285,1,8,0:0:0:0:
256,192,2906,1,8,0:0:0:0:
256,192,3588,1,0,0:0:0:0:
256,192,4016,1,0,0:0:0:0:
256,192,4816,1,4,0:0:0:0:
256,192,5296,1,12,0:0:0:0:
256,192,5776,1,12,0:0:0:0:
256,192,6256,1,12,0:0:0:0:
256,192,6787,1,4,0:0:0:0:
256,192,7057,1,8,0:0:0:0:
256,192,7327,1,8,0:0:0:0:
256,192,7462,1,0,0:0:0:0:
256,192,7732,1,8,0:0:0:0:
256,192,8003,1,0,0:0:0:0:
256,192,8138,1,8,0:0:0:0:
256,192,8408,1,0,0:0:0:0:
256,192,8543,1,0,0:0:0:0:
256,192,8678,1,8,0:0:0:0:
256,192,8949,1,0,0:0:0:0:
256,192,9084,1,8,0:0:0:0:
256,192,9219,1,0,0:0:0:0:
256,192,9354,1,0,0:0:0:0:
256,192,9489,1,8,0:0:0:0:
256,192,9759,1,0,0:0:0:0:
256,192,9895,1,8,0:0:0:0:
256,192,10165,1,8,0:0:0:0:
256,192,10300,1,0,0:0:0:0:
256,192,10435,1,8,0:0:0:0:
256,192,10705,1,0,0:0:0:0:
256,192,10976,1,0,0:0:0:0:
256,192,11111,1,12,0:0:0:0:
256,192,11651,1,8,0:0:0:0:
256,192,11786,1,0,0:0:0:0:
256,192,12057,1,8,0:0:0:0:
256,192,12327,1,0,0:0:0:0:
256,192,12462,1,8,0:0:0:0:
256,192,12732,1,0,0:0:0:0:
256,192,13003,1,8,0:0:0:0:
256,192,13138,1,0,0:0:0:0:
256,192,13273,1,8,0:0:0:0:
256,192,13408,1,8,0:0:0:0:
256,192,13678,1,0,0:0:0:0:
256,192,13949,1,8,0:0:0:0:
256,192,14084,1,0,0:0:0:0:
256,192,14219,1,8,0:0:0:0:
256,192,14489,1,0,0:0:0:0:
256,192,14624,1,8,0:0:0:0:
256,192,14895,1,8,0:0:0:0:
256,192,15435,1,12,0:0:0:0:
256,192,16516,1,8,0:0:0:0:
256,192,17597,1,0,0:0:0:0:
256,192,19489,1,8,0:0:0:0:
256,192,19759,1,4,0:0:0:0:
256,192,20030,1,8,0:0:0:0:
256,192,20165,1,0,0:0:0:0:
256,192,20435,1,0,0:0:0:0:
256,192,20570,1,8,0:0:0:0:
256,192,20841,1,0,0:0:0:0:
256,192,21111,1,8,0:0:0:0:
256,192,21246,1,0,0:0:0:0:
256,192,21651,1,0,0:0:0:0:
256,192,21922,1,4,0:0:0:0:
256,192,22192,1,8,0:0:0:0:
256,192,22462,1,4,0:0:0:0:
256,192,22732,1,8,0:0:0:0:
256,192,23003,1,12,0:0:0:0:
256,192,23273,1,8,0:0:0:0:
256,192,23408,1,8,0:0:0:0:
256,192,23543,1,0,0:0:0:0:
256,192,23678,1,0,0:0:0:0:
256,192,23814,1,8,0:0:0:0:
256,192,24084,1,12,0:0:0:0:
256,192,24624,1,8,0:0:0:0:
256,192,24759,1,8,0:0:0:0:
256,192,24895,1,0,0:0:0:0:
256,192,25030,1,8,0:0:0:0:
256,192,25300,1,0,0:0:0:0:
256,192,25435,1,8,0:0:0:0:
256,192,25705,1,0,0:0:0:0:
256,192,25976,1,8,0:0:0:0:
256,192,26111,1,0,0:0:0:0:
256,192,26246,1,8,0:0:0:0:
256,192,26516,1,0,0:0:0:0:
256,192,26651,1,8,0:0:0:0:
256,192,26922,1,0,0:0:0:0:
256,192,27192,1,8,0:0:0:0:
256,192,27462,1,0,0:0:0:0:
256,192,27597,1,0,0:0:0:0:
256,192,27732,1,8,0:0:0:0:
256,192,28408,1,12,0:0:0:0:
256,192,28678,1,0,0:0:0:0:
256,192,28949,1,12,0:0:0:0:
256,192,29219,1,0,0:0:0:0:
256,192,29489,1,12,0:0:0:0:
256,192,29759,1,0,0:0:0:0:
256,192,29895,1,0,0:0:0:0:
256,192,30030,1,12,0:0:0:0:
256,192,30300,1,0,0:0:0:0:
256,192,30435,1,0,0:0:0:0:
256,192,30570,1,12,0:0:0:0:
256,192,30705,8,0,33003,0:0:0:0:
