osu file format v14

[General]
AudioFilename: audio.mp3
AudioLeadIn: 0
PreviewTime: 6718
Countdown: 0
SampleSet: Normal
StackLeniency: 0.7
Mode: 1
LetterboxInBreaks: 0
WidescreenStoryboard: 1

[Editor]
Bookmarks: 16634,25283,29604
DistanceSpacing: 0.6
BeatDivisor: 4
GridSize: 32
TimelineZoom: 4.899997

[Metadata]
Title:My Little Pony Theme Song (TV Size)
TitleUnicode:My Little Pony Theme Song (TV Size)
Artist:Daniel Ingram
ArtistUnicode:Daniel Ingram
Creator:-Flashlight-
Version:Friendship Oni
Source:My Little Pony: Friendship Is Magic
Tags:mlp mlp:fim intro opening Rebecca Shoichet Ashleigh Ball Andrea Libman Shannon Chan-Kent Kazumi Evans Lauren Faust cv: fluttershy applejack twilight sparkle pinkie pie rarity rainbow dash cartoon anime rock english songs of ponyville ost original soundtrack sound track
BeatmapID:3780869
BeatmapSetID:1840807

[Difficulty]
HPDrainRate:10
CircleSize:5
OverallDifficulty:6
ApproachRate:5
SliderMultiplier:1.4
SliderTickRate:1

[Events]
//Background and Video events
0,0,"bg.jpg",0,-20
Video,0,"output.mp4"
//Break Periods
//Storyboard Layer 0 (Background)
//Storyboard Layer 1 (Fail)
//Storyboard Layer 2 (Pass)
//Storyboard Layer 3 (Foreground)
//Storyboard Layer 4 (Overlay)
//Storyboard Sound Samples

[TimingPoints]
1121,535.714285714286,4,1,0,70,1,0
1121,-84.8484848484848,4,1,0,70,0,0
1388,315.789473684211,4,1,0,70,1,8
1388,-143.939393939394,4,1,0,70,0,8
1545,279.069767441861,4,1,0,70,1,8
1545,-162.878787878788,4,1,0,70,0,8
1824,461.538461538462,4,1,0,70,1,8
1824,-98.4848484848484,4,1,0,70,0,8
2285,310.880829015544,4,1,0,70,1,8
2285,-146.212121212121,4,1,0,70,0,8
2906,535.714285714286,4,1,0,70,1,0
2906,-84.8484848484848,4,1,0,70,0,0
3173,260.869565217391,4,1,0,70,1,8
3173,-174.242424242424,4,1,0,70,0,8
3303,285.714285714286,4,1,0,70,1,8
3303,-159.090909090909,4,1,0,70,0,8
3588,428.571428571429,4,1,0,70,1,8
3588,-106.060606060606,4,1,0,70,0,8
4016,600,4,1,0,70,1,8
4016,-75.7575757575758,4,1,0,70,0,8
4331,500,4,1,0,70,1,8
4331,-90.9090909090909,4,1,0,70,0,8
4816,480,4,1,0,80,1,0
4816,-90.9090909090909,4,1,0,80,0,0
5293,-83.3333333333333,4,1,0,80,0,0
5773,-71.4285714285714,4,1,0,80,0,0
6256,-58.8235294117647,4,1,0,80,0,0
6736,480,4,1,0,80,1,8
6787,540.540540540541,4,1,0,90,1,0
6787,-41.6666666666667,4,1,0,90,0,1
7054,-50,4,1,0,90,0,1
15435,-50,4,1,0,90,0,0
15503,-62.5,4,1,0,70,0,0
17594,-71.4285714285714,4,1,0,70,0,0
19486,-83.3333333333333,4,1,0,70,0,0
19689,-62.5,4,1,0,80,0,0
21922,-58.8235294117647,4,1,0,80,0,0
22192,-55.1724137931034,4,1,0,80,0,0
22327,-53.5117056856187,4,1,0,80,0,0
22462,-51.9480519480519,4,1,0,80,0,0
22732,-49.079754601227,4,1,0,80,0,0
22868,-47.7611940298507,4,1,0,80,0,0
23003,-46.5116279069767,4,1,0,80,0,0
23138,-45.3257790368272,4,1,0,80,0,0
23205,-44.7552447552448,4,1,0,80,0,0
23273,-44.1988950276243,4,1,0,80,0,0
23408,-43.1266846361186,4,1,0,80,0,0
23476,-42.6098535286285,4,1,0,80,0,0
23543,-42.1052631578947,4,1,0,80,0,0
23678,-41.1311053984576,4,1,0,80,0,0
23746,-40.6607369758577,4,1,0,80,0,0
23814,-40.2010050251256,4,1,0,80,0,0
23881,-39.7515527950311,4,1,0,80,0,0
23949,-39.3120393120393,4,1,0,80,0,0
24016,-38.8821385176185,4,1,0,80,0,0
24084,-38.4615384615385,4,1,0,90,0,1
24351,-45.4545454545455,4,1,0,90,0,1
28205,-44.6428571428571,4,1,0,90,0,1
28273,-43.859649122807,4,1,0,90,0,1
28341,-43.1034482758621,4,1,0,90,0,1
28408,-42.3728813559322,4,1,0,90,0,1
30232,-41.3793046373373,4,1,0,90,0,1
30300,-40.4312722953197,4,1,0,90,0,1
30368,-39.5256916996047,4,1,0,90,0,1
30435,-38.6597888325014,4,1,0,90,0,1
30503,-37.8310262082,4,1,0,90,0,1
30570,-37.037037037037,4,1,0,90,0,0
30705,-27.7777777777778,4,1,0,90,0,0
30838,-50,4,1,0,86,0,0
30973,-50,4,1,0,82,0,0
31108,-50,4,1,0,78,0,0
31243,-50,4,1,0,74,0,0
31378,-50,4,1,0,69,0,0
31513,-50,4,1,0,65,0,0
31648,-50,4,1,0,61,0,0
31783,-50,4,1,0,57,0,0
31919,-50,4,1,0,53,0,0
32054,-50,4,1,0,49,0,0
32189,-50,4,1,0,45,0,0
32324,-50,4,1,0,41,0,0
32459,-50,4,1,0,36,0,0
32594,-50,4,1,0,32,0,0
32729,-62.5,4,1,0,28,0,0
32865,-62.5,4,1,0,24,0,0
33000,-62.5,4,1,0,20,0,0

[HitObjects]
256,192,1121,5,0,0:0:0:0:
256,192,1388,1,8,0:0:0:0:
256,192,1545,1,8,0:0:0:0:
256,192,1824,1,0,0:0:0:0:
256,192,2285,1,8,0:0:0:0:
256,192,2906,1,8,0:0:0:0:
256,192,3173,1,8,0:0:0:0:
256,192,3303,1,0,0:0:0:0:
256,192,3588,1,8,0:0:0:0:
256,192,4016,1,0,0:0:0:0:
256,192,4816,1,4,0:0:0:0:
256,192,5296,1,12,0:0:0:0:
256,192,5776,1,12,0:0:0:0:
256,192,6256,1,12,0:0:0:0:
256,192,6787,1,4,0:0:0:0:
256,192,7057,1,8,0:0:0:0:
256,192,7192,1,0,0:0:0:0:
256,192,7327,1,8,0:0:0:0:
256,192,7395,1,8,0:0:0:0:
256,192,7462,1,8,0:0:0:0:
256,192,7597,1,0,0:0:0:0:
256,192,7732,1,8,0:0:0:0:
256,192,7800,1,8,0:0:0:0:
256,192,7868,1,0,0:0:0:0:
256,192,8003,1,0,0:0:0:0:
256,192,8138,1,8,0:0:0:0:
256,192,8205,1,8,0:0:0:0:
256,192,8273,1,0,0:0:0:0:
256,192,8341,1,0,0:0:0:0:
256,192,8408,1,8,0:0:0:0:
256,192,8543,1,0,0:0:0:0:
256,192,8678,1,8,0:0:0:0:
256,192,8746,1,0,0:0:0:0:
256,192,8814,1,8,0:0:0:0:
256,192,8949,1,0,0:0:0:0:
256,192,9084,1,8,0:0:0:0:
256,192,9151,1,8,0:0:0:0:
256,192,9219,1,0,0:0:0:0:
256,192,9286,1,8,0:0:0:0:
256,192,9354,1,0,0:0:0:0:
256,192,9489,1,8,0:0:0:0:
256,192,9624,1,0,0:0:0:0:
256,192,9692,1,0,0:0:0:0:
256,192,9759,1,0,0:0:0:0:
256,192,9895,1,8,0:0:0:0:
256,192,10030,1,0,0:0:0:0:
256,192,10097,1,0,0:0:0:0:
256,192,10165,1,8,0:0:0:0:
256,192,10300,1,8,0:0:0:0:
256,192,10368,1,0,0:0:0:0:
256,192,10435,1,8,0:0:0:0:
256,192,10570,1,0,0:0:0:0:
256,192,10705,1,0,0:0:0:0:
256,192,10773,1,0,0:0:0:0:
256,192,10841,1,8,0:0:0:0:
256,192,10908,1,8,0:0:0:0:
256,192,10976,1,0,0:0:0:0:
256,192,11111,1,12,0:0:0:0:
256,192,11381,1,8,0:0:0:0:
256,192,11516,1,0,0:0:0:0:
256,192,11651,1,0,0:0:0:0:
256,192,11719,1,0,0:0:0:0:
256,192,11786,1,8,0:0:0:0:
256,192,11922,1,0,0:0:0:0:
256,192,12057,1,8,0:0:0:0:
256,192,12124,1,0,0:0:0:0:
256,192,12192,1,8,0:0:0:0:
256,192,12327,1,0,0:0:0:0:
256,192,12462,1,8,0:0:0:0:
256,192,12530,1,0,0:0:0:0:
256,192,12597,1,8,0:0:0:0:
256,192,12665,1,8,0:0:0:0:
256,192,12732,1,0,0:0:0:0:
256,192,12868,1,0,0:0:0:0:
256,192,12935,1,0,0:0:0:0:
256,192,13003,1,8,0:0:0:0:
256,192,13138,1,0,0:0:0:0:
256,192,13273,1,8,0:0:0:0:
256,192,13341,1,8,0:0:0:0:
256,192,13408,1,8,0:0:0:0:
256,192,13543,1,0,0:0:0:0:
256,192,13678,1,8,0:0:0:0:
256,192,13746,1,8,0:0:0:0:
256,192,13814,1,0,0:0:0:0:
256,192,13949,1,0,0:0:0:0:
256,192,14016,1,8,0:0:0:0:
256,192,14084,1,0,0:0:0:0:
256,192,14219,1,8,0:0:0:0:
256,192,14354,1,0,0:0:0:0:
256,192,14489,1,0,0:0:0:0:
256,192,14557,1,0,0:0:0:0:
256,192,14624,1,8,0:0:0:0:
256,192,14759,1,0,0:0:0:0:
256,192,14895,1,8,0:0:0:0:
256,192,14985,1,0,0:0:0:0:
256,192,15075,1,0,0:0:0:0:
256,192,15165,1,8,0:0:0:0:
256,192,15255,1,0,0:0:0:0:
256,192,15345,1,0,0:0:0:0:
256,192,15435,1,12,0:0:0:0:
256,192,16516,1,8,0:0:0:0:
256,192,17597,1,0,0:0:0:0:
256,192,19489,1,8,0:0:0:0:
256,192,19759,1,4,0:0:0:0:
256,192,20030,1,8,0:0:0:0:
256,192,20165,1,0,0:0:0:0:
256,192,20435,1,0,0:0:0:0:
256,192,20570,1,8,0:0:0:0:
256,192,20841,1,0,0:0:0:0:
256,192,20976,1,0,0:0:0:0:
256,192,21111,1,8,0:0:0:0:
256,192,21246,1,0,0:0:0:0:
256,192,21516,1,0,0:0:0:0:
256,192,21651,1,8,0:0:0:0:
256,192,21922,5,4,0:0:0:0:
256,192,22192,1,8,0:0:0:0:
256,192,22327,1,8,0:0:0:0:
256,192,22462,1,4,0:0:0:0:
256,192,22732,1,8,0:0:0:0:
256,192,22868,1,0,0:0:0:0:
256,192,23003,1,12,0:0:0:0:
256,192,23138,1,0,0:0:0:0:
256,192,23205,1,0,0:0:0:0:
256,192,23273,1,8,0:0:0:0:
256,192,23408,1,8,0:0:0:0:
256,192,23476,1,0,0:0:0:0:
256,192,23543,1,8,0:0:0:0:
256,192,23678,1,0,0:0:0:0:
256,192,23746,1,0,0:0:0:0:
256,192,23814,1,8,0:0:0:0:
256,192,23881,1,8,0:0:0:0:
256,192,23949,1,0,0:0:0:0:
256,192,24016,1,0,0:0:0:0:
256,192,24084,1,12,0:0:0:0:
256,192,24354,1,8,0:0:0:0:
256,192,24489,1,0,0:0:0:0:
256,192,24624,1,8,0:0:0:0:
256,192,24692,1,8,0:0:0:0:
256,192,24759,1,8,0:0:0:0:
256,192,24895,1,0,0:0:0:0:
256,192,25030,1,8,0:0:0:0:
256,192,25097,1,8,0:0:0:0:
256,192,25165,1,0,0:0:0:0:
256,192,25300,1,0,0:0:0:0:
256,192,25435,1,8,0:0:0:0:
256,192,25503,1,0,0:0:0:0:
256,192,25570,1,8,0:0:0:0:
256,192,25638,1,8,0:0:0:0:
256,192,25705,1,0,0:0:0:0:
256,192,25841,1,0,0:0:0:0:
256,192,25976,1,8,0:0:0:0:
256,192,26043,1,8,0:0:0:0:
256,192,26111,1,0,0:0:0:0:
256,192,26178,1,0,0:0:0:0:
256,192,26246,1,8,0:0:0:0:
256,192,26381,1,0,0:0:0:0:
256,192,26516,1,0,0:0:0:0:
256,192,26584,1,0,0:0:0:0:
256,192,26651,1,8,0:0:0:0:
256,192,26719,1,8,0:0:0:0:
256,192,26786,1,0,0:0:0:0:
256,192,26922,1,8,0:0:0:0:
256,192,26989,1,8,0:0:0:0:
256,192,27057,1,0,0:0:0:0:
256,192,27192,1,8,0:0:0:0:
256,192,27327,1,0,0:0:0:0:
256,192,27462,1,8,0:0:0:0:
256,192,27530,1,8,0:0:0:0:
256,192,27597,1,0,0:0:0:0:
256,192,27732,1,8,0:0:0:0:
256,192,27800,1,8,0:0:0:0:
256,192,27868,1,8,0:0:0:0:
256,192,27935,1,8,0:0:0:0:
256,192,28003,1,0,0:0:0:0:
256,192,28138,1,8,0:0:0:0:
256,192,28273,1,0,0:0:0:0:
256,192,28341,1,0,0:0:0:0:
256,192,28408,1,12,0:0:0:0:
256,192,28678,1,8,0:0:0:0:
256,192,28814,1,0,0:0:0:0:
256,192,28881,1,0,0:0:0:0:
256,192,28949,1,12,0:0:0:0:
256,192,29219,1,8,0:0:0:0:
256,192,29354,1,0,0:0:0:0:
256,192,29422,1,0,0:0:0:0:
256,192,29489,1,12,0:0:0:0:
256,192,29624,1,0,0:0:0:0:
256,192,29759,1,8,0:0:0:0:
256,192,29827,1,8,0:0:0:0:
256,192,29895,1,0,0:0:0:0:
256,192,29962,1,0,0:0:0:0:
256,192,30030,1,12,0:0:0:0:
256,192,30165,1,0,0:0:0:0:
256,192,30232,1,0,0:0:0:0:
256,192,30300,1,8,0:0:0:0:
256,192,30368,1,8,0:0:0:0:
256,192,30435,1,0,0:0:0:0:
256,192,30503,1,0,0:0:0:0:
256,192,30570,1,12,0:0:0:0:
256,192,30705,8,0,33003,0:0:0:0:
