osu file format v14

[General]
AudioFilename: hasah.mp3
AudioLeadIn: 0
PreviewTime: 46449
Countdown: 0
SampleSet: Normal
StackLeniency: 0.5
Mode: 0
LetterboxInBreaks: 0
WidescreenStoryboard: 0

[Editor]
DistanceSpacing: 1
BeatDivisor: 4
GridSize: 8
TimelineZoom: 2

[Metadata]
Title:Hearts as Strong as Horses
TitleUnicode:Hearts as Strong as Horses
Artist:Daniel Ingram
ArtistUnicode:Daniel Ingram
Creator:diraimur
Version:Hard
Source:My Little Pony: Friendship is Magic
Tags:Arphimigon Firmatorenio mlp cmc scootaloo apple bloom sweetie belle Flight to the Finish Songs of Ponyville Yuii- Voli Gero
BeatmapID:711324
BeatmapSetID:319569

[Difficulty]
HPDrainRate:5
CircleSize:3.5
OverallDifficulty:6
ApproachRate:7
SliderMultiplier:2.34999990463257
SliderTickRate:2

[Events]
//Background and Video events
0,0,"icanteven.png",0,0
Video,240,"Video.avi"
//Break Periods
2,24270,30912
2,62980,69622
2,109432,110751
2,113303,116074
//Storyboard Layer 0 (Background)
//Storyboard Layer 1 (Fail)
//Storyboard Layer 2 (Pass)
//Storyboard Layer 3 (Foreground)
//Storyboard Sound Samples

[TimingPoints]
845,483.870967741935,4,1,1,60,1,0
47296,-100,4,1,1,60,0,1
62780,-100,4,1,1,60,0,0
86006,-100,4,1,1,60,0,1
109232,-100,4,1,1,60,0,0

[Colours]
Combo1 : 255,255,128
Combo2 : 222,89,255
Combo3 : 255,79,79
Combo4 : 255,128,64
Combo5 : 255,183,255

[HitObjects]
256,352,8586,5,4,0:3:0:0:
366,353,8828,1,0,0:2:0:0:
366,353,8949,1,0,0:2:0:0:
366,353,9070,2,0,P|352:297|312:256,1,117.499995231629,8|0,0:3|0:2,0:0:0:0:
200,256,9554,2,0,P|163:291|145:353,1,117.499995231629,4|0,0:3|0:2,0:0:0:0:
256,352,10038,1,8,0:3:0:0:
256,106,10522,5,2,0:3:0:0:
256,256,10764,1,2,0:2:0:0:
312,156,11006,1,2,0:2:0:0:
200,156,11248,2,0,P|156:202|144:277,1,117.499995231629,2|0,0:2|0:0,0:0:0:0:
256,256,11732,1,4,0:3:0:0:
369,252,11974,2,0,P|353:194|312:156,1,117.499995231629,2|0,0:2|0:0,0:0:0:0:
256,256,12457,5,0,0:0:0:0:
256,360,12699,1,8,0:3:0:0:
200,263,12941,1,0,0:3:0:0:
312,263,13183,1,4,0:3:0:0:
88,263,13667,1,8,0:3:0:0:
88,40,14151,1,4,0:3:0:0:
144,135,14393,6,0,P|186:96|200:40,1,117.499995231629,4|2,0:3|0:2,0:0:0:0:
312,40,14877,2,0,P|328:100|368:136,1,117.499995231629,2|8,0:2|0:3,0:0:0:0:
480,136,15361,1,8,0:3:0:0:
424,40,15603,1,8,0:3:0:0:
368,136,15844,2,0,P|387:192|370:249,1,117.499995231629,8|4,0:3|0:3,0:0:0:0:
256,192,16328,5,4,0:3:0:0:
256,80,16570,1,0,0:0:0:0:
160,136,16812,1,8,0:3:0:0:
160,248,17054,1,0,0:0:0:0:
256,304,17296,2,0,P|310:291|354:244,1,117.499995231629,4|0,0:3|0:0,0:0:0:0:
352,136,17780,1,8,0:3:0:0:
256,384,18264,5,2,0:3:0:0:
256,272,18506,1,2,0:2:0:0:
200,368,18748,1,2,0:2:0:0:
312,368,18990,1,2,0:2:0:0:
216,136,19474,1,4,0:3:0:0:
320,206,19715,1,4,0:3:0:0:
192,206,19957,1,0,0:0:0:0:
296,136,20199,6,0,P|391:226|324:280,1,234.999990463257,4|8,0:3|0:3,0:0:0:0:
192,206,20925,1,0,0:2:0:0:
320,206,21167,1,2,0:2:0:0:
217,282,21409,1,2,0:2:0:0:
256,160,21651,1,2,0:2:0:0:
295,282,21893,1,2,0:2:0:0:
185,211,22135,6,0,B|170:187|169:155|169:155|129:114|129:114|141:50|196:21,1,234.999990463257,2|0,0:3|0:0,0:0:0:0:
315,21,22861,2,0,B|371:50|383:114|383:114|343:155|343:155|342:187|327:211,1,234.999990463257,2|0,0:3|0:0,0:0:0:0:
256,300,23586,1,4,0:3:0:0:
256,188,23828,1,0,0:0:0:0:
256,160,23949,1,0,0:2:0:0:
256,132,24070,5,4,0:0:0:0:
256,192,31812,5,0,0:0:0:0:
200,288,32054,1,0,0:0:0:0:
312,288,32296,2,0,P|354:248|367:192,1,117.499995231629,2|0,0:2|0:2,0:0:0:0:
312,96,32780,1,2,0:2:0:0:
200,96,33022,1,0,0:2:0:0:
144,192,33264,2,0,P|158:249|200:288,1,117.499995231629,2|0,0:2|0:2,0:0:0:0:
312,288,33748,6,0,P|298:231|256:192,1,117.499995231629,2|0,0:2|0:2,0:0:0:0:
144,192,34232,1,2,0:2:0:0:
89,288,34474,1,0,0:2:0:0:
200,288,34715,6,0,P|242:248|256:192,1,117.499995231629,2|0,0:2|0:2,0:0:0:0:
196,92,35199,1,2,0:2:0:0:
316,92,35441,1,0,0:2:0:0:
341,105,35562,1,0,0:0:0:0:
365,120,35683,6,0,P|358:179|321:232,1,117.499995231629,4|8,0:3|0:3,0:0:0:0:
185,226,36167,2,0,P|153:177|147:120,1,117.499995231629,8|4,0:3|0:3,0:0:0:0:
295,64,36651,1,8,0:3:0:0:
256,170,36893,1,8,0:3:0:0:
217,64,37135,1,4,0:3:0:0:
202,304,37619,5,4,0:3:0:0:
329,232,37861,1,0,0:0:0:0:
183,232,38103,1,0,0:2:0:0:
310,304,38344,1,4,0:3:0:0:
256,96,38828,1,0,0:0:0:0:
200,194,39070,2,0,P|283:206|312:194,1,117.499995231629,0|0,0:2|0:0,0:0:0:0:
320,57,39554,5,2,0:2:0:0:
192,57,39796,1,0,0:2:0:0:
256,172,40038,1,8,0:3:0:0:
355,241,40280,2,0,P|242:294|157:241,1,234.999990463257,2|0,0:2|0:0,0:0:0:0:
120,128,41006,1,4,0:3:0:0:
256,295,41490,5,2,0:2:0:0:
312,192,41732,1,2,0:2:0:0:
312,192,42215,2,0,P|264:110|200:192,1,234.999990463257,2|2,0:2|0:2,0:0:0:0:
256,295,42941,1,8,0:3:0:0:
360,276,43183,1,8,0:3:0:0:
368,168,43425,6,0,P|353:111|312:71,1,117.499995231629,2|0,0:2|0:2,0:2:0:0:
200,72,43909,2,0,P|158:112|144:168,1,117.499995231629,2|0,0:2|0:2,0:2:0:0:
256,168,44393,1,2,0:2:0:0:
72,96,44877,1,2,0:2:0:0:
256,300,45361,5,4,0:3:0:0:
256,308,45603,1,8,0:3:0:0:
214,184,45844,1,8,0:3:0:0:
321,261,46086,1,8,0:3:0:0:
191,261,46328,1,8,0:3:0:0:
298,184,46570,1,8,0:3:0:0:
256,308,46812,1,8,1:3:0:0:
120,72,47296,5,4,0:2:0:0:
256,308,47780,1,4,0:3:0:0:
392,76,48264,1,4,0:3:0:0:
256,76,48506,1,0,0:2:0:0:
324,192,48748,1,4,0:3:0:0:
188,192,48990,1,0,0:0:0:0:
296,283,49232,6,0,P|373:273|401:247,1,117.499995231629,4|8,0:3|0:3,0:0:0:0:
256,76,49957,1,8,0:3:0:0:
120,307,50441,1,4,0:3:0:0:
128,307,50683,1,8,0:3:0:0:
392,308,51167,5,2,0:3:0:0:
256,76,51651,1,4,0:3:0:0:
120,308,52135,1,4,0:3:0:0:
256,308,52377,1,0,0:2:0:0:
188,192,52619,1,4,0:3:0:0:
324,192,52861,1,0,0:0:0:0:
216,101,53103,6,0,P|139:111|111:137,1,117.499995231629,4|8,0:3|0:3,0:0:0:0:
256,308,53828,1,0,0:0:0:0:
392,76,54312,1,4,0:3:0:0:
384,76,54554,1,8,0:3:0:0:
88,76,55038,5,2,0:3:0:0:
424,76,55522,1,4,0:3:0:0:
120,76,56006,1,4,0:3:0:0:
256,76,56248,1,0,0:2:0:0:
188,192,56490,1,4,0:3:0:0:
324,192,56732,1,0,0:0:0:0:
216,283,56974,6,0,P|139:273|111:247,1,117.499995231629,4|8,0:3|0:3,0:0:0:0:
256,76,57699,1,0,0:0:0:0:
376,86,57941,2,0,P|353:149|308:186,1,117.499995231629,4|0,0:3|0:0,0:0:0:0:
195,181,58425,2,0,P|153:141|136:86,1,117.499995231629,4|0,0:3|0:0,0:0:0:0:
256,20,58909,5,4,0:3:0:0:
256,192,59030,12,0,60844,0:2:0:0:
416,52,61328,5,4,0:3:0:0:
192,160,61812,1,4,0:3:0:0:
256,256,62054,2,0,L|256:317,2,58.7499976158143,0|0|2,0:2|0:0|0:2,0:0:0:0:
320,160,62538,1,0,0:0:0:0:
332,140,62659,1,0,0:0:0:0:
344,120,62780,5,4,0:0:0:0:
381,321,70522,6,0,P|318:339|269:328,1,117.499995231629,4|8,0:3|0:3,0:0:0:0:
319,226,71006,1,0,0:3:0:0:
256,133,71248,1,4,0:3:0:0:
193,226,71490,1,0,0:3:0:0:
172,114,71732,2,0,P|263:46|340:114,1,234.999990463257,4|0,0:3|0:0,0:0:0:0:
256,251,72457,6,0,L|256:133,1,117.499995231629,8|8,0:3|0:3,0:0:0:0:
356,192,72941,1,0,0:0:0:0:
313,298,73183,1,8,0:3:0:0:
199,298,73425,2,0,P|170:254|156:192,1,117.499995231629,8|8,0:3|0:3,0:0:0:0:
199,86,73909,1,8,0:3:0:0:
424,210,74393,5,2,0:3:0:0:
424,288,74635,1,2,0:2:0:0:
356,170,74877,1,2,0:2:0:0:
492,170,75119,1,2,0:2:0:0:
424,288,75361,2,0,P|372:303|312:288,2,117.499995231629,2|2|2,0:3|0:2|0:2,0:0:0:0:
480,192,76086,1,2,0:3:0:0:
368,192,76328,5,2,0:2:0:0:
144,192,76812,1,4,0:3:0:0:
105,71,77054,1,0,0:0:0:0:
66,192,77296,1,4,0:3:0:0:
168,117,77538,1,0,0:0:0:0:
42,117,77780,1,8,0:3:0:0:
256,136,78264,5,4,0:3:0:0:
200,232,78506,1,2,0:2:0:0:
312,232,78748,2,0,P|344:207|368:136,2,117.499995231629,2|2|2,0:2|0:2|0:2,0:0:0:0:
200,232,79474,1,2,0:2:0:0:
256,136,79715,2,0,P|302:121|368:136,1,117.499995231629,2|2,0:2|0:2,0:0:0:0:
424,232,80199,5,2,0:3:0:0:
312,232,80441,1,2,0:2:0:0:
368,136,80683,2,0,P|426:120|480:136,2,117.499995231629,2|2|2,0:2|0:2|0:2,0:0:0:0:
312,232,81409,1,2,0:2:0:0:
424,232,81651,2,0,P|462:199|480:136,1,117.499995231629,2|2,0:2|0:2,0:0:0:0:
416,40,82135,5,2,0:3:0:0:
256,192,82256,12,0,85038,0:2:0:0:
424,64,86006,5,4,0:2:0:0:
256,352,86490,1,4,0:3:0:0:
88,64,86974,1,4,0:3:0:0:
160,192,87215,1,0,0:2:0:0:
232,64,87457,1,4,0:3:0:0:
105,139,87699,1,0,0:0:0:0:
200,260,87941,6,0,P|238:274|312:260,1,117.499995231629,4|8,0:3|0:3,0:0:0:0:
256,52,88667,1,8,0:3:0:0:
448,160,89151,1,4,0:3:0:0:
440,160,89393,1,8,0:3:0:0:
64,160,89877,5,0,0:0:0:0:
448,160,90361,1,4,0:3:0:0:
176,160,90844,1,4,0:3:0:0:
336,160,91086,1,0,0:2:0:0:
256,296,91328,1,4,0:3:0:0:
256,136,91570,1,0,0:0:0:0:
336,272,91812,6,0,P|388:224|408:172,1,117.499995231629,4|8,0:3|0:3,0:0:0:0:
107,181,92538,1,0,0:0:0:0:
256,8,93022,1,4,0:3:0:0:
256,16,93264,1,8,0:3:0:0:
408,280,93748,5,2,0:3:0:0:
103,280,94232,1,4,0:3:0:0:
331,218,94715,1,4,0:3:0:0:
181,218,94957,1,4,0:3:0:0:
256,87,95199,1,0,0:2:0:0:
331,218,95441,1,0,0:0:0:0:
194,139,95683,6,0,P|136:152|103:202,1,117.499995231629,4|8,0:3|0:3,0:0:0:0:
312,296,96409,1,0,0:0:0:0:
312,296,97135,1,4,0:3:0:0:
200,296,97377,1,0,0:2:0:0:
256,192,97619,5,4,0:3:0:0:
256,318,97861,1,0,0:0:0:0:
200,218,98103,1,4,0:3:0:0:
312,218,98344,1,8,0:3:0:0:
312,218,99070,2,0,P|283:230|200:218,1,117.499995231629,4|0,0:3|0:0,0:0:0:0:
144,120,99554,5,8,0:3:0:0:
256,120,99796,1,4,0:3:0:0:
312,218,100038,1,4,0:3:0:0:
256,316,100280,2,0,P|129:306|88:216,1,234.999990463257,4|0,0:3|0:0,0:0:0:0:
200,218,101006,1,4,0:3:0:0:
256,316,101248,1,0,0:0:0:0:
368,316,101490,6,0,P|409:275|424:215,1,117.499995231629,4|2,0:3|0:2,0:0:0:0:
312,218,101974,1,2,0:2:0:0:
256,316,102215,1,4,0:3:0:0:
144,316,102457,2,0,P|103:275|88:215,1,117.499995231629,4|2,0:3|0:2,0:0:0:0:
200,218,102941,1,4,0:3:0:0:
256,316,103183,1,2,0:2:0:0:
312,218,103425,5,8,0:3:0:0:
105,105,104393,1,4,0:3:0:0:
406,105,104877,1,4,0:3:0:0:
256,366,105361,5,4,0:3:0:0:
256,192,105482,12,0,107296,0:2:0:0:
96,52,107780,5,4,0:3:0:0:
320,160,108264,1,2,0:2:0:0:
256,256,108506,2,0,L|256:317,2,58.7499976158143,0|0|2,0:2|0:0|0:2,0:0:0:0:
192,160,108990,1,0,0:0:0:0:
180,140,109111,1,0,0:0:0:0:
168,120,109232,5,4,0:0:0:0:
416,332,111651,5,4,0:3:0:0:
192,224,112135,1,2,0:2:0:0:
256,128,112377,2,0,L|256:67,2,58.7499976158143,0|0|2,0:0|0:0|0:2,0:0:0:0:
320,224,112861,1,0,0:0:0:0:
332,244,112982,1,0,0:0:0:0:
344,264,113103,5,4,0:0:0:0:
256,96,116974,5,8,0:3:0:0:
200,192,117215,2,0,L|144:224,2,58.7499976158143
312,192,117699,2,0,L|367:224,2,58.7499976158143
256,96,118183,1,0,0:2:0:0:
256,104,118425,1,0,0:2:0:0:
256,328,118909,5,4,0:3:0:0:
