osu file format v14

[General]
AudioFilename: hasah.mp3
AudioLeadIn: 0
PreviewTime: 46449
Countdown: 0
SampleSet: Normal
StackLeniency: 0.5
Mode: 0
LetterboxInBreaks: 0
WidescreenStoryboard: 1

[Editor]
DistanceSpacing: 1.24
BeatDivisor: 2
GridSize: 4
TimelineZoom: 0.8999999

[Metadata]
Title:Hearts as Strong as Horses
TitleUnicode:Hearts as Strong as Horses
Artist:Daniel Ingram
ArtistUnicode:Daniel Ingram
Creator:diraimur
Version:Easy
Source:My Little Pony: Friendship is Magic
Tags:Arphimigon Firmatorenio mlp cmc scootaloo apple bloom sweetie belle Flight to the Finish Songs of Ponyville Yuii- Voli Gero
BeatmapID:848098
BeatmapSetID:319569

[Difficulty]
HPDrainRate:2
CircleSize:3
OverallDifficulty:2
ApproachRate:2.5
SliderMultiplier:0.95999990463257
SliderTickRate:1

[Events]
//Background and Video events
0,0,"icanteven.png",0,0
Video,240,"Video.avi"
//Break Periods
2,24270,30312
2,62980,69022
2,109432,115474
//Storyboard Layer 0 (Background)
//Storyboard Layer 1 (Fail)
//Storyboard Layer 2 (Pass)
//Storyboard Layer 3 (Foreground)
//Storyboard Sound Samples

[TimingPoints]
845,483.870967741935,4,1,1,60,1,0
47296,-100,4,1,1,60,0,1
62780,-100,4,1,1,60,0,0
86006,-100,4,1,1,60,0,1
109232,-100,4,1,1,60,0,0

[Colours]
Combo1 : 255,255,128
Combo2 : 222,89,255
Combo3 : 255,79,79
Combo4 : 255,128,64
Combo5 : 255,183,255

[HitObjects]
183,286,8586,6,0,P|142:226|137:154,1,143.999985694886,2|2,0:2|0:2,0:2:0:0:
373,155,10522,2,0,P|368:226|328:286,1,143.999985694886,2|2,0:2|0:2,0:2:0:0:
107,209,12457,5,2,0:2:0:0:
139,72,13183,1,2,0:2:0:0:
372,72,14393,1,2,0:2:0:0:
404,209,15119,2,0,B|383:255|344:274|344:274|318:267|284:270,1,143.999985694886,2|0,0:2|0:2,0:2:0:0:
206,309,16328,5,2,0:2:0:0:
139,184,17054,1,2,0:2:0:0:
372,184,18264,1,2,0:2:0:0:
305,309,18990,1,2,0:2:0:0:
209,96,20199,6,0,B|161:104|121:133|121:133|53:112,2,143.999985694886,2|2|2,0:2|0:2|0:2,0:2:0:0:
302,96,22135,2,0,B|350:104|390:133|390:133|458:112,2,143.999985694886,2|2|2,0:2|0:2|0:2,0:2:0:0:
256,177,24070,5,4,0:1:0:0:
198,53,31812,6,0,B|184:102|142:129|142:129|143:154|155:181,1,143.999985694886,2|2,0:2|0:2,0:2:0:0:
314,347,33748,2,0,B|328:298|370:271|370:271|369:246|357:219,1,143.999985694886,2|2,0:2|0:2,0:2:0:0:
256,16,35683,5,2,0:2:0:0:
392,56,36409,1,2,0:2:0:0:
322,281,37619,2,0,P|268:305|190:281,1,143.999985694886,2|2,0:2|0:2,0:2:0:0:
139,50,39554,6,0,P|118:117|137:186,1,143.999985694886,2|2,0:2|0:2,0:2:0:0:
374,186,41490,2,0,P|393:117|372:50,1,143.999985694886,2|2,0:2|0:2,0:2:0:0:
322,279,43425,6,0,P|240:302|189:279,2,143.999985694886,2|2|2,0:2|0:2|0:2,0:2:0:0:
351,189,45361,2,0,P|270:100|161:189,1,287.999971389771,2|2,0:2|0:2,0:2:0:0:
256,195,47296,5,4,0:2:0:0:
209,276,47780,1,4,0:3:0:0:
303,276,48264,1,4,0:3:0:0:
325,89,49232,2,0,P|278:73|187:89,1,143.999985694886,4|4,0:3|0:3,0:3:0:0:
368,235,51167,5,12,0:3:0:0:
442,179,51651,1,4,0:3:0:0:
420,88,52135,1,4,0:3:0:0:
234,99,53103,2,0,P|307:149|379:147,1,143.999985694886,4|4,0:3|0:3,0:3:0:0:
144,235,55038,5,12,0:3:0:0:
70,179,55522,1,4,0:3:0:0:
92,88,56006,1,4,0:3:0:0:
278,99,56974,2,0,P|205:149|133:147,1,143.999985694886,4|4,0:3|0:3,0:3:0:0:
382,188,58909,6,0,P|377:287|355:330,2,143.999985694886,12|4|4,0:3|0:3|0:3,0:3:0:0:
350,101,60844,1,4,0:3:0:0:
162,101,61812,1,4,0:3:0:0:
256,264,62780,5,4,0:1:0:0:
146,98,70522,6,0,B|145:141|115:187|115:187|123:211|140:227,1,143.999985694886,2|2,0:2|0:2,0:2:0:0:
372,227,72457,2,0,B|389:211|397:187|397:187|367:141|366:98,1,143.999985694886,2|2,0:2|0:2,0:2:0:0:
144,176,74393,5,2,0:2:0:0:
256,90,75119,1,2,0:2:0:0:
195,315,76328,2,0,B|231:328|256:352|256:352|281:328|317:315,1,143.999985694886,2|2,0:2|0:2,0:2:0:0:
400,94,78264,6,0,P|365:156|372:226,1,143.999985694886,2|2,0:2|0:2,0:2:0:0:
138,226,80199,2,0,P|145:156|110:94,1,143.999985694886,2|2,0:2|0:2,0:2:0:0:
346,98,82135,6,0,P|379:187|350:277,1,191.999980926514,2|2,0:2|0:2,0:2:0:0:
162,277,84070,2,0,P|133:187|165:99,1,191.999980926514,2|2,0:2|0:2,0:2:0:0:
354,119,86006,5,4,0:2:0:0:
373,211,86490,1,4,0:3:0:0:
324,291,86974,1,4,0:3:0:0:
271,110,87941,2,0,P|335:38|390:42,1,143.999985694886,4|4,0:3|0:3,0:3:0:0:
157,119,89877,5,4,0:2:0:0:
138,211,90361,1,4,0:3:0:0:
187,291,90845,1,4,0:3:0:0:
240,110,91812,2,0,P|176:38|121:42,1,143.999985694886,4|4,0:3|0:3,0:3:0:0:
168,271,93748,5,12,0:3:0:0:
218,351,94232,1,4,0:3:0:0:
312,353,94715,1,4,0:3:0:0:
311,164,95683,2,0,P|245:127|198:164,1,143.999985694886
420,232,97619,6,0,B|382:265|332:257|332:257|336:209|311:164,1,191.999980926514,12|4,0:3|0:3,0:3:0:0:
255,90,99070,1,4,0:3:0:0:
200,164,99554,2,0,B|175:209|179:257|179:257|129:265|91:232,1,191.999980926514,12|4,0:3|0:3,0:3:0:0:
84,139,101006,1,4,0:3:0:0:
157,82,101490,6,0,P|209:71|258:91,1,95.999990463257,12|4,0:3|0:3,0:3:0:0:
292,166,102457,2,0,P|240:177|191:157,1,95.999990463257,4|4,0:3|0:3,0:3:0:0:
157,82,103425,1,12,0:3:0:0:
341,87,104393,2,0,P|376:130|382:185,1,95.999990463257,4|4,0:3|0:3,0:0:0:0:
256,192,105361,12,4,109232,0:3:0:0:
256,96,116974,6,0,B|250:148|262:140|256:192,1,95.999990463257
256,286,117941,2,0,L|256:334,2,47.9999952316285
256,192,118909,5,4,0:2:0:0:
