osu file format v14

[General]
AudioFilename: audio.mp3
AudioLeadIn: 0
PreviewTime: 46449
Countdown: 0
SampleSet: Normal
StackLeniency: 0.4
Mode: 1
LetterboxInBreaks: 0
WidescreenStoryboard: 0

[Editor]
Bookmarks: 8586,24070,31812,47296,62780,70522,86006,96651,105361,109232,118909
DistanceSpacing: 0.1
BeatDivisor: 4
GridSize: 32
TimelineZoom: 1

[Metadata]
Title:Hearts as Strong as Horses
TitleUnicode:Hearts as Strong as Horses
Artist:Daniel Ingram
ArtistUnicode:Daniel Ingram
Creator:Firmatorenio
Version:Poni
Source:My Little Pony: Friendship is Magic
Tags:mlp fim pony scootaloo cmc apple_bloom sweetie belle hasah
BeatmapID:912010
BeatmapSetID:421713

[Difficulty]
HPDrainRate:5
CircleSize:2
OverallDifficulty:5
ApproachRate:5
SliderMultiplier:1.4
SliderTickRate:1

[Events]
//Background and Video events
0,0,"adsf.png",0,0
//Break Periods
//Storyboard Layer 0 (Background)
//Storyboard Layer 1 (Fail)
//Storyboard Layer 2 (Pass)
//Storyboard Layer 3 (Foreground)
//Storyboard Sound Samples

[TimingPoints]
845,483.870967741935,4,1,0,80,1,0
845,-86.2068965517241,4,1,0,80,0,0
47296,-86.2068965517241,4,1,0,80,0,1
62780,-86.2068965517241,4,1,0,80,0,0
86006,-86.2068965517241,4,1,0,80,0,1
96651,-86.2068965517241,4,1,0,80,0,0

[HitObjects]
256,192,845,5,4,0:0:0:0:
256,192,1086,1,2,0:0:0:0:
256,192,1328,1,2,0:0:0:0:
256,192,1570,1,2,0:0:0:0:
256,192,1812,1,2,0:0:0:0:
256,192,2054,1,0,0:0:0:0:
256,192,2296,1,2,0:0:0:0:
256,192,2538,1,0,0:0:0:0:
256,192,2780,1,0,0:0:0:0:
256,192,3022,1,0,0:0:0:0:
256,192,3143,1,0,0:0:0:0:
256,192,3264,1,0,0:0:0:0:
256,192,3506,1,2,0:0:0:0:
256,192,3990,1,2,0:0:0:0:
256,192,4232,1,0,0:0:0:0:
256,192,4353,1,0,0:0:0:0:
256,192,4474,1,0,0:0:0:0:
256,192,4715,1,4,0:0:0:0:
256,192,4957,1,2,0:0:0:0:
256,192,5199,1,2,0:0:0:0:
256,192,5441,1,2,0:0:0:0:
256,192,5683,1,2,0:0:0:0:
256,192,5925,1,0,0:0:0:0:
256,192,6167,1,0,0:0:0:0:
256,192,6409,1,2,0:0:0:0:
256,192,6651,1,2,0:0:0:0:
256,192,6893,1,0,0:0:0:0:
256,192,7014,1,0,0:0:0:0:
256,192,7135,1,0,0:0:0:0:
256,192,7377,1,0,0:0:0:0:
256,192,7619,1,2,0:0:0:0:
256,192,7861,1,0,0:0:0:0:
256,192,8103,1,2,0:0:0:0:
256,192,8224,1,0,0:0:0:0:
256,192,8344,1,2,0:0:0:0:
256,192,8586,1,4,0:0:0:0:
256,192,8828,1,2,0:0:0:0:
256,192,8949,1,2,0:0:0:0:
256,192,9070,1,2,0:0:0:0:
256,192,9312,1,0,0:0:0:0:
256,192,9554,1,2,0:0:0:0:
256,192,9796,1,2,0:0:0:0:
256,192,10038,1,0,0:0:0:0:
256,192,10522,1,2,0:0:0:0:
256,192,10764,1,0,0:0:0:0:
256,192,11006,1,0,0:0:0:0:
256,192,11248,1,2,0:0:0:0:
256,192,11732,1,0,0:0:0:0:
256,192,11974,1,2,0:0:0:0:
256,192,12215,1,0,0:0:0:0:
256,192,12699,1,0,0:0:0:0:
256,192,12941,1,2,0:0:0:0:
256,192,13183,1,0,0:0:0:0:
256,192,13667,1,2,0:0:0:0:
256,192,14151,1,2,0:0:0:0:
256,192,14393,1,0,0:0:0:0:
256,192,14635,1,2,0:0:0:0:
256,192,14877,1,0,0:0:0:0:
256,192,15119,1,2,0:0:0:0:
256,192,15361,1,2,0:0:0:0:
256,192,15603,1,2,0:0:0:0:
256,192,15844,1,2,0:0:0:0:
256,192,16086,1,2,0:0:0:0:
256,192,16328,1,0,0:0:0:0:
256,192,16570,1,2,0:0:0:0:
256,192,16691,1,0,0:0:0:0:
256,192,16812,1,2,0:0:0:0:
256,192,17054,1,0,0:0:0:0:
256,192,17296,1,2,0:0:0:0:
256,192,17538,1,2,0:0:0:0:
256,192,17780,1,0,0:0:0:0:
256,192,18264,1,2,0:0:0:0:
256,192,18506,1,0,0:0:0:0:
256,192,18748,1,0,0:0:0:0:
256,192,18990,1,2,0:0:0:0:
256,192,19474,1,0,0:0:0:0:
256,192,19715,1,2,0:0:0:0:
256,192,19957,1,2,0:0:0:0:
256,192,20199,1,2,0:0:0:0:
256,192,20683,1,0,0:0:0:0:
256,192,20925,1,2,0:0:0:0:
256,192,21167,1,2,0:0:0:0:
256,192,21409,1,0,0:0:0:0:
256,192,21651,1,0,0:0:0:0:
256,192,21893,1,0,0:0:0:0:
256,192,22135,1,0,0:0:0:0:
256,192,22377,1,2,0:0:0:0:
256,192,22498,1,0,0:0:0:0:
256,192,22619,1,2,0:0:0:0:
256,192,22861,1,0,0:0:0:0:
256,192,23344,1,0,0:0:0:0:
256,192,23465,1,0,0:0:0:0:
256,192,23586,1,0,0:0:0:0:
256,192,23828,1,0,0:0:0:0:
256,192,24070,1,6,0:0:0:0:
256,192,24312,1,0,0:0:0:0:
256,192,24554,1,2,0:0:0:0:
256,192,24796,1,2,0:0:0:0:
256,192,25038,1,2,0:0:0:0:
256,192,25280,1,0,0:0:0:0:
256,192,25522,1,6,0:0:0:0:
256,192,26006,1,0,0:0:0:0:
256,192,26248,1,2,0:0:0:0:
256,192,26369,1,0,0:0:0:0:
256,192,26490,1,2,0:0:0:0:
256,192,26732,1,0,0:0:0:0:
256,192,26974,1,0,0:0:0:0:
256,192,27215,1,6,0:0:0:0:
256,192,27457,1,2,0:0:0:0:
256,192,27699,1,0,0:0:0:0:
256,192,27941,1,2,0:0:0:0:
256,192,28183,1,0,0:0:0:0:
256,192,28304,1,2,0:0:0:0:
256,192,28425,1,0,0:0:0:0:
256,192,28667,1,2,0:0:0:0:
256,192,28909,1,6,0:0:0:0:
256,192,29151,1,6,0:0:0:0:
256,192,29393,1,0,0:0:0:0:
256,192,29877,1,2,0:0:0:0:
256,192,30119,1,0,0:0:0:0:
256,192,30240,1,2,0:0:0:0:
256,192,30361,1,0,0:0:0:0:
256,192,30603,1,6,0:0:0:0:
256,192,30844,1,0,0:0:0:0:
256,192,31086,1,0,0:0:0:0:
256,192,31328,1,6,0:0:0:0:
256,192,31812,1,4,0:0:0:0:
256,192,32054,1,2,0:0:0:0:
256,192,32296,1,2,0:0:0:0:
256,192,32780,1,0,0:0:0:0:
256,192,33022,1,2,0:0:0:0:
256,192,33264,1,2,0:0:0:0:
256,192,33506,1,0,0:0:0:0:
256,192,33748,1,2,0:0:0:0:
256,192,33990,1,0,0:0:0:0:
256,192,34232,1,2,0:0:0:0:
256,192,34474,1,2,0:0:0:0:
256,192,34715,1,0,0:0:0:0:
256,192,35199,1,2,0:0:0:0:
256,192,35441,1,0,0:0:0:0:
256,192,35562,1,2,0:0:0:0:
256,192,35683,1,0,0:0:0:0:
256,192,35925,1,2,0:0:0:0:
256,192,36167,1,2,0:0:0:0:
256,192,36409,1,0,0:0:0:0:
256,192,36651,1,2,0:0:0:0:
256,192,36893,1,2,0:0:0:0:
256,192,37135,1,0,0:0:0:0:
256,192,37619,1,2,0:0:0:0:
256,192,37861,1,2,0:0:0:0:
256,192,38103,1,2,0:0:0:0:
256,192,38344,1,0,0:0:0:0:
256,192,38828,1,2,0:0:0:0:
256,192,38949,1,0,0:0:0:0:
256,192,39070,1,2,0:0:0:0:
256,192,39312,1,0,0:0:0:0:
256,192,39554,1,2,0:0:0:0:
256,192,39796,1,0,0:0:0:0:
256,192,40038,1,2,0:0:0:0:
256,192,40280,1,0,0:0:0:0:
256,192,40764,1,2,0:0:0:0:
256,192,41006,1,0,0:0:0:0:
256,192,41490,1,4,0:0:0:0:
256,192,41732,1,0,0:0:0:0:
256,192,42215,1,2,0:0:0:0:
256,192,42699,1,2,0:0:0:0:
256,192,42941,1,0,0:0:0:0:
256,192,43183,1,0,0:0:0:0:
256,192,43425,1,2,0:0:0:0:
256,192,43667,1,0,0:0:0:0:
256,192,43909,1,2,0:0:0:0:
256,192,44151,1,0,0:0:0:0:
256,192,44393,1,2,0:0:0:0:
256,192,44877,1,2,0:0:0:0:
256,192,45119,1,0,0:0:0:0:
256,192,45240,1,2,0:0:0:0:
256,192,45361,1,0,0:0:0:0:
256,192,45603,1,2,0:0:0:0:
256,192,45844,1,0,0:0:0:0:
256,192,46086,1,2,0:0:0:0:
256,192,46328,1,0,0:0:0:0:
256,192,46570,1,2,0:0:0:0:
256,192,46812,1,0,0:0:0:0:
256,192,47296,1,6,0:0:0:0:
256,192,47780,1,4,0:0:0:0:
256,192,48264,1,6,0:0:0:0:
256,192,48506,1,2,0:0:0:0:
256,192,48748,1,0,0:0:0:0:
256,192,48990,1,2,0:0:0:0:
256,192,49232,1,0,0:0:0:0:
256,192,49474,1,2,0:0:0:0:
256,192,49594,1,0,0:0:0:0:
256,192,49715,1,2,0:0:0:0:
256,192,49957,1,0,0:0:0:0:
256,192,50441,1,2,0:0:0:0:
256,192,50683,1,2,0:0:0:0:
256,192,51167,1,0,0:0:0:0:
256,192,51651,1,6,0:0:0:0:
256,192,52135,1,6,0:0:0:0:
256,192,52377,1,2,0:0:0:0:
256,192,52619,1,0,0:0:0:0:
256,192,52861,1,2,0:0:0:0:
256,192,53103,1,0,0:0:0:0:
256,192,53344,1,2,0:0:0:0:
256,192,53465,1,0,0:0:0:0:
256,192,53586,1,2,0:0:0:0:
256,192,53828,1,0,0:0:0:0:
256,192,54312,1,2,0:0:0:0:
256,192,54554,1,0,0:0:0:0:
256,192,55038,1,2,0:0:0:0:
256,192,55522,1,6,0:0:0:0:
256,192,56006,1,6,0:0:0:0:
256,192,56248,1,0,0:0:0:0:
256,192,56369,1,2,0:0:0:0:
256,192,56490,1,0,0:0:0:0:
256,192,56732,1,2,0:0:0:0:
256,192,56974,1,0,0:0:0:0:
256,192,57215,1,2,0:0:0:0:
256,192,57336,1,0,0:0:0:0:
256,192,57457,1,2,0:0:0:0:
256,192,57699,1,0,0:0:0:0:
256,192,57941,1,2,0:0:0:0:
256,192,58425,1,2,0:0:0:0:
256,192,58909,2,0,P|96:224|160:32,1,420
256,192,60844,1,0,0:0:0:0:
256,192,61328,1,2,0:0:0:0:
256,192,61570,1,0,0:0:0:0:
256,192,61691,1,2,0:0:0:0:
256,192,61812,1,0,0:0:0:0:
256,192,62054,1,2,0:0:0:0:
256,192,62296,1,0,0:0:0:0:
256,192,62538,1,2,0:0:0:0:
256,192,62780,1,6,0:0:0:0:
256,192,63022,1,2,0:0:0:0:
256,192,63143,1,2,0:0:0:0:
256,192,63264,1,2,0:0:0:0:
256,192,63506,1,2,0:0:0:0:
256,192,63748,1,2,0:0:0:0:
256,192,63990,1,0,0:0:0:0:
256,192,64232,1,6,0:0:0:0:
256,192,64715,1,0,0:0:0:0:
256,192,64957,1,0,0:0:0:0:
256,192,65078,1,2,0:0:0:0:
256,192,65199,1,0,0:0:0:0:
256,192,65441,1,6,0:0:0:0:
256,192,65925,1,6,0:0:0:0:
256,192,66167,1,0,0:0:0:0:
256,192,66288,1,2,0:0:0:0:
256,192,66409,1,0,0:0:0:0:
256,192,66651,1,6,0:0:0:0:
256,192,66893,1,2,0:0:0:0:
256,192,67014,1,2,0:0:0:0:
256,192,67135,1,2,0:0:0:0:
256,192,67377,1,2,0:0:0:0:
256,192,67619,1,2,0:0:0:0:
256,192,67861,1,6,0:0:0:0:
256,192,68103,1,6,0:0:0:0:
256,192,68344,1,0,0:0:0:0:
256,192,68586,1,0,0:0:0:0:
256,192,68828,1,2,0:0:0:0:
256,192,68949,1,0,0:0:0:0:
256,192,69070,1,2,0:0:0:0:
256,192,69312,1,4,0:0:0:0:
256,192,69554,1,2,0:0:0:0:
256,192,69796,1,0,0:0:0:0:
256,192,70038,1,2,0:0:0:0:
256,192,70280,1,0,0:0:0:0:
256,192,70522,1,4,0:0:0:0:
256,192,70764,1,2,0:0:0:0:
256,192,71006,1,2,0:0:0:0:
256,192,71248,1,0,0:0:0:0:
256,192,71490,1,0,0:0:0:0:
256,192,71732,1,2,0:0:0:0:
256,192,71974,1,2,0:0:0:0:
256,192,72215,1,0,0:0:0:0:
256,192,72457,1,2,0:0:0:0:
256,192,72699,1,0,0:0:0:0:
256,192,72820,1,2,0:0:0:0:
256,192,72941,1,0,0:0:0:0:
256,192,73183,1,2,0:0:0:0:
256,192,73425,1,0,0:0:0:0:
256,192,73667,1,0,0:0:0:0:
256,192,73909,1,2,0:0:0:0:
256,192,74151,1,0,0:0:0:0:
256,192,74272,1,2,0:0:0:0:
256,192,74393,1,0,0:0:0:0:
256,192,74635,1,2,0:0:0:0:
256,192,74877,1,0,0:0:0:0:
256,192,75119,1,2,0:0:0:0:
256,192,75361,1,0,0:0:0:0:
256,192,75603,1,0,0:0:0:0:
256,192,75844,1,2,0:0:0:0:
256,192,76086,1,2,0:0:0:0:
256,192,76328,1,0,0:0:0:0:
256,192,76812,1,2,0:0:0:0:
256,192,77054,1,2,0:0:0:0:
256,192,77296,1,0,0:0:0:0:
256,192,77538,1,2,0:0:0:0:
256,192,77780,1,2,0:0:0:0:
256,192,78022,1,0,0:0:0:0:
256,192,78143,1,2,0:0:0:0:
256,192,78264,1,0,0:0:0:0:
256,192,78506,1,2,0:0:0:0:
256,192,78748,1,0,0:0:0:0:
256,192,78990,1,2,0:0:0:0:
256,192,79232,1,2,0:0:0:0:
256,192,79474,1,0,0:0:0:0:
256,192,79715,1,2,0:0:0:0:
256,192,79957,1,0,0:0:0:0:
256,192,80199,1,2,0:0:0:0:
256,192,80441,1,2,0:0:0:0:
256,192,80562,1,2,0:0:0:0:
256,192,80683,1,2,0:0:0:0:
256,192,80925,1,2,0:0:0:0:
256,192,81167,1,2,0:0:0:0:
256,192,81409,1,0,0:0:0:0:
256,192,81651,1,2,0:0:0:0:
256,192,81893,1,0,0:0:0:0:
256,192,82135,2,0,P|352:224|384:192,1,140
256,192,83103,2,0,P|192:224|128:192,1,140
256,192,84070,2,0,P|320:160|224:32,1,280
256,192,85280,1,2,0:0:0:0:
256,192,85522,1,0,0:0:0:0:
256,192,86006,1,6,0:0:0:0:
256,192,86490,1,4,0:0:0:0:
256,192,86974,1,6,0:0:0:0:
256,192,87215,1,2,0:0:0:0:
256,192,87457,1,0,0:0:0:0:
256,192,87699,1,2,0:0:0:0:
256,192,87941,1,0,0:0:0:0:
256,192,88183,1,2,0:0:0:0:
256,192,88304,1,0,0:0:0:0:
256,192,88425,1,2,0:0:0:0:
256,192,88667,1,0,0:0:0:0:
256,192,89151,1,2,0:0:0:0:
256,192,89393,1,0,0:0:0:0:
256,192,89514,1,2,0:0:0:0:
256,192,89635,1,0,0:0:0:0:
256,192,89877,1,2,0:0:0:0:
256,192,90361,1,6,0:0:0:0:
256,192,90844,1,6,0:0:0:0:
256,192,91086,1,2,0:0:0:0:
256,192,91328,1,0,0:0:0:0:
256,192,91570,1,2,0:0:0:0:
256,192,91812,1,0,0:0:0:0:
256,192,91933,1,2,0:0:0:0:
256,192,92054,1,0,0:0:0:0:
256,192,92175,1,2,0:0:0:0:
256,192,92296,1,0,0:0:0:0:
256,192,92538,1,2,0:0:0:0:
256,192,93022,1,2,0:0:0:0:
256,192,93264,1,2,0:0:0:0:
256,192,93506,1,2,0:0:0:0:
256,192,93748,1,0,0:0:0:0:
256,192,94232,1,6,0:0:0:0:
256,192,94715,1,4,0:0:0:0:
256,192,94957,1,2,0:0:0:0:
256,192,95199,1,0,0:0:0:0:
256,192,95320,1,2,0:0:0:0:
256,192,95441,1,0,0:0:0:0:
256,192,95562,1,2,0:0:0:0:
256,192,95683,1,0,0:0:0:0:
256,192,95925,1,2,0:0:0:0:
256,192,96167,1,0,0:0:0:0:
256,192,96409,1,2,0:0:0:0:
256,192,97135,1,2,0:0:0:0:
256,192,97377,1,2,0:0:0:0:
256,192,97619,1,2,0:0:0:0:
256,192,97861,1,0,0:0:0:0:
256,192,98103,1,0,0:0:0:0:
256,192,98344,1,2,0:0:0:0:
256,192,99070,1,2,0:0:0:0:
256,192,99312,1,0,0:0:0:0:
256,192,99554,1,2,0:0:0:0:
256,192,99796,1,2,0:0:0:0:
256,192,100038,1,0,0:0:0:0:
256,192,100280,1,2,0:0:0:0:
256,192,100764,1,0,0:0:0:0:
256,192,101006,1,2,0:0:0:0:
256,192,101248,1,0,0:0:0:0:
256,192,101490,1,2,0:0:0:0:
256,192,101732,1,0,0:0:0:0:
256,192,101974,1,2,0:0:0:0:
256,192,102215,1,2,0:0:0:0:
256,192,102457,1,2,0:0:0:0:
256,192,102699,1,2,0:0:0:0:
256,192,102941,1,2,0:0:0:0:
256,192,103183,1,0,0:0:0:0:
256,192,103425,1,0,0:0:0:0:
256,192,103909,1,2,0:0:0:0:
256,192,104393,1,0,0:0:0:0:
256,192,104877,1,2,0:0:0:0:
256,192,105361,12,2,107296,0:0:0:0:
256,192,107780,5,2,0:0:0:0:
256,192,108022,1,0,0:0:0:0:
256,192,108143,1,2,0:0:0:0:
256,192,108264,1,0,0:0:0:0:
256,192,108506,1,2,0:0:0:0:
256,192,108627,1,0,0:0:0:0:
256,192,108748,1,2,0:0:0:0:
256,192,108990,1,0,0:0:0:0:
256,192,109232,1,6,0:0:0:0:
256,192,109474,1,0,0:0:0:0:
256,192,109715,1,0,0:0:0:0:
256,192,109957,1,2,0:0:0:0:
256,192,110199,1,0,0:0:0:0:
256,192,110441,1,0,0:0:0:0:
256,192,110683,1,6,0:0:0:0:
256,192,111167,1,0,0:0:0:0:
256,192,111651,1,0,0:0:0:0:
256,192,111893,1,2,0:0:0:0:
256,192,112014,1,0,0:0:0:0:
256,192,112135,1,2,0:0:0:0:
256,192,112377,1,0,0:0:0:0:
256,192,112498,1,2,0:0:0:0:
256,192,112619,1,0,0:0:0:0:
256,192,112740,1,2,0:0:0:0:
256,192,112861,1,0,0:0:0:0:
256,192,113103,1,6,0:0:0:0:
256,192,113344,1,0,0:0:0:0:
256,192,113586,1,0,0:0:0:0:
256,192,113828,1,2,0:0:0:0:
256,192,114070,1,0,0:0:0:0:
256,192,114312,1,0,0:0:0:0:
256,192,114554,1,2,0:0:0:0:
256,192,115038,1,2,0:0:0:0:
256,192,115522,1,0,0:0:0:0:
256,192,115764,1,6,0:0:0:0:
256,192,116006,1,0,0:0:0:0:
256,192,116248,1,0,0:0:0:0:
256,192,116490,1,6,0:0:0:0:
256,192,116732,1,2,0:0:0:0:
256,192,116974,1,0,0:0:0:0:
256,192,117215,1,2,0:0:0:0:
256,192,117336,1,0,0:0:0:0:
256,192,117457,1,2,0:0:0:0:
256,192,117578,1,0,0:0:0:0:
256,192,117699,1,2,0:0:0:0:
256,192,117820,1,0,0:0:0:0:
256,192,117941,1,2,0:0:0:0:
256,192,118183,1,4,0:0:0:0:
256,192,118425,1,4,0:0:0:0:
256,192,118909,1,6,0:0:0:0:
