osu file format v14

[General]
AudioFilename: audio.mp3
AudioLeadIn: 0
PreviewTime: 46449
Countdown: 0
SampleSet: Normal
StackLeniency: 0.4
Mode: 1
LetterboxInBreaks: 0
WidescreenStoryboard: 1

[Editor]
Bookmarks: 8586,24070,31812,47296,62780,70522,86006,96651,105361,109232,118909
DistanceSpacing: 0.1
BeatDivisor: 4
GridSize: 32
TimelineZoom: 1

[Metadata]
Title:Hearts as Strong as Horses
TitleUnicode:Hearts as Strong as Horses
Artist:Daniel Ingram
ArtistUnicode:Daniel Ingram
Creator:Firmatorenio
Version:Kantan
Source:My Little Pony: Friendship is Magic
Tags:mlp fim pony scootaloo cmc apple_bloom sweetie belle hasah
BeatmapID:912012
BeatmapSetID:421713

[Difficulty]
HPDrainRate:8
CircleSize:2
OverallDifficulty:2
ApproachRate:5
SliderMultiplier:1.4
SliderTickRate:1

[Events]
//Background and Video events
0,0,"adsf.png",0,0
//Break Periods
//Storyboard Layer 0 (Background)
//Storyboard Layer 1 (Fail)
//Storyboard Layer 2 (Pass)
//Storyboard Layer 3 (Foreground)
//Storyboard Sound Samples

[TimingPoints]
845,483.870967741935,4,1,0,80,1,0
47296,-100,4,1,0,80,0,1
62780,-100,4,1,0,80,0,0
86006,-100,4,1,0,80,0,1
96651,-100,4,1,0,80,0,0

[HitObjects]
256,192,845,5,4,0:0:0:0:
256,192,1570,1,2,0:0:0:0:
256,192,2296,1,0,0:0:0:0:
256,192,3506,1,0,0:0:0:0:
256,192,3990,1,2,0:0:0:0:
256,192,4715,1,4,0:0:0:0:
256,192,5441,1,2,0:0:0:0:
256,192,6167,1,0,0:0:0:0:
256,192,7377,1,0,0:0:0:0:
256,192,7861,1,2,0:0:0:0:
256,192,8586,1,4,0:0:0:0:
256,192,9312,1,2,0:0:0:0:
256,192,10522,1,2,0:0:0:0:
256,192,11248,1,0,0:0:0:0:
256,192,12457,1,0,0:0:0:0:
256,192,13183,1,2,0:0:0:0:
256,192,14393,1,0,0:0:0:0:
256,192,15119,1,2,0:0:0:0:
256,192,15844,1,0,0:0:0:0:
256,192,16328,1,0,0:0:0:0:
256,192,17054,1,2,0:0:0:0:
256,192,18264,1,2,0:0:0:0:
256,192,18990,1,0,0:0:0:0:
256,192,20199,1,0,0:0:0:0:
256,192,20925,1,2,0:0:0:0:
256,192,21651,1,0,0:0:0:0:
256,192,22135,1,2,0:0:0:0:
256,192,22861,1,2,0:0:0:0:
256,192,23586,1,0,0:0:0:0:
256,192,24070,1,4,0:0:0:0:
256,192,24796,1,0,0:0:0:0:
256,192,25522,1,6,0:0:0:0:
256,192,26732,1,4,0:0:0:0:
256,192,27457,1,2,0:0:0:0:
256,192,27941,1,0,0:0:0:0:
256,192,28667,1,2,0:0:0:0:
256,192,29393,1,0,0:0:0:0:
256,192,30603,1,6,0:0:0:0:
256,192,31086,1,0,0:0:0:0:
256,192,31812,1,4,0:0:0:0:
256,192,32780,1,2,0:0:0:0:
256,192,33748,1,2,0:0:0:0:
256,192,34715,1,0,0:0:0:0:
256,192,35683,1,0,0:0:0:0:
256,192,36409,1,2,0:0:0:0:
256,192,37619,1,0,0:0:0:0:
256,192,38344,1,2,0:0:0:0:
256,192,39070,1,0,0:0:0:0:
256,192,39554,1,2,0:0:0:0:
256,192,40280,1,0,0:0:0:0:
256,192,41490,1,6,0:0:0:0:
256,192,42215,1,0,0:0:0:0:
256,192,43425,1,2,0:0:0:0:
256,192,44393,1,0,0:0:0:0:
256,192,44877,1,2,0:0:0:0:
256,192,45361,1,0,0:0:0:0:
256,192,46328,1,0,0:0:0:0:
256,192,47296,1,6,0:0:0:0:
256,192,47780,1,4,0:0:0:0:
256,192,48264,1,6,0:0:0:0:
256,192,49232,1,0,0:0:0:0:
256,192,49957,1,2,0:0:0:0:
256,192,51167,1,2,0:0:0:0:
256,192,51651,1,4,0:0:0:0:
256,192,52135,1,6,0:0:0:0:
256,192,53103,1,0,0:0:0:0:
256,192,53828,1,2,0:0:0:0:
256,192,55038,1,2,0:0:0:0:
256,192,55522,1,4,0:0:0:0:
256,192,56006,1,6,0:0:0:0:
256,192,56974,1,0,0:0:0:0:
256,192,57941,1,2,0:0:0:0:
256,192,58909,2,0,P|96:224|160:32,1,420
256,192,60844,1,0,0:0:0:0:
256,192,61812,1,2,0:0:0:0:
256,192,62780,1,4,0:0:0:0:
256,192,63506,1,2,0:0:0:0:
256,192,64232,1,6,0:0:0:0:
256,192,64715,1,0,0:0:0:0:
256,192,65441,1,6,0:0:0:0:
256,192,65925,1,2,0:0:0:0:
256,192,66651,1,4,0:0:0:0:
256,192,67377,1,2,0:0:0:0:
256,192,68103,1,0,0:0:0:0:
256,192,69312,1,6,0:0:0:0:
256,192,70038,1,0,0:0:0:0:
256,192,70522,1,6,0:0:0:0:
256,192,71248,1,0,0:0:0:0:
256,192,72457,1,2,0:0:0:0:
256,192,73183,1,0,0:0:0:0:
256,192,74393,1,0,0:0:0:0:
256,192,75119,1,2,0:0:0:0:
256,192,76328,1,0,0:0:0:0:
256,192,77054,1,0,0:0:0:0:
256,192,77780,1,2,0:0:0:0:
256,192,78264,1,0,0:0:0:0:
256,192,78990,1,2,0:0:0:0:
256,192,80199,1,2,0:0:0:0:
256,192,80925,1,0,0:0:0:0:
256,192,81651,1,2,0:0:0:0:
256,192,82135,12,0,85038,0:0:0:0:
256,192,86006,5,6,0:0:0:0:
256,192,86490,1,4,0:0:0:0:
256,192,86974,1,6,0:0:0:0:
256,192,87941,1,0,0:0:0:0:
256,192,88667,1,2,0:0:0:0:
256,192,89877,1,0,0:0:0:0:
256,192,90361,1,6,0:0:0:0:
256,192,90844,1,4,0:0:0:0:
256,192,91812,1,2,0:0:0:0:
256,192,92538,1,0,0:0:0:0:
256,192,93748,1,0,0:0:0:0:
256,192,94232,1,6,0:0:0:0:
256,192,94715,1,4,0:0:0:0:
256,192,95683,1,0,0:0:0:0:
256,192,96409,1,2,0:0:0:0:
256,192,97135,1,2,0:0:0:0:
256,192,97619,1,0,0:0:0:0:
256,192,98586,1,2,0:0:0:0:
256,192,99554,1,0,0:0:0:0:
256,192,100280,1,2,0:0:0:0:
256,192,101006,1,2,0:0:0:0:
256,192,101490,1,0,0:0:0:0:
256,192,102457,1,2,0:0:0:0:
256,192,103425,1,0,0:0:0:0:
256,192,104393,1,2,0:0:0:0:
256,192,105361,12,0,107296,0:0:0:0:
256,192,108264,5,0,0:0:0:0:
256,192,109232,1,4,0:0:0:0:
256,192,109957,1,2,0:0:0:0:
256,192,110683,1,4,0:0:0:0:
256,192,111167,1,0,0:0:0:0:
256,192,111893,1,0,0:0:0:0:
256,192,112377,1,2,0:0:0:0:
256,192,113103,1,4,0:0:0:0:
256,192,113828,1,2,0:0:0:0:
256,192,114554,1,0,0:0:0:0:
256,192,115038,1,2,0:0:0:0:
256,192,115764,1,4,0:0:0:0:
256,192,116248,1,2,0:0:0:0:
256,192,116974,1,0,0:0:0:0:
256,192,117941,1,2,0:0:0:0:
256,192,118425,1,0,0:0:0:0:
256,192,118909,1,6,0:0:0:0:
