osu file format v14

[General]
AudioFilename: MLP Friends Are Always There For You (The Cutie Re-Mark - Part 2).mp3
AudioLeadIn: 0
PreviewTime: 65660
Countdown: 1
SampleSet: Soft
StackLeniency: 0.7
Mode: 0
LetterboxInBreaks: 0
WidescreenStoryboard: 1

[Editor]
DistanceSpacing: 1.3
BeatDivisor: 4
GridSize: 8
TimelineZoom: 1.8

[Metadata]
Title:Friends Are Always There For You
TitleUnicode:Friends Are Always There For You
Artist:Daniel Ingram
ArtistUnicode:Daniel Ingram
Creator:_Vinylpony24ru_
Version:Easy
Source:MLP: FiM
Tags:mlp fim mane six main 6 twilight sparkle fluttershy pinkie pie rainbow dash rarity applejack starlight glimmer season five 5 finale redemption
BeatmapID:874711
BeatmapSetID:383427

[Difficulty]
HPDrainRate:2
CircleSize:2
OverallDifficulty:2
ApproachRate:3
SliderMultiplier:0.6
SliderTickRate:1

[Events]
//Background and Video events
0,0,"mlp.png",0,0
Video,0,"Friends Are Always There For You.flv"
//Break Periods
//Storyboard Layer 0 (Background)
//Storyboard Layer 1 (Fail)
//Storyboard Layer 2 (Pass)
//Storyboard Layer 3 (Foreground)
//Storyboard Sound Samples

[TimingPoints]
6041,363.636363636364,4,2,0,70,1,0
52586,-100,4,2,0,70,0,1
62677,-100,4,2,0,70,0,1
64313,-100,4,2,0,70,0,1
90404,-100,4,2,0,70,0,0
119586,-100,4,2,0,20,0,0
128677,-100,4,2,0,70,0,0

[Colours]
Combo1 : 5,78,186
Combo2 : 169,5,74
Combo3 : 7,248,170
Combo4 : 238,6,169

[HitObjects]
208,96,6041,6,0,P|288:152|288:168,1,120
320,232,7495,2,0,P|256:248|200:224,1,120
160,288,8950,2,0,P|112:256|80:192,1,120
88,128,10041,1,0,0:0:0:0:
128,64,10404,2,0,P|200:64|248:88,1,120
256,152,11495,1,0,0:0:0:0:
320,192,11859,6,0,P|256:224|208:208,1,120
168,152,12950,1,0,0:0:0:0:
112,104,13313,2,0,P|104:184|136:216,1,120
200,216,14404,1,0,0:0:0:0:
160,280,14768,2,0,B|232:304|264:248,1,120
328,208,16222,2,0,P|288:176|216:192,1,120
416,64,17677,6,0,P|360:88|336:152,1,120
360,200,18768,1,0,0:0:0:0:
296,200,19131,2,0,P|256:256|208:272,1,120
144,240,20222,1,0,0:0:0:0:
112,176,20586,2,0,P|112:144|128:112,1,60
184,88,21313,1,0,0:0:0:0:
256,88,21677,1,0,0:0:0:0:
304,40,22041,2,0,P|328:80|328:104,1,60
312,160,22768,6,0,P|344:160|376:144,1,60
416,96,23495,2,0,P|440:144|424:208,1,120
376,248,24586,1,0,0:0:0:0:
304,280,24950,2,0,P|336:320|408:320,1,120
448,264,26041,1,0,0:0:0:0:
256,192,26404,12,0,27859,0:0:0:0:
88,64,29131,5,2,0:0:0:0:
88,64,29313,2,0,P|80:128|120:176,1,120,2|0,0:0|0:0,0:0:0:0:
168,112,30404,1,0,0:0:0:0:
168,112,30586,1,0,0:0:0:0:
168,112,30768,2,0,P|208:144|224:160,1,60
256,200,31495,1,0,0:0:0:0:
320,224,31859,1,0,0:0:0:0:
368,176,32222,2,0,P|392:216|368:280,1,120
120,128,33677,5,2,0:0:0:0:
120,128,34041,2,2,P|128:168|128:200,1,60
56,184,34768,1,2,0:0:0:0:
56,184,35131,2,0,P|32:240|56:296,1,120,2|0,0:0|0:0,0:0:0:0:
112,240,36222,1,0,0:0:0:0:
136,312,36586,2,0,P|176:280|184:208,1,120
192,144,37677,1,0,0:0:0:0:
168,72,38041,6,0,P|208:64|240:64,1,60
288,104,38768,1,0,0:0:0:0:
288,176,39131,1,0,0:0:0:0:
336,240,39495,2,0,L|360:216,2,30
264,256,40041,2,0,P|216:256|192:248,1,60
204,252,40586,1,0,0:0:0:0:
144,192,40950,6,0,L|144:128,1,60
192,72,41677,1,0,0:0:0:0:
264,48,42041,2,0,L|328:48,1,60
384,96,42768,1,0,0:0:0:0:
424,160,43131,2,0,L|368:208,1,60
328,256,43859,2,0,L|288:304,1,60
256,224,44586,2,0,L|208:280,1,60
168,208,45313,2,0,L|120:264,1,60
56,264,46041,5,0,0:0:0:0:
56,184,46404,1,0,0:0:0:0:
64,104,46768,2,0,P|72:80|112:56,1,60
176,48,47495,1,0,0:0:0:0:
256,48,47859,1,0,0:0:0:0:
304,112,48222,2,0,L|288:152,2,30
352,48,48768,2,0,P|376:56|400:88,1,60
256,192,49495,12,0,51131,0:0:0:0:
88,192,51859,6,0,L|160:192,1,60
224,192,52586,1,0,0:0:0:0:
304,192,52950,1,0,0:0:0:0:
384,192,53313,2,0,P|416:168|432:144,1,60
384,88,54041,1,0,0:0:0:0:
312,64,54404,1,0,0:0:0:0:
232,64,54768,2,0,P|184:72|168:80,1,60
128,136,55495,5,0,0:0:0:0:
112,216,55859,1,0,0:0:0:0:
144,288,56222,2,0,L|208:312,1,60
280,296,56950,1,0,0:0:0:0:
344,248,57313,1,0,0:0:0:0:
304,176,57677,2,0,L|256:120,1,60
184,128,58404,5,0,0:0:0:0:
128,184,58768,1,0,0:0:0:0:
168,256,59131,2,0,P|192:296|216:304,1,60
280,280,59859,1,0,0:0:0:0:
352,248,60222,1,0,0:0:0:0:
392,184,60586,2,0,L|424:128,1,60
344,112,61313,6,0,L|272:112,2,60
424,112,62404,1,0,0:0:0:0:
256,192,62768,12,0,64222,0:0:0:0:
256,80,64950,6,0,L|256:152,1,60
256,216,65677,2,0,B|176:224|136:200,1,120
136,120,66768,1,0,0:0:0:0:
208,88,67131,2,0,L|272:80,1,60
344,88,67859,2,0,L|384:144,1,60
400,216,68586,2,0,P|336:288|320:288,1,120
248,264,69677,5,0,0:0:0:0:
176,232,70041,2,0,L|128:192,1,60
120,120,70768,2,0,L|192:136,1,60
224,80,71495,2,0,L|296:80,1,60
360,80,72222,1,0,0:0:0:0:
400,144,72586,2,0,L|416:208,2,60
336,96,73677,5,0,0:0:0:0:
256,96,74041,1,0,0:0:0:0:
176,96,74404,2,0,P|120:128|96:176,1,120
144,240,75495,1,0,0:0:0:0:
216,264,75859,1,0,0:0:0:0:
296,264,76222,1,0,0:0:0:0:
368,224,76586,2,0,L|392:168,1,60
368,96,77313,6,0,L|248:48,1,120
176,56,78404,1,0,0:0:0:0:
104,88,78768,2,0,P|72:120|72:136,1,60
96,208,79495,2,0,L|120:264,1,60
200,280,80222,2,0,P|272:288|328:272,1,120
352,200,81313,1,0,0:0:0:0:
344,120,81677,6,0,L|296:64,2,60
392,192,82768,1,0,0:0:0:0:
392,272,83131,2,0,P|360:296|328:296,1,60
264,280,83859,1,0,0:0:0:0:
192,256,84222,1,0,0:0:0:0:
136,200,84586,2,0,L|120:136,1,60
184,96,85313,2,0,L|256:88,1,60
320,112,86041,1,0,0:0:0:0:
384,160,86404,1,0,0:0:0:0:
368,240,86768,2,0,L|312:280,1,60
240,272,87495,6,0,L|176:272,1,60
120,224,88222,2,0,L|96:160,1,60
128,96,88950,1,0,0:0:0:0:
208,104,89313,1,0,0:0:0:0:
288,104,89677,2,0,P|352:104|360:104,1,60
416,56,90404,5,0,0:0:0:0:
416,136,90768,1,0,0:0:0:0:
416,216,91131,2,0,L|416:280,1,60
336,280,91859,2,0,L|336:216,1,60
336,144,92586,1,0,0:0:0:0:
336,64,92950,1,0,0:0:0:0:
256,64,93313,6,0,L|208:112,1,60
136,88,94041,2,0,L|88:136,1,60
88,208,94768,1,0,0:0:0:0:
88,288,95131,1,0,0:0:0:0:
160,312,95495,1,0,0:0:0:0:
224,272,95859,1,0,0:0:0:0:
224,192,96222,6,0,L|224:120,1,60
296,96,96950,2,0,L|296:168,1,60
296,232,97677,1,0,0:0:0:0:
352,280,98041,1,0,0:0:0:0:
384,208,98404,2,0,P|408:232|424:256,2,60
336,144,99495,1,0,0:0:0:0:
288,80,99859,2,0,L|216:80,1,60
152,88,100586,2,0,P|104:136|104:192,1,120
128,256,101677,1,0,0:0:0:0:
200,288,102041,6,0,L|272:288,1,60
240,208,102768,2,0,L|312:208,1,60
288,128,103495,2,0,L|352:128,1,60
424,128,104222,1,0,0:0:0:0:
376,192,104586,1,0,0:0:0:0:
336,264,104950,6,0,L|272:264,1,60
256,192,105677,2,0,L|184:192,1,60
184,112,106404,2,0,L|120:112,1,60
88,184,107131,1,0,0:0:0:0:
120,256,107495,1,0,0:0:0:0:
168,320,107859,2,0,L|240:320,1,60
272,256,108586,2,0,L|320:200,1,60
312,136,109313,1,0,0:0:0:0:
312,56,109677,1,0,0:0:0:0:
240,32,110041,2,0,L|200:80,1,60
136,112,110768,6,0,L|136:176,1,60
104,200,111313,2,0,L|160:240,1,60
256,192,112041,12,0,113313,0:0:0:0:
408,144,113677,6,0,L|408:216,1,60
368,208,114222,2,0,L|312:248,1,60
256,192,114950,12,0,116222,0:0:0:0:
120,112,116586,6,0,L|120:176,1,60
160,184,117131,2,0,L|200:240,1,60
264,192,117859,2,0,P|360:192|432:112,1,210
256,192,119677,12,0,128586,0:0:0:0:
