osu file format v14

[General]
AudioFilename: audio.mp3
AudioLeadIn: 0
PreviewTime: 10941
Countdown: 1
SampleSet: Normal
StackLeniency: 0.3
Mode: 0
LetterboxInBreaks: 0
WidescreenStoryboard: 1

[Editor]
Bookmarks: 14700
DistanceSpacing: 2.8
BeatDivisor: 4
GridSize: 16
TimelineZoom: 1.500006

[Metadata]
Title:Cowstep (Short Ver.)
TitleUnicode:Cowstep (Short Ver.)
Artist:Daniel Davies
ArtistUnicode:Daniel Davies
Creator:kingdom5500
Version:Milk
Source:Grass Simulator
Tags:grass simulator short moist
BeatmapID:925230
BeatmapSetID:428742

[Difficulty]
HPDrainRate:6
CircleSize:4.3
OverallDifficulty:9
ApproachRate:9.4
SliderMultiplier:1.4
SliderTickRate:1

[Events]
//Background and Video events
0,0,"maxresdefault.png",0,0
//Break Periods
//Storyboard Layer 0 (Background)
//Storyboard Layer 1 (Fail)
//Storyboard Layer 2 (Pass)
//Storyboard Layer 3 (Foreground)
//Storyboard Sound Samples

[TimingPoints]
-30,342.857142857143,4,1,0,100,1,0
10941,-100,4,1,0,100,0,0
12313,-66.6666666666667,4,1,0,100,0,0
13684,-200,4,1,0,100,0,0
14027,-116.279069767442,4,1,0,100,0,0
14370,-80,4,1,0,100,0,0
14713,-58.1395348837209,4,1,0,100,0,0
15055,-200,4,1,0,100,0,0
15570,-50,4,1,0,100,0,0
15655,-100,4,1,0,100,0,0
16427,-66.6666666666667,4,1,0,100,0,1
18484,-50,4,1,0,100,0,1
18827,-55.5555555555556,4,1,0,100,0,1
19855,-80,4,1,0,100,0,1
20541,-100,4,1,0,100,0,1
22255,-66.6666666666667,4,1,0,100,0,1
23284,-100,4,1,0,100,0,1
25341,-50,4,1,0,60,0,1
25684,-100,4,1,0,100,0,1
27741,-50,4,1,0,100,0,1
28084,-100,4,1,0,100,0,1
29198,-100,4,1,0,5,0,1
29284,-100,4,1,0,100,0,1
29370,-100,4,1,0,5,0,1
29455,-72.992700729927,4,1,0,100,0,1
31512,-83.3333333333333,4,1,0,100,0,1
33227,-72.992700729927,4,1,0,100,0,1
38327,342.857142857143,4,1,0,30,1,0
38327,-100,4,1,0,30,0,0
45741,-80,4,1,0,30,0,0
46212,-80,4,1,0,33,0,0
46555,-80,4,1,0,35,0,0
46898,-80,4,1,0,38,0,0
47241,-80,4,1,0,40,0,0
47584,-80,4,1,0,50,0,0
47927,-80,4,1,0,60,0,0
48269,-80,4,1,0,70,0,0
48612,-80,4,1,0,80,0,0
48827,-80,4,1,0,87,0,0
49041,-80,4,1,0,93,0,0
49298,-80,4,1,0,100,0,0
52384,-80,4,1,0,5,0,0

[HitObjects]
448,56,5455,5,4,0:0:0:0:
430,59,5798,1,0,0:0:0:0:
405,71,6141,1,0,0:0:0:0:
375,95,6484,1,0,0:0:0:0:
345,133,6827,1,0,0:0:0:0:
310,181,7170,1,0,0:0:0:0:
292,249,7512,1,0,0:0:0:0:
287,328,7855,1,0,0:0:0:0:
64,328,8198,5,4,0:0:0:0:
82,325,8541,1,0,0:0:0:0:
107,313,8884,1,0,0:0:0:0:
137,289,9227,1,0,0:0:0:0:
167,251,9570,1,0,0:0:0:0:
202,203,9913,1,0,0:0:0:0:
220,135,10255,1,0,0:0:0:0:
225,56,10598,1,0,0:0:0:0:
272,48,10941,6,0,P|372:76|388:120,1,140,4|0,0:0|0:0,0:0:0:0:
152,296,11627,1,0,0:0:0:0:
304,132,11799,1,0,0:0:0:0:
44,288,11970,1,0,0:0:0:0:
120,160,12312,6,0,P|96:200|148:288,1,140,4|0,0:0|0:0,0:0:0:0:
416,160,12998,1,0,0:0:0:0:
168,216,13170,1,0,0:0:0:0:
436,48,13341,1,0,0:0:0:0:
0,192,13684,5,4,0:0:0:0:
138,112,13855,1,0,0:0:0:0:
32,247,14027,5,4,0:0:0:0:
253,119,14198,1,0,0:0:0:0:
64,302,14370,5,4,0:0:0:0:
368,126,14541,1,0,0:0:0:0:
96,358,14712,5,4,0:0:0:0:
483,134,14884,1,0,0:0:0:0:
144,76,15055,6,0,P|204:68|244:96,1,105
184,140,15655,6,2,L|204:156,1,17.5,2|2,0:0|0:0,0:0:0:0:
160,208,15741,2,2,L|180:224,1,17.5
128,268,15912,6,0,L|164:296,2,35,2|2|2,0:0|0:0|0:0,0:0:0:0:
424,232,16427,6,2,B|404:72|404:75,1,157.500006008148
344,244,16770,2,0,P|376:297|433:309,1,105.000004005432,0|2,0:0|0:0,0:0:0:0:
268,214,17112,2,0,P|353:164|424:232,1,210.000008010865,2|2,0:0|0:0,0:0:0:0:
72,124,17798,5,2,0:0:0:0:
72,124,17884,1,2,0:0:0:0:
72,124,17970,1,2,0:0:0:0:
417,209,18141,6,2,P|366:209|338:168,1,105.000004005432
144,96,18484,2,0,B|128:80|104:80|88:100|88:124|88:140|116:152|152:148|168:140|200:128|244:180,1,210
216,64,18827,2,0,B|240:72|332:64|332:160|344:196|284:252|244:252,1,251.999992309571
225,162,19341,2,0,P|184:232|224:316,1,125.999996154785
204,288,19598,1,0,0:0:0:0:
204,288,19684,1,0,0:0:0:0:
204,288,19770,1,0,0:0:0:0:
204,288,19855,2,0,L|284:236,1,87.5
174,168,20198,1,0,0:0:0:0:
352,160,20541,5,6,0:0:0:0:
288,32,20656,1,0,0:0:0:0:
224,160,20770,1,0,0:0:0:0:
272,224,20884,2,0,L|208:240,2,46.6666666666667,6|0|0,0:0|0:0|0:0,0:0:0:0:
400,224,21227,5,6,0:0:0:0:
336,96,21341,1,0,0:0:0:0:
272,224,21456,1,0,0:0:0:0:
336,288,21570,2,0,L|272:304,2,46.6666666666667,6|0|0,0:0|0:0|0:0,0:0:0:0:
80,192,21912,1,6,0:0:0:0:
188,52,22255,6,0,P|144:100|152:144,1,105.000004005432,6|0,0:0|0:0,0:0:0:0:
280,136,22512,2,2,P|316:192|312:216,1,52.5000020027161
72,64,22770,2,2,P|64:104|68:136,1,52.5000020027161
416,64,22941,1,2,0:0:0:0:
80,184,23284,5,6,0:0:0:0:
188,272,23627,1,6,0:0:0:0:
288,56,23970,1,6,0:0:0:0:
448,352,24312,1,6,0:0:0:0:
356,60,24655,6,2,P|328:112|228:88,1,140
288,56,25170,2,2,L|232:32,1,35
151,170,25341,2,0,P|179:118|279:142,1,140,2|2,0:0|0:0,0:0:0:0:
219,174,25598,2,2,L|320:216,1,70
64,64,26027,5,6,0:0:0:0:
448,64,26370,1,6,0:0:0:0:
448,320,26712,1,6,0:0:0:0:
64,288,27055,1,6,0:0:0:0:
224,96,27398,1,6,0:0:0:0:
320,96,27741,6,2,P|360:100|388:204,1,140
332,164,27998,1,2,0:0:0:0:
344,232,28084,2,0,P|304:228|276:124,1,140
336,168,28770,5,2,0:0:0:0:
336,168,28855,1,2,0:0:0:0:
336,168,28941,1,2,0:0:0:0:
120,140,29112,2,2,L|168:112,1,35
376,228,29284,2,2,L|328:256,1,35
152,200,29455,2,2,B|216:168|248:184|280:200|344:168,1,191.800005414276
240,112,30141,6,2,P|287:119|330:99,1,95.9000027071381
284,48,30484,1,0,0:0:0:0:
284,48,30570,1,0,0:0:0:0:
284,48,30655,1,0,0:0:0:0:
172,335,30827,1,2,0:0:0:0:
172,48,30998,1,2,0:0:0:0:
422,192,31170,1,2,0:0:0:0:
203,216,31512,5,0,0:0:0:0:
256,127,31627,1,0,0:0:0:0:
305,216,31741,1,0,0:0:0:0:
153,127,31855,1,0,0:0:0:0:
352,127,31970,1,0,0:0:0:0:
256,300,32084,1,0,0:0:0:0:
124,55,32198,6,0,P|98:73|81:99,2,55.9999982910157
385,55,32541,2,0,P|411:73|428:99,2,55.9999982910157
256,377,32884,5,0,0:0:0:0:
204,244,33227,6,2,P|224:180|244:164,3,47.9500013535691
284,228,33570,2,2,P|284:160|248:132,3,63.9333351380921
176,192,34255,5,6,0:0:0:0:
336,192,34598,1,6,0:0:0:0:
96,192,34941,1,6,0:0:0:0:
416,192,35284,1,6,0:0:0:0:
172,128,35627,6,2,P|120:168|192:264,1,191.800005414276
388,160,36141,5,2,0:0:0:0:
388,160,36227,1,2,0:0:0:0:
388,160,36312,2,0,P|396:212|384:240,1,47.9500013535691
328,196,36484,1,0,0:0:0:0:
192,204,36655,6,2,P|152:240|128:136,1,191.800005414276
256,32,37341,5,6,0:0:0:0:
256,64,37684,1,6,0:0:0:0:
256,128,38027,1,6,0:0:0:0:
252,216,38369,6,0,P|196:192|168:128,1,122.5,6|0,0:0|0:0,0:0:0:0:
256,128,38841,2,0,L|224:32,1,70
312,168,39355,5,0,0:0:0:0:
336,96,39527,2,0,P|376:128|384:164,1,70
284,240,39869,2,0,P|244:208|236:172,2,70
312,168,40384,5,0,0:0:0:0:
128,72,40555,1,0,0:0:0:0:
256,312,40727,1,0,0:0:0:0:
268,120,41069,6,0,P|352:92|400:168,1,140
224,276,41584,1,0,0:0:0:0:
328,156,41755,1,0,0:0:0:0:
128,208,42098,1,0,0:0:0:0:
220,104,42441,6,0,L|328:28,1,105
284,131,42784,2,0,L|220:104,1,70
448,64,43127,1,0,0:0:0:0:
64,320,43298,1,0,0:0:0:0:
448,320,43469,1,0,0:0:0:0:
224,128,43812,6,0,P|128:96|96:128,1,140
160,160,44327,2,0,L|192:224,1,70
224,128,44841,1,0,0:0:0:0:
288,128,45184,6,0,P|384:96|416:128,1,140
88,192,45869,1,0,0:0:0:0:
192,64,46041,1,0,0:0:0:0:
320,320,46212,1,0,0:0:0:0:
288,96,46555,6,0,P|384:96|448:160,1,175
320,256,47241,5,0,0:0:0:0:
320,256,47584,1,0,0:0:0:0:
320,256,47927,1,0,0:0:0:0:
320,256,48269,1,0,0:0:0:0:
200,84,48498,6,0,L|176:112,1,29.1666666666667
240,140,48612,1,0,0:0:0:0:
136,336,48869,5,0,0:0:0:0:
376,112,49084,5,0,0:0:0:0:
272,308,49298,5,0,0:0:0:0:
256,192,49469,12,0,52384,0:0:0:0:
