osu file format v14

[General]
AudioFilename: audio.mp3
AudioLeadIn: 0
PreviewTime: 59105
Countdown: 0
SampleSet: Soft
StackLeniency: 0.6
Mode: 0
LetterboxInBreaks: 0
EpilepsyWarning: 1
WidescreenStoryboard: 1

[Editor]
Bookmarks: 11192,12692,24692,36692,48692,54692,60692,71192,83192,96692,99692
DistanceSpacing: 1
BeatDivisor: 4
GridSize: 4
TimelineZoom: 0.9

[Metadata]
Title:Onward (pt.II)
TitleUnicode:Onward (pt.II)
Artist:Dani Rosenoer X Arc North
ArtistUnicode:Dani Rosenoer X Arc North
Creator:Xayler
Version:Insane
Source:
Tags:melodic dubstep electronic edm remix come[back]home cbh _orange nikakis jenhideo waku osatia peter
BeatmapID:1752596
BeatmapSetID:735153

[Difficulty]
HPDrainRate:6
CircleSize:4
OverallDifficulty:8
ApproachRate:9
SliderMultiplier:1.6
SliderTickRate:1

[Events]
//Background and Video events
0,0,"701531.png",0,0
//Break Periods
//Storyboard Layer 0 (Background)
Sprite,Background,Centre,"sb\hl.png",182,340 C,0,96324,,255,255,255 F,2,96324,96524,1,0 S,2,96324,96524,1,0.2 P,0,96324,96524,A
Sprite,Background,Centre,"sb\hl.png",249,127 C,0,96511,,255,255,255 F,2,96511,96711,1,0 S,2,96511,96711,1,0.2 P,0,96511,96711,A
Sprite,Background,Centre,"sb\hl.png",108,415 C,0,96699,,255,255,255 F,2,96699,96899,1,0 S,2,96699,96899,1,0.2 P,0,96699,96899,A
Sprite,Background,Centre,"701531.png",320,240 F,0,96300,96324,0,0.2472726 S,0,96324,,0.447273 F,0,96324,96347,0.2472726,0.159896 F,0,96347,96464,0.159896,0 F,0,96464,96488,0 F,0,96488,96511,0,0.4741815 F,0,96511,96605,0.4741815,0 F,0,96605,96675,0 F,0,96675,96699,0,0.1709092 F,0,96699,97472,0.1709092,0.0803261 F,0,97472,99699,0.0803261,0
//Storyboard Layer 1 (Fail)
//Storyboard Layer 2 (Pass)
//Storyboard Layer 3 (Foreground)
Sprite,Foreground,Centre,"SB\white.jpg",320,240 M,0,96300,,321.1636,240.5818 S,0,96300,,1.424727 F,0,96300,96324,0,0.3461818 F,0,96324,96417,0.3461818,0.07101166 F,0,96417,96441,0.07101166,0 F,0,96441,96488,0 F,0,96488,96511,0,0.512 F,0,96511,96542,0.512,0.3373308 F,0,96542,96605,0.3373308,0 F,0,96605,96675,0 F,0,96675,96699,0,0.2298183 F,0,96699,97050,0.2298183,0 F,0,97050,97074,0
//Storyboard Sound Samples

[TimingPoints]
699,375,4,2,1,40,1,0
699,-125,4,2,1,40,0,0
12699,-125,4,2,1,40,0,0
22355,-125,4,2,1,5,0,0
22449,-125,4,2,1,40,0,0
24699,-125,4,2,1,50,0,0
30605,-125,4,2,1,5,0,0
30699,-125,4,2,1,50,0,0
36699,-111.111111111111,4,2,1,60,0,0
38480,-111.111111111111,4,2,1,5,0,0
38574,-111.111111111111,4,2,1,60,0,0
39605,-111.111111111111,4,2,1,5,0,0
39699,-111.111111111111,4,2,1,60,0,0
42605,-111.111111111111,4,2,1,5,0,0
42699,-111.111111111111,4,2,1,60,0,0
44480,-111.111111111111,4,2,1,5,0,0
44574,-111.111111111111,4,2,1,60,0,0
45605,-111.111111111111,4,2,1,5,0,0
45699,-111.111111111111,4,2,1,60,0,0
48699,-111.111111111111,4,2,1,60,0,0
48980,-111.111111111111,4,2,1,5,0,0
49074,-111.111111111111,4,2,1,60,0,0
50480,-111.111111111111,4,2,1,5,0,0
50574,-111.111111111111,4,2,1,60,0,0
51980,-111.111111111111,4,2,1,5,0,0
52074,-111.111111111111,4,2,1,60,0,0
53480,-111.111111111111,4,2,1,5,0,0
53574,-111.111111111111,4,2,1,60,0,0
54605,-111.111111111111,4,2,1,5,0,0
54699,-100,4,2,1,70,0,0
58449,-100,4,2,1,40,0,0
60699,-83.3333333333333,4,2,1,90,0,1
66605,-83.3333333333333,4,2,1,5,0,1
66699,-83.3333333333333,4,2,1,90,0,1
71199,-100,4,2,1,90,0,0
72699,-100,4,2,1,50,0,0
73074,-100,4,2,1,90,0,0
73824,-83.3333333333333,4,2,1,90,0,1
77292,-83.3333333333333,4,2,1,5,0,1
77386,-83.3333333333333,4,2,1,90,0,1
77855,-83.3333333333333,4,2,1,5,0,1
77949,-83.3333333333333,4,2,1,90,0,0
78136,-125,4,2,1,90,0,0
78417,-125,4,2,1,5,0,0
78511,-83.3333333333333,4,2,1,90,0,0
78699,-83.3333333333333,4,2,1,90,0,1
83199,-83.3333333333333,4,2,1,90,0,1
84699,-83.3333333333333,4,2,1,90,0,0
85824,-83.3333333333333,4,2,1,90,0,1
86292,-83.3333333333333,4,2,1,5,0,1
86386,-83.3333333333333,4,2,1,90,0,1
86855,-83.3333333333333,4,2,1,5,0,1
86949,-83.3333333333333,4,2,1,90,0,1
89292,-83.3333333333333,4,2,1,5,0,1
89386,-83.3333333333333,4,2,1,90,0,1
92292,-83.3333333333333,4,2,1,5,0,1
92386,-83.3333333333333,4,2,1,90,0,1
92855,-83.3333333333333,4,2,1,5,0,1
92949,-83.3333333333333,4,2,1,90,0,1
95199,-100,4,2,1,90,0,0
96792,-100,4,2,1,10,0,0

[Colours]
Combo1 : 64,128,128
Combo2 : 0,255,255
Combo3 : 0,0,255
Combo4 : 255,128,0

[HitObjects]
126,179,11199,6,0,L|128:246,1,64,2|0,0:3|0:0,0:0:0:0:
127,242,11949,5,2,0:0:0:0:
212,279,12136,1,0,0:0:0:0:
212,279,12230,1,0,0:0:0:0:
212,279,12324,2,0,L|247:276,3,32,8|8|8|8,0:3|0:3|0:3|0:3,0:0:0:0:
325,294,12699,5,2,0:0:0:0:
384,139,13074,1,0,0:0:0:0:
355,217,13261,1,0,0:0:0:0:
307,104,13449,2,0,P|323:77|350:61,1,64,2|0,0:0|0:0,0:0:0:0:
355,217,13824,1,0,0:0:0:0:
464,164,14011,1,0,0:0:0:0:
325,298,14199,6,0,P|257:304|207:267,1,128,2|0,0:0|0:0,0:0:0:0:
289,97,14761,2,0,P|306:162|278:218,1,128,2|0,0:0|0:0,0:0:0:0:
97,165,15324,2,0,P|158:136|218:153,1,128,2|2,0:0|0:0,0:0:0:0:
166,310,16074,5,0,0:0:0:0:
164,226,16261,1,0,0:0:0:0:
81,316,16449,2,0,P|86:346|106:371,1,64,2|0,0:0|0:0,0:0:0:0:
164,226,16824,1,0,0:0:0:0:
45,202,17011,1,0,0:0:0:0:
233,161,17199,6,0,P|257:218|239:278,1,128,2|0,0:0|0:0,0:0:0:0:
159,103,17761,2,0,P|211:68|273:76,1,128,2|0,0:0|0:0,0:0:0:0:
116,186,18324,2,0,P|73:140|69:77,1,128,2|2,0:0|0:0,0:0:0:0:
241,123,19074,5,0,0:0:0:0:
159,103,19261,1,0,0:0:0:0:
224,206,19449,2,0,P|254:208|283:196,1,64,2|0,0:0|0:0,0:0:0:0:
159,103,19824,1,0,0:0:0:0:
263,41,20011,1,0,0:0:0:0:
72,67,20199,6,0,P|71:135|113:181,1,128,2|0,0:0|0:0,0:0:0:0:
275,84,20761,2,0,P|208:72|155:105,1,128,2|0,0:0|0:0,0:0:0:0:
223,281,21324,2,0,P|246:217|224:159,1,128,2|2,0:0|0:0,0:0:0:0:
59,222,22074,6,0,L|161:218,1,96,0|0,0:0|0:0,0:0:0:0:
167,214,22449,2,0,P|175:246|169:277,1,64,2|0,0:0|0:0,0:0:0:0:
92,370,22824,2,0,P|84:338|90:307,1,64
172,219,23199,5,8,0:3:0:0:
172,219,23386,2,0,L|299:220,1,128,2|8,0:0|0:3,0:0:0:0:
420,181,23949,1,8,0:3:0:0:
420,181,24042,1,8,0:3:0:0:
420,181,24136,2,0,L|422:218,1,32,8|8,0:3|0:3,0:0:0:0:
367,301,24324,1,4,0:3:0:0:
329,113,24511,1,4,0:3:0:0:
473,310,24699,5,4,0:3:0:0:
473,310,25074,1,0,0:0:0:0:
367,301,25261,1,0,0:0:0:0:
453,206,25449,2,0,P|458:175|447:145,1,64,8|0,0:0|0:0,0:0:0:0:
367,301,25824,1,0,0:0:0:0:
447,145,26011,1,0,0:0:0:0:
255,160,26199,6,0,P|245:227|279:279,1,128,2|0,2:0|2:0,2:2:0:0:
453,206,26761,2,0,P|388:185|331:210,1,128,2|0,0:0|0:0,0:0:0:0:
367,301,27324,1,2,0:0:0:0:
255,160,27511,1,4,0:3:0:0:
458,296,27699,5,4,0:3:0:0:
458,296,28074,1,0,0:0:0:0:
487,199,28261,1,0,0:0:0:0:
367,245,28449,2,0,P|362:213|372:184,1,64,8|0,0:0|0:0,0:0:0:0:
369,351,28824,1,0,0:0:0:0:
487,199,29011,1,0,0:0:0:0:
311,114,29199,6,0,P|368:90|428:108,1,128,2|0,0:0|0:0,0:0:0:0:
253,188,29761,2,0,P|218:136|226:74,1,128,2|0,0:0|0:0,0:0:0:0:
337,229,30324,2,0,P|305:269|236:276,1,96,2|0,0:0|0:0,0:0:0:0:
245,275,30699,5,4,0:3:0:0:
155,226,30886,1,0,0:0:0:0:
259,126,31074,2,0,P|263:157|253:186,1,64
149,286,31449,2,0,P|144:254|154:225,1,64,8|0,0:0|0:0,0:0:0:0:
207,358,31824,1,0,0:0:0:0:
64,326,32011,1,0,0:0:0:0:
245,275,32199,6,0,P|254:207|220:155,1,128,2|0,2:0|2:0,2:2:0:0:
47,229,32761,2,0,P|111:249|168:224,1,128,2|0,2:0|0:0,0:0:0:0:
137,133,33324,1,2,0:0:0:0:
245,275,33511,1,4,0:3:0:0:
47,133,33699,6,0,L|174:134,1,128,4|0,0:3|0:0,0:0:0:0:
360,45,34449,2,0,L|361:172,1,128,8|0,0:0|0:0,0:0:0:0:
446,117,35011,1,0,0:0:0:0:
292,235,35199,6,0,P|231:248|175:220,1,128,2|0,0:0|0:0,0:0:0:0:
361,172,35761,2,0,P|386:229|367:288,1,128,2|0,0:0|0:0,0:0:0:0:
290,113,36324,2,0,P|313:90|342:82,1,64,2|0,0:0|0:0,0:0:0:0:
292,235,36699,6,0,L|191:233,1,71.9999978027344,4|0,0:3|0:0,0:0:0:0:
118,179,37074,1,0,0:0:0:0:
125,294,37261,1,4,0:3:0:0:
214,121,37449,2,0,L|285:122,1,71.9999978027344,8|0,0:0|0:0,0:0:0:0:
118,179,37824,1,0,0:0:0:0:
142,45,38011,1,4,0:3:0:0:
10,174,38199,6,0,L|117:178,1,107.999996704102,2|0,0:0|0:0,0:0:0:0:
138,186,38574,1,4,0:3:0:0:
262,47,38761,2,0,P|195:37|139:84,1,143.999995605469,2|0,2:0|0:0,0:0:0:0:
321,135,39324,2,0,P|341:187|324:240,1,107.999996704102,2|0,0:0|0:0,0:0:0:0:
312,251,39699,6,0,L|211:249,1,71.9999978027344,4|0,0:3|0:0,0:0:0:0:
153,325,40074,1,0,0:0:0:0:
134,212,40261,1,4,0:3:0:0:
259,362,40449,2,0,L|360:360,1,71.9999978027344,8|0,0:0|0:0,0:0:0:0:
153,325,40824,1,0,0:0:0:0:
260,240,41011,1,4,0:3:0:0:
62,213,41199,5,2,0:0:0:0:
62,213,41386,2,0,L|163:211,1,71.9999978027344,4|0,0:3|0:0,0:0:0:0:
272,84,41761,2,0,P|205:74|149:121,1,143.999995605469,4|0,0:3|0:0,0:0:0:0:
243,284,42324,2,0,P|256:232|236:183,1,107.999996704102,2|0,0:0|0:0,0:0:0:0:
221,168,42699,6,0,L|322:170,1,71.9999978027344,4|0,0:3|0:0,0:0:0:0:
395,224,43074,1,0,0:0:0:0:
388,109,43261,1,4,0:3:0:0:
299,282,43449,2,0,L|228:281,1,71.9999978027344,8|0,0:0|0:0,0:0:0:0:
395,224,43824,1,0,0:0:0:0:
371,358,44011,1,4,0:3:0:0:
502,219,44199,6,0,L|395:223,1,107.999996704102,2|0,0:0|0:0,0:0:0:0:
374,231,44574,1,4,0:3:0:0:
253,89,44761,2,0,P|320:79|376:126,1,143.999995605469,2|0,0:0|0:0,0:0:0:0:
195,178,45324,2,0,P|175:230|192:283,1,107.999996704102,2|0,0:0|0:0,0:0:0:0:
204,294,45699,5,4,0:3:0:0:
349,232,45886,2,0,L|248:234,1,71.9999978027344,2|0,0:0|0:0,0:0:0:0:
378,130,46261,1,4,0:3:0:0:
195,178,46449,2,0,L|51:175,1,143.999995605469,8|0,0:0|0:0,0:0:0:0:
107,73,47011,1,4,0:3:0:0:
290,134,47199,5,8,0:3:0:0:
290,134,47386,2,0,L|287:278,1,143.999995605469,4|8,0:3|0:3,0:0:0:0:
180,362,47949,1,8,0:3:0:0:
180,362,48042,1,8,0:3:0:0:
180,362,48136,2,0,L|182:322,1,35.9999989013672,8|8,0:3|0:3,0:0:0:0:
149,225,48324,1,4,0:3:0:0:
345,370,48511,1,4,0:3:0:0:
201,145,48699,6,0,L|94:149,1,107.999996704102,10|0,0:0|0:0,0:0:0:0:
72,144,49074,1,10,0:0:0:0:
151,42,49261,1,0,0:0:0:0:
62,156,49449,2,0,L|64:227,1,71.9999978027344,8|0,0:0|0:0,0:0:0:0:
60,252,49730,1,0,0:0:0:0:
60,252,49824,1,10,0:0:0:0:
201,145,50011,1,0,0:0:0:0:
145,309,50199,6,0,L|141:201,1,107.999996704102,10|0,0:0|0:0,0:0:0:0:
136,180,50574,1,10,0:0:0:0:
250,328,50761,2,0,P|319:337|372:292,1,143.999995605469,2|0,0:0|0:0,0:0:0:0:
244,224,51324,1,10,0:0:0:0:
399,191,51511,1,2,0:0:0:0:
250,328,51699,6,0,L|143:324,1,107.999996704102,10|0,0:0|0:0,0:0:0:0:
121,329,52074,1,10,0:0:0:0:
194,222,52261,1,0,0:0:0:0:
113,342,52449,2,0,L|42:340,1,71.9999978027344,8|0,0:0|0:0,0:0:0:0:
24,349,52730,1,0,0:0:0:0:
24,349,52824,1,10,0:0:0:0:
92,191,53011,1,0,0:0:0:0:
245,273,53199,6,0,L|137:269,1,107.999996704102,10|0,0:0|0:0,0:0:0:0:
116,272,53574,1,10,0:0:0:0:
275,174,53761,2,0,P|283:105|238:52,1,143.999995605469,2|0,0:0|0:0,0:0:0:0:
245,273,54324,2,0,P|301:276|350:245,1,107.999996704102,10|0,0:0|0:0,0:0:0:0:
364,225,54699,6,0,L|362:305,1,80,8|8,0:3|0:3,0:0:0:0:
268,155,55074,1,8,0:3:0:0:
483,215,55261,1,8,0:3:0:0:
245,273,55449,6,0,L|165:271,1,80,8|8,0:3|0:3,0:0:0:0:
321,353,55824,1,8,0:3:0:0:
205,162,56011,1,8,0:3:0:0:
413,283,56199,6,0,L|409:202,1,80,8|8,0:3|0:3,0:0:0:0:
321,353,56574,1,8,0:3:0:0:
457,118,56761,1,8,0:3:0:0:
245,273,56949,6,0,L|165:269,1,80,8|8,0:3|0:3,0:0:0:0:
413,283,57324,1,8,0:3:0:0:
154,365,57511,1,8,0:3:0:0:
309,140,57699,5,8,0:3:0:0:
310,163,57792,1,8,0:3:0:0:
311,187,57886,1,8,0:3:0:0:
313,211,57980,1,8,0:3:0:0:
314,235,58074,5,8,0:3:0:0:
316,259,58167,1,8,0:3:0:0:
317,283,58261,1,8,0:3:0:0:
319,307,58355,1,8,0:3:0:0:
322,333,58449,6,0,L|320:360,15,20,8|8|8|8|8|8|8|8|8|8|8|8|8|8|8|8,0:3|0:3|0:3|0:3|0:3|0:3|0:3|0:3|0:3|0:3|0:3|0:3|0:3|0:3|0:3|0:3,0:0:0:0:
256,192,59199,12,0,60324,0:0:0:0:
186,263,60699,5,4,0:3:0:0:
288,112,60886,1,0,0:0:0:0:
144,167,61074,1,0,0:0:0:0:
360,190,61261,1,0,0:0:0:0:
138,71,61449,2,0,L|145:189,1,95.9999970703126,8|0,0:0|0:0,0:0:0:0:
365,94,61824,2,0,L|358:212,1,95.9999970703126,4|0,0:3|0:0,0:0:0:0:
470,83,62199,5,2,0:0:0:0:
260,94,62386,1,4,0:3:0:0:
466,199,62574,1,4,0:3:0:0:
312,3,62761,1,0,0:0:0:0:
370,246,62949,2,0,L|363:364,1,95.9999970703126,8|0,0:0|0:0,0:0:0:0:
268,222,63324,1,0,0:0:0:0:
466,199,63511,1,0,0:0:0:0:
259,327,63699,6,0,L|163:321,1,95.9999970703126,4|0,0:3|0:0,0:0:0:0:
268,222,64074,1,0,0:0:0:0:
61,261,64261,1,0,0:0:0:0:
166,55,64449,2,0,L|159:173,1,95.9999970703126,8|0,0:0|0:0,0:0:0:0:
55,356,64824,2,0,L|60:260,1,95.9999970703126,4|0,0:3|0:0,0:0:0:0:
304,200,65199,6,0,P|239:269|145:234,1,191.999994140625,2|0,0:0|0:0,0:0:0:0:
257,107,65761,1,4,0:3:0:0:
362,313,65949,2,0,L|457:307,1,95.9999970703126,8|0,0:0|0:0,0:0:0:0:
247,96,66324,2,0,L|94:101,1,143.999995605469,4|0,0:3|0:0,0:0:0:0:
29,82,66699,5,4,0:3:0:0:
141,226,66886,1,0,0:0:0:0:
0,166,67074,1,0,0:0:0:0:
220,183,67261,1,0,0:0:0:0:
5,261,67449,2,0,L|0:165,1,95.9999970703126,8|0,0:0|0:0,0:0:0:0:
214,278,67824,2,0,L|219:182,1,95.9999970703126,4|0,0:3|0:0,0:0:0:0:
110,291,68199,5,2,0:0:0:0:
320,282,68386,1,4,0:3:0:0:
116,174,68574,1,4,0:3:0:0:
267,372,68761,1,0,0:0:0:0:
431,183,68949,2,0,L|426:279,1,95.9999970703126,8|0,0:0|0:0,0:0:0:0:
325,164,69324,1,0,0:0:0:0:
512,115,69511,1,0,0:0:0:0:
322,270,69699,6,0,L|226:265,1,95.9999970703126,4|0,0:3|0:0,0:0:0:0:
325,164,70074,1,0,0:0:0:0:
388,352,70261,1,0,0:0:0:0:
463,133,70449,2,0,L|458:229,1,95.9999970703126,8|0,0:0|0:0,0:0:0:0:
246,95,70824,2,0,L|251:-1,1,95.9999970703126,4|2,0:3|0:0,0:0:0:0:
165,171,71199,6,0,L|326:163,1,160,2|0,0:0|0:0,0:0:0:0:
145,69,71761,1,0,0:0:0:0:
272,276,71949,1,8,0:3:0:0:
272,276,72042,1,8,0:3:0:0:
272,276,72136,2,0,L|268:322,1,40,8|8,0:3|0:3,0:0:0:0:
222,372,72324,1,4,0:3:0:0:
393,99,72511,1,4,0:3:0:0:
165,171,72699,6,0,L|139:170,4,26.6666666666667,4|0|0|0|0,0:3|0:0|0:0|0:0|0:0,0:0:0:0:
265,81,73074,2,0,L|267:133,1,40
253,281,73261,2,0,L|254:241,1,40
160,63,73449,1,8,0:0:0:0:
361,216,73636,1,0,0:0:0:0:
361,216,73730,1,0,0:0:0:0:
361,216,73824,6,0,L|457:211,1,95.9999970703126,4|0,0:3|0:0,0:0:0:0:
337,114,74199,1,2,0:0:0:0:
369,322,74386,1,4,0:3:0:0:
454,107,74574,1,4,0:3:0:0:
255,221,74761,2,0,L|232:220,2,23.9999992675781
257,143,74949,1,8,0:0:0:0:
369,322,75136,1,0,0:0:0:0:
365,120,75324,2,0,L|360:216,1,95.9999970703126
261,98,75699,5,4,0:3:0:0:
433,39,75886,1,0,0:0:0:0:
368,223,76074,1,0,0:0:0:0:
368,223,76167,1,0,0:0:0:0:
368,223,76261,1,0,0:0:0:0:
441,24,76449,2,0,L|446:120,1,95.9999970703126,8|0,0:0|0:0,0:0:0:0:
261,98,76824,5,4,0:3:0:0:
450,5,77011,2,0,L|442:151,1,143.999995605469,2|0,0:0|0:0,0:0:0:0:
460,224,77386,1,4,0:3:0:0:
330,57,77574,2,0,L|186:64,1,143.999995605469,4|0,0:3|0:0,0:0:0:0:
112,44,77949,1,8,0:0:0:0:
292,183,78136,6,0,L|387:177,1,96,2|0,0:0|0:0,0:0:0:0:
484,113,78511,6,0,L|437:116,1,47.9999985351563
409,43,78699,5,4,0:3:0:0:
332,261,78886,2,0,P|232:248|207:164,1,191.999994140625
474,198,79449,2,0,L|469:294,1,95.9999970703126,8|0,0:0|0:0,0:0:0:0:
433,364,79730,1,0,0:0:0:0:
433,364,79824,1,4,0:3:0:0:
373,162,80011,1,0,0:0:0:0:
469,293,80199,5,2,0:0:0:0:
269,226,80386,1,4,0:3:0:0:
494,173,80574,1,4,0:3:0:0:
336,340,80761,2,0,L|335:363,2,23.9999992675781
265,307,80949,1,8,0:0:0:0:
469,293,81136,1,0,0:0:0:0:
358,124,81324,2,0,L|353:220,1,95.9999970703126
464,113,81699,5,4,0:3:0:0:
299,37,81886,1,0,0:0:0:0:
361,227,82074,1,0,0:0:0:0:
361,227,82167,1,0,0:0:0:0:
361,227,82261,1,0,0:0:0:0:
150,133,82449,2,0,L|246:128,1,95.9999970703126,8|0,0:0|0:0,0:0:0:0:
354,332,82824,2,0,L|258:327,1,95.9999970703126,4|0,0:3|0:0,0:0:0:0:
245,128,83199,5,8,0:3:0:0:
136,330,83386,1,4,0:3:0:0:
337,72,83574,5,4,0:3:0:0:
255,279,83761,2,0,L|258:326,1,47.9999985351563,8|8,0:3|0:3,0:0:0:0:
346,222,83949,5,8,0:0:0:0:
329,199,84042,1,8,0:3:0:0:
305,182,84136,1,8,0:3:0:0:
278,173,84230,1,8,0:3:0:0:
249,172,84324,5,8,0:3:0:0:
250,143,84417,1,8,0:3:0:0:
252,114,84511,1,8,0:3:0:0:
254,85,84605,1,8,0:3:0:0:
256,57,84699,5,4,0:3:0:0:
346,222,84886,1,0,0:0:0:0:
153,95,85074,1,2,0:0:0:0:
447,182,85261,1,0,0:0:0:0:
178,4,85449,5,8,0:0:0:0:
178,4,85824,5,4,0:3:0:0:
296,179,86011,2,0,P|315:120|249:49,1,143.999995605469,2|0,0:0|0:0,0:0:0:0:
198,79,86386,1,4,0:3:0:0:
262,281,86574,2,0,L|406:274,1,143.999995605469,4|0,0:3|0:0,0:0:0:0:
478,301,86949,1,8,0:0:0:0:
450,92,87136,2,0,L|445:188,1,95.9999970703126,2|0,0:0|0:0,0:0:0:0:
415,349,87511,1,0,0:0:0:0:
291,176,87700,6,0,L|195:181,1,95.9999970703126,4|0,0:3|0:0,0:0:0:0:
310,78,88075,1,0,0:0:0:0:
310,78,88167,1,0,0:0:0:0:
310,78,88260,1,0,0:0:0:0:
249,283,88450,2,0,L|345:278,1,95.9999970703126,8|0,0:0|0:0,0:0:0:0:
226,180,88825,5,4,0:3:0:0:
425,252,89012,2,0,P|421:321|364:361,1,143.999995605469,2|0,0:0|0:0,0:0:0:0:
288,358,89387,1,4,0:3:0:0:
324,149,89575,2,0,L|319:245,1,95.9999970703126,2|4,0:0|0:3,0:0:0:0:
427,136,89949,1,8,0:0:0:0:
219,104,90136,2,0,L|224:200,1,95.9999970703126,2|4,0:0|0:3,0:0:0:0:
18,250,90511,2,0,L|65:253,1,47.9999985351563
140,279,90699,5,4,0:3:0:0:
150,49,90886,2,0,P|234:14|302:75,1,191.999994140625
48,162,91449,2,0,L|43:66,1,95.9999970703126,8|0,0:0|0:0,0:0:0:0:
91,7,91730,1,0,0:0:0:0:
91,7,91824,5,4,0:3:0:0:
143,211,92011,2,0,P|204:242|267:212,1,143.999995605469,2|0,0:0|0:0,0:0:0:0:
331,167,92386,1,4,0:3:0:0:
218,346,92574,2,0,L|74:339,1,143.999995605469,4|0,0:3|0:0,0:0:0:0:
19,285,92949,1,8,0:0:0:0:
147,115,93136,2,0,L|142:211,1,95.9999970703126,2|0,0:0|0:0,0:0:0:0:
35,100,93511,1,0,0:0:0:0:
240,47,93699,6,0,L|336:52,1,95.9999970703126,4|0,0:3|0:0,0:0:0:0:
242,176,94074,1,0,0:0:0:0:
242,176,94167,1,0,0:0:0:0:
242,176,94261,1,0,0:0:0:0:
74,47,94449,2,0,L|79:143,1,95.9999970703126,8|0,0:0|0:0,0:0:0:0:
246,271,94824,2,0,L|241:175,1,95.9999970703126,4|0,0:3|0:0,0:0:0:0:
323,349,95199,6,0,L|163:341,1,160,2|0,0:0|0:0,0:0:0:0:
350,249,95761,1,0,0:0:0:0:
139,175,95949,1,8,0:3:0:0:
139,175,96042,1,8,0:3:0:0:
139,175,96136,2,0,L|143:221,1,40,8|8,0:3|0:3,0:0:0:0:
118,284,96324,1,4,0:3:0:0:
185,71,96511,1,4,0:3:0:0:
44,359,96699,5,4,0:3:0:0:
256,192,96792,12,2,99699,0:0:0:0:
