osu file format v14

[General]
AudioFilename: audio.mp3
AudioLeadIn: 0
PreviewTime: 57256
Countdown: 0
SampleSet: Normal
StackLeniency: 0.7
Mode: 1
LetterboxInBreaks: 0
WidescreenStoryboard: 0

[Editor]
Bookmarks: 3279,10551,17824,25097,39642,57824,72370,88733
DistanceSpacing: 1
BeatDivisor: 2
GridSize: 32
TimelineZoom: 1

[Metadata]
Title:monochrome (TV Size)
TitleUnicode:monochrome (TV Size)
Artist:Dancing Dolls
ArtistUnicode:Dancing Dolls
Creator:Roger
Version:Kantan
Source:ソウルイーターノット!
Tags:taiko op opening kz livetune meg rock soul eater not! Somnect Rhytoly ][_-GH-_][
BeatmapID:2011504
BeatmapSetID:960780

[Difficulty]
HPDrainRate:8
CircleSize:2
OverallDifficulty:2.5
ApproachRate:0
SliderMultiplier:1.4
SliderTickRate:1

[Events]
//Background and Video events
0,0,"bg.jpg",0,100
//Break Periods
//Storyboard Layer 0 (Background)
//Storyboard Layer 1 (Fail)
//Storyboard Layer 2 (Pass)
//Storyboard Layer 3 (Foreground)
//Storyboard Layer 4 (Overlay)
//Storyboard Sound Samples

[TimingPoints]
1461,454.545454545455,4,1,0,40,1,0
1688,-100,4,1,0,45,0,0
1915,-100,4,1,0,50,0,0
2142,-100,4,1,0,55,0,0
2370,-100,4,1,0,60,0,0
2597,-100,4,1,0,65,0,0
2824,-100,4,1,0,70,0,0
57824,-100,4,1,0,80,0,1
88733,-100,4,1,0,70,0,0

[HitObjects]
256,192,1461,8,8,2824,0:0:0:0:
256,192,3279,5,4,0:0:0:0:
256,192,5097,1,0,0:0:0:0:
256,192,6915,1,8,0:0:0:0:
256,192,7824,1,0,0:0:0:0:
256,192,8733,1,8,0:0:0:0:
256,192,10097,1,0,0:0:0:0:
256,192,10551,1,12,0:0:0:0:
256,192,11461,1,0,0:0:0:0:
256,192,12370,1,8,0:0:0:0:
256,192,12824,1,8,0:0:0:0:
256,192,13279,1,0,0:0:0:0:
256,192,14188,1,8,0:0:0:0:
256,192,15097,1,0,0:0:0:0:
256,192,15551,1,0,0:0:0:0:
256,192,16006,1,8,0:0:0:0:
256,192,17824,1,4,0:0:0:0:
256,192,18506,1,8,0:0:0:0:
256,192,19642,1,8,0:0:0:0:
256,192,20324,1,8,0:0:0:0:
256,192,21461,1,8,0:0:0:0:
256,192,22142,1,0,0:0:0:0:
256,192,23279,1,0,0:0:0:0:
256,192,23961,1,0,0:0:0:0:
256,192,24642,1,8,0:0:0:0:
256,192,25097,1,4,0:0:0:0:
256,192,26461,1,8,0:0:0:0:
256,192,26915,1,0,0:0:0:0:
256,192,27824,1,0,0:0:0:0:
256,192,28733,1,8,0:0:0:0:
256,192,29642,1,0,0:0:0:0:
256,192,30097,1,8,0:0:0:0:
256,192,30551,1,0,0:0:0:0:
256,192,31461,1,8,0:0:0:0:
256,192,32370,1,0,0:0:0:0:
256,192,32824,1,8,0:0:0:0:
256,192,33733,1,8,0:0:0:0:
256,192,34188,1,0,0:0:0:0:
256,192,35097,1,0,0:0:0:0:
256,192,35551,1,0,0:0:0:0:
256,192,36006,1,8,0:0:0:0:
256,192,36915,1,0,0:0:0:0:
256,192,37824,1,8,0:0:0:0:
256,192,39188,1,8,0:0:0:0:
256,192,39642,1,4,0:0:0:0:
256,192,40551,1,0,0:0:0:0:
256,192,41461,1,0,0:0:0:0:
256,192,42370,1,8,0:0:0:0:
256,192,42824,1,8,0:0:0:0:
256,192,43279,1,0,0:0:0:0:
256,192,44188,1,0,0:0:0:0:
256,192,44642,1,8,0:0:0:0:
256,192,45551,1,8,0:0:0:0:
256,192,46006,1,0,0:0:0:0:
256,192,46915,1,8,0:0:0:0:
256,192,47824,1,0,0:0:0:0:
256,192,48733,1,0,0:0:0:0:
256,192,49188,1,8,0:0:0:0:
256,192,49642,1,0,0:0:0:0:
256,192,50551,1,0,0:0:0:0:
256,192,51006,1,8,0:0:0:0:
256,192,51915,1,8,0:0:0:0:
256,192,52370,1,8,0:0:0:0:
256,192,53279,1,0,0:0:0:0:
256,192,53961,1,12,0:0:0:0:
256,192,54415,8,0,56006,0:0:0:0:
256,192,57824,5,12,0:0:0:0:
256,192,58733,1,0,0:0:0:0:
256,192,59188,1,0,0:0:0:0:
256,192,59642,1,8,0:0:0:0:
256,192,60551,1,8,0:0:0:0:
256,192,61006,1,0,0:0:0:0:
256,192,61915,1,0,0:0:0:0:
256,192,62370,1,8,0:0:0:0:
256,192,62824,1,8,0:0:0:0:
256,192,63279,1,0,0:0:0:0:
256,192,64642,1,0,0:0:0:0:
256,192,65097,1,8,0:0:0:0:
256,192,66006,1,0,0:0:0:0:
256,192,66915,1,8,0:0:0:0:
256,192,67370,1,8,0:0:0:0:
256,192,67824,1,0,0:0:0:0:
256,192,68733,1,8,0:0:0:0:
256,192,69188,1,0,0:0:0:0:
256,192,70097,1,0,0:0:0:0:
256,192,70551,1,8,0:0:0:0:
256,192,71461,1,0,0:0:0:0:
256,192,71915,1,8,0:0:0:0:
256,192,72370,1,4,0:0:0:0:
256,192,73279,1,8,0:0:0:0:
256,192,73733,1,0,0:0:0:0:
256,192,74188,1,8,0:0:0:0:
256,192,75097,1,8,0:0:0:0:
256,192,75551,1,8,0:0:0:0:
256,192,76461,1,0,0:0:0:0:
256,192,76915,1,8,0:0:0:0:
256,192,77370,1,8,0:0:0:0:
256,192,77824,1,0,0:0:0:0:
256,192,79188,1,0,0:0:0:0:
256,192,79642,1,8,0:0:0:0:
256,192,80551,1,0,0:0:0:0:
256,192,81461,1,8,0:0:0:0:
256,192,81915,1,8,0:0:0:0:
256,192,82370,1,0,0:0:0:0:
256,192,83279,1,8,0:0:0:0:
256,192,83733,1,0,0:0:0:0:
256,192,84642,1,8,0:0:0:0:
256,192,85551,1,0,0:0:0:0:
256,192,86006,1,8,0:0:0:0:
256,192,86688,1,4,0:0:0:0:
256,192,87142,8,0,88733,0:0:0:0:
