osu file format v14

[General]
AudioFilename: audio.mp3
AudioLeadIn: 0
PreviewTime: 57256
Countdown: 0
SampleSet: Normal
StackLeniency: 0.7
Mode: 1
LetterboxInBreaks: 0
WidescreenStoryboard: 0

[Editor]
Bookmarks: 3279,10551,17824,25097,39642,57824,72370,88733
DistanceSpacing: 1
BeatDivisor: 4
GridSize: 32
TimelineZoom: 1.300006

[Metadata]
Title:monochrome (TV Size)
TitleUnicode:monochrome (TV Size)
Artist:Dancing Dolls
ArtistUnicode:Dancing Dolls
Creator:Roger
Version:Inner Oni
Source:ソウルイーターノット!
Tags:taiko op opening kz livetune meg rock soul eater not! Somnect Rhytoly ][_-GH-_][
BeatmapID:2011503
BeatmapSetID:960780

[Difficulty]
HPDrainRate:5.5
CircleSize:2
OverallDifficulty:5.5
ApproachRate:0
SliderMultiplier:1.4
SliderTickRate:1

[Events]
//Background and Video events
0,0,"bg.jpg",0,100
//Break Periods
//Storyboard Layer 0 (Background)
//Storyboard Layer 1 (Fail)
//Storyboard Layer 2 (Pass)
//Storyboard Layer 3 (Foreground)
//Storyboard Layer 4 (Overlay)
//Storyboard Sound Samples

[TimingPoints]
1461,454.545454545455,4,1,0,40,1,0
1688,-100,4,1,0,45,0,0
1915,-100,4,1,0,50,0,0
2142,-100,4,1,0,55,0,0
2370,-100,4,1,0,60,0,0
2597,-100,4,1,0,65,0,0
2824,-100,4,1,0,70,0,0
57824,-90.9090909090909,4,1,0,80,0,1
88733,-100,4,1,0,70,0,0

[HitObjects]
256,192,1461,8,0,2597,0:0:0:0:
256,192,2824,5,4,0:0:0:0:
256,192,3279,1,12,0:0:0:0:
256,192,3733,1,0,0:0:0:0:
256,192,4074,1,8,0:0:0:0:
256,192,4188,1,0,0:0:0:0:
256,192,4415,1,8,0:0:0:0:
256,192,4642,1,0,0:0:0:0:
256,192,4870,1,0,0:0:0:0:
256,192,5097,1,8,0:0:0:0:
256,192,5551,1,0,0:0:0:0:
256,192,6006,1,8,0:0:0:0:
256,192,6233,1,0,0:0:0:0:
256,192,6347,1,0,0:0:0:0:
256,192,6461,1,8,0:0:0:0:
256,192,6688,1,0,0:0:0:0:
256,192,7142,1,0,0:0:0:0:
256,192,7370,1,8,0:0:0:0:
256,192,7597,1,8,0:0:0:0:
256,192,7711,1,8,0:0:0:0:
256,192,7824,1,0,0:0:0:0:
256,192,8051,1,0,0:0:0:0:
256,192,8279,1,8,0:0:0:0:
256,192,8506,1,8,0:0:0:0:
256,192,8733,1,0,0:0:0:0:
256,192,9074,1,8,0:0:0:0:
256,192,9188,1,0,0:0:0:0:
256,192,9415,1,0,0:0:0:0:
256,192,9529,1,0,0:0:0:0:
256,192,9642,1,8,0:0:0:0:
256,192,9870,1,8,0:0:0:0:
256,192,10097,1,0,0:0:0:0:
256,192,10551,1,12,0:0:0:0:
256,192,10892,1,0,0:0:0:0:
256,192,11006,1,8,0:0:0:0:
256,192,11233,1,8,0:0:0:0:
256,192,11461,1,0,0:0:0:0:
256,192,11688,1,0,0:0:0:0:
256,192,11801,1,0,0:0:0:0:
256,192,11915,1,8,0:0:0:0:
256,192,12142,1,0,0:0:0:0:
256,192,12597,1,0,0:0:0:0:
256,192,12824,1,8,0:0:0:0:
256,192,13051,1,0,0:0:0:0:
256,192,13165,1,0,0:0:0:0:
256,192,13279,1,8,0:0:0:0:
256,192,13620,1,0,0:0:0:0:
256,192,13733,1,8,0:0:0:0:
256,192,13961,1,8,0:0:0:0:
256,192,14074,1,8,0:0:0:0:
256,192,14188,1,0,0:0:0:0:
256,192,14415,1,0,0:0:0:0:
256,192,14529,1,0,0:0:0:0:
256,192,14642,1,8,0:0:0:0:
256,192,14870,1,0,0:0:0:0:
256,192,15324,1,0,0:0:0:0:
256,192,15551,1,8,0:0:0:0:
256,192,15779,1,0,0:0:0:0:
256,192,16006,1,0,0:0:0:0:
256,192,16120,1,8,0:0:0:0:
256,192,16233,1,0,0:0:0:0:
256,192,16347,1,8,0:0:0:0:
256,192,16461,1,8,0:0:0:0:
256,192,16688,1,0,0:0:0:0:
256,192,16915,1,0,0:0:0:0:
256,192,17029,1,8,0:0:0:0:
256,192,17142,1,8,0:0:0:0:
256,192,17370,1,4,0:0:0:0:
256,192,17824,1,12,0:0:0:0:
256,192,18051,1,0,0:0:0:0:
256,192,18165,1,0,0:0:0:0:
256,192,18392,1,0,0:0:0:0:
256,192,18506,1,8,0:0:0:0:
256,192,18733,1,0,0:0:0:0:
256,192,18961,1,0,0:0:0:0:
256,192,19074,1,0,0:0:0:0:
256,192,19188,1,8,0:0:0:0:
256,192,19415,1,8,0:0:0:0:
256,192,19529,1,0,0:0:0:0:
256,192,19642,1,8,0:0:0:0:
256,192,19870,1,8,0:0:0:0:
256,192,19983,1,0,0:0:0:0:
256,192,20211,1,0,0:0:0:0:
256,192,20324,1,8,0:0:0:0:
256,192,20551,1,0,0:0:0:0:
256,192,20779,1,0,0:0:0:0:
256,192,20892,1,0,0:0:0:0:
256,192,21006,1,8,0:0:0:0:
256,192,21233,1,0,0:0:0:0:
256,192,21347,1,8,0:0:0:0:
256,192,21461,1,8,0:0:0:0:
256,192,21688,1,0,0:0:0:0:
256,192,21801,1,8,0:0:0:0:
256,192,22029,1,8,0:0:0:0:
256,192,22142,1,0,0:0:0:0:
256,192,22370,1,0,0:0:0:0:
256,192,22597,1,0,0:0:0:0:
256,192,22711,1,0,0:0:0:0:
256,192,22824,1,8,0:0:0:0:
256,192,23051,1,8,0:0:0:0:
256,192,23165,1,8,0:0:0:0:
256,192,23279,1,0,0:0:0:0:
256,192,23506,1,8,0:0:0:0:
256,192,23620,1,8,0:0:0:0:
256,192,23847,1,8,0:0:0:0:
256,192,23961,1,0,0:0:0:0:
256,192,24188,1,0,0:0:0:0:
256,192,24415,1,0,0:0:0:0:
256,192,24529,1,0,0:0:0:0:
256,192,24642,1,8,0:0:0:0:
256,192,24756,1,8,0:0:0:0:
256,192,24870,1,8,0:0:0:0:
256,192,25097,1,4,0:0:0:0:
256,192,25438,1,0,0:0:0:0:
256,192,25551,1,8,0:0:0:0:
256,192,25779,1,8,0:0:0:0:
256,192,25892,1,8,0:0:0:0:
256,192,26006,1,0,0:0:0:0:
256,192,26233,1,0,0:0:0:0:
256,192,26461,1,8,0:0:0:0:
256,192,26688,1,0,0:0:0:0:
256,192,26801,1,0,0:0:0:0:
256,192,26915,1,8,0:0:0:0:
256,192,27256,1,8,0:0:0:0:
256,192,27370,1,0,0:0:0:0:
256,192,27597,1,8,0:0:0:0:
256,192,27711,1,0,0:0:0:0:
256,192,27824,1,0,0:0:0:0:
256,192,28051,1,0,0:0:0:0:
256,192,28279,1,8,0:0:0:0:
256,192,28392,1,0,0:0:0:0:
256,192,28506,1,8,0:0:0:0:
256,192,28620,1,8,0:0:0:0:
256,192,28733,1,0,0:0:0:0:
256,192,29074,1,0,0:0:0:0:
256,192,29188,1,8,0:0:0:0:
256,192,29415,1,0,0:0:0:0:
256,192,29529,1,0,0:0:0:0:
256,192,29642,1,8,0:0:0:0:
256,192,29870,1,0,0:0:0:0:
256,192,30097,1,8,0:0:0:0:
256,192,30211,1,8,0:0:0:0:
256,192,30324,1,0,0:0:0:0:
256,192,30438,1,0,0:0:0:0:
256,192,30551,1,8,0:0:0:0:
256,192,30892,1,8,0:0:0:0:
256,192,31006,1,0,0:0:0:0:
256,192,31233,1,0,0:0:0:0:
256,192,31347,1,0,0:0:0:0:
256,192,31461,1,8,0:0:0:0:
256,192,31688,1,0,0:0:0:0:
256,192,31915,1,8,0:0:0:0:
256,192,32142,1,8,0:0:0:0:
256,192,32256,1,8,0:0:0:0:
256,192,32370,1,0,0:0:0:0:
256,192,32597,1,0,0:0:0:0:
256,192,32711,1,0,0:0:0:0:
256,192,32824,1,8,0:0:0:0:
256,192,33051,1,8,0:0:0:0:
256,192,33279,1,0,0:0:0:0:
256,192,33506,1,8,0:0:0:0:
256,192,33733,1,8,0:0:0:0:
256,192,33847,1,0,0:0:0:0:
256,192,33961,1,8,0:0:0:0:
256,192,34074,1,8,0:0:0:0:
256,192,34188,1,0,0:0:0:0:
256,192,34415,1,0,0:0:0:0:
256,192,34529,1,0,0:0:0:0:
256,192,34642,1,8,0:0:0:0:
256,192,34870,1,0,0:0:0:0:
256,192,35097,1,8,0:0:0:0:
256,192,35211,1,0,0:0:0:0:
256,192,35324,1,8,0:0:0:0:
256,192,35438,1,8,0:0:0:0:
256,192,35551,1,0,0:0:0:0:
256,192,35665,1,0,0:0:0:0:
256,192,35779,1,8,0:0:0:0:
256,192,36006,1,0,0:0:0:0:
256,192,36233,1,0,0:0:0:0:
256,192,36347,1,0,0:0:0:0:
256,192,36461,1,8,0:0:0:0:
256,192,36574,1,0,0:0:0:0:
256,192,36688,1,8,0:0:0:0:
256,192,36915,1,0,0:0:0:0:
256,192,37142,1,8,0:0:0:0:
256,192,37256,1,8,0:0:0:0:
256,192,37370,1,0,0:0:0:0:
256,192,37597,1,8,0:0:0:0:
256,192,37824,1,0,0:0:0:0:
256,192,37938,1,8,0:0:0:0:
256,192,38051,1,0,0:0:0:0:
256,192,38165,1,0,0:0:0:0:
256,192,38279,1,8,0:0:0:0:
256,192,38506,1,0,0:0:0:0:
256,192,38733,1,0,0:0:0:0:
256,192,38847,1,0,0:0:0:0:
256,192,38961,1,8,0:0:0:0:
256,192,39188,1,4,0:0:0:0:
256,192,39642,1,12,0:0:0:0:
256,192,39870,1,0,0:0:0:0:
256,192,40097,1,8,0:0:0:0:
256,192,40324,1,8,0:0:0:0:
256,192,40438,1,8,0:0:0:0:
256,192,40551,1,0,0:0:0:0:
256,192,40779,1,0,0:0:0:0:
256,192,41006,1,8,0:0:0:0:
256,192,41120,1,8,0:0:0:0:
256,192,41233,1,0,0:0:0:0:
256,192,41347,1,8,0:0:0:0:
256,192,41461,1,0,0:0:0:0:
256,192,41688,1,0,0:0:0:0:
256,192,41915,1,8,0:0:0:0:
256,192,42142,1,0,0:0:0:0:
256,192,42256,1,0,0:0:0:0:
256,192,42370,1,8,0:0:0:0:
256,192,42597,1,0,0:0:0:0:
256,192,42711,1,0,0:0:0:0:
256,192,42824,1,8,0:0:0:0:
256,192,42938,1,0,0:0:0:0:
256,192,43051,1,8,0:0:0:0:
256,192,43165,1,8,0:0:0:0:
256,192,43279,1,0,0:0:0:0:
256,192,43506,1,0,0:0:0:0:
256,192,43733,1,8,0:0:0:0:
256,192,43961,1,8,0:0:0:0:
256,192,44074,1,8,0:0:0:0:
256,192,44188,1,0,0:0:0:0:
256,192,44415,1,0,0:0:0:0:
256,192,44529,1,8,0:0:0:0:
256,192,44642,1,0,0:0:0:0:
256,192,44756,1,0,0:0:0:0:
256,192,44870,1,8,0:0:0:0:
256,192,45097,1,0,0:0:0:0:
256,192,45324,1,8,0:0:0:0:
256,192,45551,1,0,0:0:0:0:
256,192,45665,1,0,0:0:0:0:
256,192,45779,1,8,0:0:0:0:
256,192,45892,1,0,0:0:0:0:
256,192,46006,1,8,0:0:0:0:
256,192,46233,1,8,0:0:0:0:
256,192,46347,1,0,0:0:0:0:
256,192,46461,1,8,0:0:0:0:
256,192,46574,1,8,0:0:0:0:
256,192,46688,1,0,0:0:0:0:
256,192,46801,1,0,0:0:0:0:
256,192,46915,1,8,0:0:0:0:
256,192,47142,1,0,0:0:0:0:
256,192,47370,1,8,0:0:0:0:
256,192,47597,1,0,0:0:0:0:
256,192,47711,1,0,0:0:0:0:
256,192,47824,1,8,0:0:0:0:
256,192,48051,1,0,0:0:0:0:
256,192,48165,1,8,0:0:0:0:
256,192,48279,1,0,0:0:0:0:
256,192,48392,1,0,0:0:0:0:
256,192,48506,1,8,0:0:0:0:
256,192,48733,1,0,0:0:0:0:
256,192,48961,1,0,0:0:0:0:
256,192,49074,1,0,0:0:0:0:
256,192,49188,1,8,0:0:0:0:
256,192,49415,1,8,0:0:0:0:
256,192,49529,1,8,0:0:0:0:
256,192,49642,1,0,0:0:0:0:
256,192,49756,1,8,0:0:0:0:
256,192,49870,1,0,0:0:0:0:
256,192,49983,1,0,0:0:0:0:
256,192,50097,1,8,0:0:0:0:
256,192,50324,1,8,0:0:0:0:
256,192,50438,1,8,0:0:0:0:
256,192,50551,1,0,0:0:0:0:
256,192,50779,1,0,0:0:0:0:
256,192,51006,1,8,0:0:0:0:
256,192,51120,1,8,0:0:0:0:
256,192,51233,1,0,0:0:0:0:
256,192,51347,1,0,0:0:0:0:
256,192,51461,1,8,0:0:0:0:
256,192,51688,1,0,0:0:0:0:
256,192,51801,1,8,0:0:0:0:
256,192,51915,1,0,0:0:0:0:
256,192,52029,1,0,0:0:0:0:
256,192,52142,1,8,0:0:0:0:
256,192,52256,1,8,0:0:0:0:
256,192,52370,1,0,0:0:0:0:
256,192,52597,1,0,0:0:0:0:
256,192,52711,1,0,0:0:0:0:
256,192,52824,1,8,0:0:0:0:
256,192,52938,1,0,0:0:0:0:
256,192,53051,1,8,0:0:0:0:
256,192,53165,1,8,0:0:0:0:
256,192,53279,1,0,0:0:0:0:
256,192,53392,1,8,0:0:0:0:
256,192,53506,1,0,0:0:0:0:
256,192,53620,1,0,0:0:0:0:
256,192,53733,1,8,0:0:0:0:
256,192,53961,1,12,0:0:0:0:
256,192,54188,8,0,55779,0:0:0:0:
256,192,56006,5,8,0:0:0:0:
256,192,56120,1,8,0:0:0:0:
256,192,56233,1,0,0:0:0:0:
256,192,56347,1,0,0:0:0:0:
256,192,56461,1,8,0:0:0:0:
256,192,56688,1,0,0:0:0:0:
256,192,56915,1,0,0:0:0:0:
256,192,57029,1,0,0:0:0:0:
256,192,57142,1,8,0:0:0:0:
256,192,57370,1,4,0:0:0:0:
256,192,57824,1,12,0:0:0:0:
256,192,58051,1,0,0:0:0:0:
256,192,58279,1,8,0:0:0:0:
256,192,58506,1,8,0:0:0:0:
256,192,58620,1,8,0:0:0:0:
256,192,58733,1,0,0:0:0:0:
256,192,58961,1,0,0:0:0:0:
256,192,59074,1,0,0:0:0:0:
256,192,59188,1,8,0:0:0:0:
256,192,59415,1,0,0:0:0:0:
256,192,59642,1,8,0:0:0:0:
256,192,59756,1,8,0:0:0:0:
256,192,59870,1,0,0:0:0:0:
256,192,59983,1,0,0:0:0:0:
256,192,60097,1,8,0:0:0:0:
256,192,60324,1,0,0:0:0:0:
256,192,60551,1,0,0:0:0:0:
256,192,60665,1,8,0:0:0:0:
256,192,60779,1,0,0:0:0:0:
256,192,60892,1,0,0:0:0:0:
256,192,61006,1,8,0:0:0:0:
256,192,61233,1,0,0:0:0:0:
256,192,61347,1,8,0:0:0:0:
256,192,61461,1,0,0:0:0:0:
256,192,61688,1,8,0:0:0:0:
256,192,61801,1,0,0:0:0:0:
256,192,61915,1,8,0:0:0:0:
256,192,62029,1,8,0:0:0:0:
256,192,62142,1,0,0:0:0:0:
256,192,62256,1,0,0:0:0:0:
256,192,62370,1,8,0:0:0:0:
256,192,62597,1,0,0:0:0:0:
256,192,62711,1,0,0:0:0:0:
256,192,62824,1,8,0:0:0:0:
256,192,62938,1,0,0:0:0:0:
256,192,63051,1,8,0:0:0:0:
256,192,63279,1,8,0:0:0:0:
256,192,63392,1,0,0:0:0:0:
256,192,63506,1,0,0:0:0:0:
256,192,63620,1,8,0:0:0:0:
256,192,63733,1,0,0:0:0:0:
256,192,63847,1,0,0:0:0:0:
256,192,63961,1,8,0:0:0:0:
256,192,64188,1,8,0:0:0:0:
256,192,64301,1,8,0:0:0:0:
256,192,64415,1,0,0:0:0:0:
256,192,64529,1,0,0:0:0:0:
256,192,64642,1,8,0:0:0:0:
256,192,64870,1,8,0:0:0:0:
256,192,64983,1,8,0:0:0:0:
256,192,65097,1,0,0:0:0:0:
256,192,65324,1,0,0:0:0:0:
256,192,65551,1,8,0:0:0:0:
256,192,65665,1,0,0:0:0:0:
256,192,65779,1,8,0:0:0:0:
256,192,65892,1,8,0:0:0:0:
256,192,66006,1,0,0:0:0:0:
256,192,66233,1,0,0:0:0:0:
256,192,66461,1,8,0:0:0:0:
256,192,66688,1,8,0:0:0:0:
256,192,66801,1,0,0:0:0:0:
256,192,66915,1,8,0:0:0:0:
256,192,67142,1,0,0:0:0:0:
256,192,67256,1,0,0:0:0:0:
256,192,67370,1,8,0:0:0:0:
256,192,67483,1,0,0:0:0:0:
256,192,67597,1,8,0:0:0:0:
256,192,67711,1,8,0:0:0:0:
256,192,67824,1,0,0:0:0:0:
256,192,68051,1,0,0:0:0:0:
256,192,68279,1,8,0:0:0:0:
256,192,68506,1,0,0:0:0:0:
256,192,68620,1,0,0:0:0:0:
256,192,68733,1,8,0:0:0:0:
256,192,68961,1,0,0:0:0:0:
256,192,69074,1,0,0:0:0:0:
256,192,69188,1,8,0:0:0:0:
256,192,69301,1,0,0:0:0:0:
256,192,69415,1,8,0:0:0:0:
256,192,69642,1,0,0:0:0:0:
256,192,69870,1,8,0:0:0:0:
256,192,69983,1,8,0:0:0:0:
256,192,70097,1,0,0:0:0:0:
256,192,70211,1,0,0:0:0:0:
256,192,70324,1,8,0:0:0:0:
256,192,70551,1,0,0:0:0:0:
256,192,70779,1,0,0:0:0:0:
256,192,70892,1,0,0:0:0:0:
256,192,71006,1,8,0:0:0:0:
256,192,71233,1,8,0:0:0:0:
256,192,71347,1,8,0:0:0:0:
256,192,71461,1,0,0:0:0:0:
256,192,71574,1,8,0:0:0:0:
256,192,71688,1,0,0:0:0:0:
256,192,71801,1,0,0:0:0:0:
256,192,71915,1,12,0:0:0:0:
256,192,72142,1,0,0:0:0:0:
256,192,72370,1,12,0:0:0:0:
256,192,72597,1,0,0:0:0:0:
256,192,72824,1,8,0:0:0:0:
256,192,73051,1,0,0:0:0:0:
256,192,73165,1,0,0:0:0:0:
256,192,73279,1,8,0:0:0:0:
256,192,73506,1,8,0:0:0:0:
256,192,73620,1,0,0:0:0:0:
256,192,73733,1,8,0:0:0:0:
256,192,73961,1,0,0:0:0:0:
256,192,74188,1,0,0:0:0:0:
256,192,74301,1,8,0:0:0:0:
256,192,74415,1,0,0:0:0:0:
256,192,74529,1,0,0:0:0:0:
256,192,74642,1,8,0:0:0:0:
256,192,74870,1,0,0:0:0:0:
256,192,75097,1,8,0:0:0:0:
256,192,75211,1,8,0:0:0:0:
256,192,75324,1,0,0:0:0:0:
256,192,75438,1,0,0:0:0:0:
256,192,75551,1,8,0:0:0:0:
256,192,75779,1,8,0:0:0:0:
256,192,75892,1,0,0:0:0:0:
256,192,76006,1,8,0:0:0:0:
256,192,76233,1,0,0:0:0:0:
256,192,76347,1,8,0:0:0:0:
256,192,76461,1,0,0:0:0:0:
256,192,76574,1,0,0:0:0:0:
256,192,76688,1,8,0:0:0:0:
256,192,76801,1,0,0:0:0:0:
256,192,76915,1,8,0:0:0:0:
256,192,77142,1,0,0:0:0:0:
256,192,77256,1,0,0:0:0:0:
256,192,77370,1,8,0:0:0:0:
256,192,77483,1,8,0:0:0:0:
256,192,77597,1,0,0:0:0:0:
256,192,77824,1,8,0:0:0:0:
256,192,77938,1,0,0:0:0:0:
256,192,78051,1,0,0:0:0:0:
256,192,78165,1,8,0:0:0:0:
256,192,78279,1,0,0:0:0:0:
256,192,78392,1,0,0:0:0:0:
256,192,78506,1,8,0:0:0:0:
256,192,78733,1,0,0:0:0:0:
256,192,78847,1,0,0:0:0:0:
256,192,78961,1,8,0:0:0:0:
256,192,79074,1,0,0:0:0:0:
256,192,79188,1,8,0:0:0:0:
256,192,79415,1,0,0:0:0:0:
256,192,79529,1,8,0:0:0:0:
256,192,79642,1,0,0:0:0:0:
256,192,79870,1,0,0:0:0:0:
256,192,80097,1,8,0:0:0:0:
256,192,80324,1,8,0:0:0:0:
256,192,80438,1,8,0:0:0:0:
256,192,80551,1,0,0:0:0:0:
256,192,80779,1,0,0:0:0:0:
256,192,80892,1,8,0:0:0:0:
256,192,81006,1,0,0:0:0:0:
256,192,81120,1,0,0:0:0:0:
256,192,81233,1,8,0:0:0:0:
256,192,81461,1,0,0:0:0:0:
256,192,81688,1,8,0:0:0:0:
256,192,81801,1,0,0:0:0:0:
256,192,81915,1,8,0:0:0:0:
256,192,82029,1,8,0:0:0:0:
256,192,82142,1,0,0:0:0:0:
256,192,82256,1,0,0:0:0:0:
256,192,82370,1,8,0:0:0:0:
256,192,82597,1,0,0:0:0:0:
256,192,82824,1,8,0:0:0:0:
256,192,82938,1,8,0:0:0:0:
256,192,83051,1,0,0:0:0:0:
256,192,83165,1,0,0:0:0:0:
256,192,83279,1,0,0:0:0:0:
256,192,83506,1,0,0:0:0:0:
256,192,83733,1,8,0:0:0:0:
256,192,83847,1,0,0:0:0:0:
256,192,83961,1,8,0:0:0:0:
256,192,84074,1,8,0:0:0:0:
256,192,84188,1,0,0:0:0:0:
256,192,84301,1,8,0:0:0:0:
256,192,84415,1,0,0:0:0:0:
256,192,84529,1,0,0:0:0:0:
256,192,84642,1,8,0:0:0:0:
256,192,84870,1,4,0:0:0:0:
256,192,85097,1,0,0:0:0:0:
256,192,85211,1,0,0:0:0:0:
256,192,85324,1,8,0:0:0:0:
256,192,85438,1,0,0:0:0:0:
256,192,85551,1,8,0:0:0:0:
256,192,85665,1,8,0:0:0:0:
256,192,85779,1,0,0:0:0:0:
256,192,85892,1,0,0:0:0:0:
256,192,86006,1,8,0:0:0:0:
256,192,86120,1,0,0:0:0:0:
256,192,86233,1,0,0:0:0:0:
256,192,86461,1,12,0:0:0:0:
256,192,86688,1,4,0:0:0:0:
256,192,86915,12,0,88733,0:0:0:0:
