osu file format v14

[General]
AudioFilename: audio.mp3
AudioLeadIn: 0
PreviewTime: 68431
Countdown: 0
SampleSet: Normal
StackLeniency: 0.7
Mode: 0
LetterboxInBreaks: 0
WidescreenStoryboard: 0

[Editor]
Bookmarks: 6876,21320
DistanceSpacing: 1.4
BeatDivisor: 4
GridSize: 4
TimelineZoom: 1.5

[Metadata]
Title:Kami no Manimani
TitleUnicode:神のまにまに
Artist:Dancing Dolls
ArtistUnicode:Dancing Dolls
Creator:M7x7
Version:Hard
Source:
Tags:
BeatmapID:946770
BeatmapSetID:439978

[Difficulty]
HPDrainRate:5
CircleSize:4
OverallDifficulty:5
ApproachRate:7
SliderMultiplier:1.3
SliderTickRate:1

[Events]
//Background and Video events
0,0,"enterdesk (12).jpg",0,0
//Break Periods
2,7743,20865
2,192631,198643
//Storyboard Layer 0 (Background)
//Storyboard Layer 1 (Fail)
//Storyboard Layer 2 (Pass)
//Storyboard Layer 3 (Foreground)
//Storyboard Sound Samples

[TimingPoints]
432,444.444444444444,4,1,1,25,1,0
876,-100,4,3,1,38,0,0
1098,-100,4,1,1,25,0,0
1765,-100,4,3,1,38,0,0
1987,-100,4,1,1,24,0,0
2654,-100,4,3,1,38,0,0
3765,-100,4,1,1,24,0,0
4431,-100,4,3,1,33,0,0
6209,-166.666666666667,4,2,1,60,0,0
7543,-100,4,1,0,40,0,1
21987,-100,4,3,1,38,0,1
22654,-100,4,1,1,40,0,0
23543,-100,4,1,1,24,0,0
37320,-100,4,3,1,30,0,0
37765,-100,4,1,1,24,0,0
50209,-100,4,1,1,40,0,0
50654,-100,4,3,1,40,0,0
51543,-100,4,1,1,24,0,0
51987,-133.333333333333,4,2,1,54,0,0
59098,-100,4,1,1,24,0,0
68431,-100,4,2,2,36,0,0
68876,-100,4,2,2,50,0,0
69320,-100,4,2,2,80,0,0
69765,-100,4,2,2,90,0,1
97320,-166.666666666667,4,2,1,100,0,1
98209,-100,4,2,2,100,0,0
99098,-100,4,1,0,21,0,0
99987,-100,4,1,1,24,0,0
113320,-100,4,3,1,50,0,0
114209,-100,4,1,1,24,0,0
127320,-100,4,3,1,30,0,0
127543,-100,4,2,0,30,0,0
128098,-100,4,3,0,30,0,0
128431,-133.333333333333,4,2,1,54,0,0
135543,-100,4,1,1,24,0,0
144876,-100,4,2,2,36,0,0
145320,-100,4,2,2,50,0,0
145765,-100,4,2,2,80,0,0
146209,-100,4,2,2,100,0,1
174654,-100,4,2,1,100,0,0
178209,-100,4,2,1,80,0,0
188876,-100,4,3,1,43,0,0
189320,-100,4,3,1,45,0,0
189765,-100,4,3,1,50,0,0
190209,-100,4,3,1,51,0,0
190654,-200,4,1,0,24,0,0
192431,-133.333333333333,4,2,0,5,0,0
199543,-133.333333333333,4,3,1,70,0,0
204876,-83.3333333333333,4,3,1,45,0,0
206654,-100,4,2,2,100,0,1
220876,-100,4,1,0,24,0,0

[Colours]
Combo1 : 255,208,66
Combo2 : 84,150,239
Combo3 : 98,198,188
Combo4 : 247,81,105

[HitObjects]
88,320,432,5,4,0:0:0:0:
88,320,543,2,0,P|140:356|184:352,1,97.5,0|2,0:0|0:0,0:0:0:0:
160,264,1098,2,0,P|172:224|192:196,1,65
208,176,1431,2,0,L|320:148,1,97.5,0|2,0:0|0:0,0:0:0:0:
356,72,1987,1,0,0:0:0:0:
400,152,2209,1,0,0:0:0:0:
400,152,2320,2,0,P|368:220|328:240,1,97.5,0|2,0:0|0:0,0:0:0:0:
432,340,2987,2,0,L|472:368,2,32.5,2|0|2,0:0|0:0|0:0,0:0:0:0:
296,320,3543,2,0,L|208:340,1,65,2|0,0:0|0:0,0:0:0:0:
196,344,3876,1,0,0:0:0:0:
160,348,3987,6,0,P|100:332|60:248,1,130,4|2,0:0|0:0,0:0:0:0:
152,252,4654,1,2,0:0:0:0:
152,252,4765,1,2,0:0:0:0:
152,252,4876,2,0,L|148:196,3,32.5,8|2|2|2,0:0|0:0|0:0|0:0,0:0:0:0:
156,172,5320,2,0,L|152:136,3,32.5,2|2|8|4,0:0|0:0|0:0|0:0,0:0:0:0:
252,72,5765,5,2,0:0:0:0:
332,88,6209,5,0,0:0:0:0:
408,104,6654,5,0,0:0:0:0:
436,228,6876,2,0,L|444:273,1,38.9999988098145,0|2,0:0|0:0,0:0:0:0:
436,228,7543,5,4,0:0:0:0:
156,152,21765,6,0,L|164:224,1,65
192,252,22098,1,8,0:0:0:0:
232,272,22209,2,0,L|284:280,3,32.5,2|2|8|4,0:0|0:0|0:0|0:0,0:0:0:0:
232,272,22654,1,4,0:0:0:0:
232,272,23543,6,0,P|280:272|336:204,1,130,0|8,0:0|0:0,0:0:0:0:
400,160,24209,1,0,0:0:0:0:
400,160,24320,1,0,0:0:0:0:
400,160,24431,2,0,L|392:80,2,65,0|0|8,0:0|0:0|0:0,0:0:0:0:
408,244,25098,2,0,L|444:272,1,32.5
408,244,25320,6,0,P|412:304|488:348,2,130,0|8|0,0:0|0:0|0:0,0:0:0:0:
480,200,26431,1,0,0:0:0:0:
480,200,26654,1,8,0:0:0:0:
448,80,26876,1,0,0:0:0:0:
448,80,27098,6,0,P|388:72|340:104,1,97.5
316,104,27543,2,0,L|216:92,1,97.5,8|0,0:0|0:0,0:0:0:0:
219,92,27987,1,0,0:0:0:0:
164,156,28209,1,0,0:0:0:0:
180,240,28431,1,8,0:0:0:0:
132,312,28654,1,0,0:0:0:0:
216,316,28876,6,0,P|288:308|320:260,2,130,0|8|0,0:0|0:0|0:0,0:0:0:0:
180,240,29987,2,0,L|200:152,1,65,0|8,0:0|0:0,0:0:0:0:
268,136,30431,1,0,0:0:0:0:
192,92,30654,6,0,P|160:68|104:68,1,97.5,4|0,0:0|0:0,0:0:0:0:
72,104,31098,2,0,L|52:208,1,97.5,8|0,0:0|0:0,0:0:0:0:
72,244,31543,2,0,L|72:316,1,65
140,360,31987,1,8,0:0:0:0:
252,320,32209,1,0,0:0:0:0:
252,320,32320,1,0,0:0:0:0:
252,320,32431,6,0,L|328:292,2,65,0|0|8,0:0|0:0|0:0,0:0:0:0:
200,252,33098,2,0,P|168:200|176:132,1,130
192,52,33765,1,8,0:0:0:0:
256,112,33987,2,0,L|392:100,1,130
444,40,34654,1,8,0:0:0:0:
472,120,34876,2,0,L|480:256,1,130
404,292,35543,2,0,L|432:376,1,65,8|0,0:0|0:0,0:0:0:0:
324,244,35987,6,0,L|296:160,1,65
232,340,36431,1,8,0:0:0:0:
208,340,36543,2,0,L|92:340,1,97.5,8|0,0:0|0:0,0:0:0:0:
92,192,37098,1,8,0:0:0:0:
172,220,37320,2,0,L|196:260,3,32.5,8|8|4|4,0:0|0:0|0:0|0:0,0:0:0:0:
172,220,37765,6,0,P|168:164|228:108,1,130,4|8,0:0|0:0,0:0:0:0:
320,72,38543,1,0,0:0:0:0:
320,72,38654,2,0,L|240:32,1,65
176,40,39098,1,8,0:0:0:0:
88,84,39320,2,0,L|136:116,1,32.5
88,84,39543,6,0,P|100:136|60:208,2,130,0|8|0,0:0|0:0|0:0,0:0:0:0:
172,52,40654,2,0,L|260:44,2,65,0|8|0,0:0|0:0|0:0,0:0:0:0:
304,104,41320,5,0,0:0:0:0:
420,52,41654,1,0,0:0:0:0:
420,52,41765,2,0,P|440:84|440:156,1,97.5,8|0,0:0|0:0,0:0:0:0:
468,180,42209,2,0,L|444:240,1,65
456,324,42654,1,8,0:0:0:0:
376,296,42876,1,0,0:0:0:0:
296,264,43098,6,0,P|272:200|208:176,2,130,0|8|0,0:0|0:0|0:0,0:0:0:0:
340,340,44209,1,0,0:0:0:0:
256,340,44431,1,8,0:0:0:0:
176,340,44654,1,0,0:0:0:0:
124,272,44876,6,0,L|104:136,1,130,4|8,0:0|0:0,0:0:0:0:
184,44,45654,1,0,0:0:0:0:
184,44,45765,2,0,L|264:56,1,65
320,196,46209,2,0,P|297:153|293:119,1,65,8|0,0:0|0:0,0:0:0:0:
396,40,46654,5,0,0:0:0:0:
396,40,46876,2,0,L|400:116,1,65
408,204,47320,1,0,0:0:0:0:
372,296,47543,2,0,P|304:256|244:264,1,130,0|8,0:0|0:0,0:0:0:0:
208,332,48209,1,0,0:0:0:0:
168,256,48431,6,0,P|208:184|256:172,1,130,4|8,0:0|0:0,0:0:0:0:
249,171,49098,1,0,0:0:0:0:
188,72,49320,2,0,L|284:56,2,97.5
108,40,50209,5,8,0:0:0:0:
108,40,50320,2,0,L|92:144,1,97.5,12|0,0:0|0:0,0:0:0:0:
88,160,50765,1,0,0:0:0:0:
84,184,50876,1,0,0:0:0:0:
20,240,51098,2,0,L|8:320,1,65
84,340,51543,1,0,0:0:0:0:
208,180,51987,6,0,P|240:160|312:168,1,97.50000371933,2|0,0:0|0:0,0:0:0:0:
336,300,52765,1,0,0:0:0:0:
336,300,52876,2,0,L|344:232,1,48.750001859665,2|0,0:0|0:0,0:0:0:0:
408,188,53320,2,0,L|400:140,1,48.750001859665
428,44,53765,6,0,P|380:40|337:62,1,97.50000371933
174,62,54654,2,0,P|131:40|84:44,1,97.50000371933,2|0,0:0|0:0,0:0:0:0:
112,136,55320,1,0,0:0:0:0:
112,136,55431,1,0,0:0:0:0:
112,136,55543,6,0,L|128:236,1,97.50000371933,2|0,0:0|0:0,0:0:0:0:
68,300,56209,2,0,P|111:322|158:318,1,97.50000371933,2|0,0:0|0:0,0:0:0:0:
252,340,56876,1,0,0:0:0:0:
272,244,57098,1,0,0:0:0:0:
272,244,57209,1,0,0:0:0:0:
272,244,57320,6,0,L|264:188,1,48.750001859665,2|0,0:0|0:0,0:0:0:0:
324,316,57765,2,0,L|356:328,3,24.3750009298325,2|0|2|0,0:0|0:0|0:0|0:0,0:0:0:0:
416,320,58209,2,0,L|476:304,2,48.750001859665,2|0|2,0:0|0:0|0:0,0:0:0:0:
356,288,58876,1,0,0:0:0:0:
300,248,59098,6,0,P|248:224|188:236,1,97.5,4|0,0:0|0:0,0:0:0:0:
164,236,59543,2,0,L|120:124,1,97.5,8|0,0:0|0:0,0:0:0:0:
88,132,59987,1,0,0:0:0:0:
144,72,60209,1,0,0:0:0:0:
220,92,60431,1,8,0:0:0:0:
276,40,60654,1,0,0:0:0:0:
276,40,60876,6,0,P|300:80|292:140,1,97.5,4|0,0:0|0:0,0:0:0:0:
324,168,61320,2,0,L|424:188,1,97.5,8|0,0:0|0:0,0:0:0:0:
419,187,61765,1,0,0:0:0:0:
464,248,61987,2,0,L|476:320,1,65,0|8,0:0|0:0,0:0:0:0:
372,96,62654,6,0,L|356:12,2,65,4|0|8,0:0|0:0|0:0,0:0:0:0:
324,168,63320,1,0,0:0:0:0:
276,240,63543,2,0,P|280:288|356:328,1,130,0|8,0:0|0:0,0:0:0:0:
256,336,64209,1,0,0:0:0:0:
256,336,64320,1,0,0:0:0:0:
256,336,64431,6,0,L|176:356,2,65,0|0|8,0:0|0:0|0:0,0:0:0:0:
296,260,65098,2,0,P|256:224|272:128,1,130
200,88,65765,2,0,L|136:64,1,65,8|0,0:0|0:0,0:0:0:0:
256,192,66209,12,4,67987,0:0:0:0:
256,56,68431,5,0,0:0:0:0:
256,64,68876,1,0,0:0:0:0:
256,72,69320,1,0,0:0:0:0:
285,208,69765,6,0,P|229:212|173:176,1,97.5,4|0,0:0|0:0,0:0:0:0:
160,164,70209,2,0,L|128:284,1,97.5
96,280,70654,1,2,0:0:0:0:
96,280,70876,2,2,L|105:356,1,65
269,168,71543,6,0,P|321:164|361:184,1,97.5
393,212,71987,2,0,L|433:108,1,97.5
469,104,72431,1,2,0:0:0:0:
469,104,72654,2,2,L|458:20,1,65
412,200,73320,5,0,0:0:0:0:
336,56,73654,1,0,0:0:0:0:
336,56,73765,2,0,P|288:72|240:68,1,97.5
208,96,74209,2,2,L|192:168,1,65
88,220,74654,2,0,L|108:136,1,65,2|0,0:0|0:0,0:0:0:0:
32,32,75098,5,0,0:0:0:0:
32,32,75320,2,0,L|36:100,1,65
104,248,75765,1,0,0:0:0:0:
104,248,75876,1,0,0:0:0:0:
104,248,75987,2,0,L|192:260,1,65
188,340,76431,1,0,0:0:0:0:
192,332,76543,1,0,0:0:0:0:
196,324,76654,1,0,0:0:0:0:
200,316,76765,1,0,0:0:0:0:
204,308,76876,6,0,P|232:272|284:260,1,97.5,4|0,0:0|0:0,0:0:0:0:
316,232,77320,2,0,L|348:120,1,97.5
320,100,77765,1,2,0:0:0:0:
320,100,77987,2,2,L|312:28,1,65
436,156,78654,6,0,P|452:192|500:232,1,97.5
480,272,79098,2,0,L|436:376,1,97.5
396,364,79543,1,2,0:0:0:0:
396,364,79765,2,2,L|320:364,1,65
188,272,80431,6,0,P|160:232|164:164,1,97.5
184,148,80876,2,0,L|276:116,1,97.5
260,76,81320,2,4,L|340:104,1,65,2|2,0:0|0:0,0:0:0:0:
360,32,81765,2,0,L|408:96,1,65,2|0,0:0|0:0,0:0:0:0:
464,144,82209,6,0,L|468:208,1,65
472,328,82654,2,0,P|424:372|352:360,2,130
396,288,83765,1,0,0:0:0:0:
396,288,83876,1,0,0:0:0:0:
396,288,83987,6,0,L|356:180,1,97.5,4|0,0:0|0:0,0:0:0:0:
336,160,84431,2,0,P|288:168|236:148,1,97.5
228,112,84876,2,2,L|240:24,2,65
64,160,85765,6,0,P|96:224|140:248,1,97.5
160,240,86209,2,0,L|268:240,1,97.5
288,272,86654,2,2,P|328:312|356:316,2,65
392,140,87543,6,0,P|352:96|308:84,1,97.5
276,100,87987,2,0,L|196:12,1,97.5
136,72,88431,2,2,L|120:144,1,65
208,228,88876,2,0,L|224:144,1,65,2|0,0:0|0:0,0:0:0:0:
220,80,89320,5,0,0:0:0:0:
300,48,89543,1,0,0:0:0:0:
300,48,89654,1,0,0:0:0:0:
300,48,89765,2,0,L|380:48,2,65
220,80,90431,1,0,0:0:0:0:
284,128,90654,1,2,0:0:0:0:
244,204,90876,1,2,0:0:0:0:
164,184,91098,6,0,L|72:224,1,97.5,4|0,0:0|0:0,0:0:0:0:
40,252,91543,2,0,P|72:284|84:352,1,97.5
128,352,91987,2,2,L|200:360,2,65
264,240,92876,6,0,P|288:212|352:188,1,97.5
376,220,93320,2,0,L|408:124,1,97.5
448,108,93765,2,2,L|520:96,2,65
256,36,94654,5,0,0:0:0:0:
212,156,94987,1,0,0:0:0:0:
212,156,95098,2,0,L|108:172,1,97.5
96,208,95543,2,2,L|12:192,1,65
32,64,95987,2,0,L|120:84,1,65,2|0,0:0|0:0,0:0:0:0:
96,208,96431,6,0,L|24:224,1,65
180,224,96876,2,0,L|200:256,3,32.5
152,148,97320,6,0,L|164:96,1,38.9999988098145
312,48,97765,2,0,L|304:92,1,38.9999988098145
420,112,98209,6,0,L|428:144,3,32.5
460,176,98654,1,0,0:0:0:0:
460,176,98765,2,0,L|456:248,1,65
424,320,99098,1,4,0:0:0:0:
176,88,99987,6,0,P|220:128|296:112,2,130,0|8|0,0:0|0:0|0:0,0:0:0:0:
112,32,101098,1,0,0:0:0:0:
112,32,101209,1,0,0:0:0:0:
112,32,101320,2,0,L|76:112,1,65,8|0,0:0|0:0,0:0:0:0:
24,208,101765,6,0,P|76:196|140:264,1,130,0|8,0:0|0:0,0:0:0:0:
60,280,102431,2,0,L|56:348,1,65
133,239,102876,1,0,0:0:0:0:
208,204,103098,1,8,0:0:0:0:
232,128,103320,1,0,0:0:0:0:
292,84,103543,6,0,L|404:108,1,97.5
412,140,103987,1,8,0:0:0:0:
384,300,104209,1,0,0:0:0:0:
312,256,104431,1,0,0:0:0:0:
312,340,104654,1,0,0:0:0:0:
240,300,104876,1,8,0:0:0:0:
240,216,105098,1,0,0:0:0:0:
212,140,105320,6,0,P|128:128|80:168,2,130,4|8|0,0:0|0:0|0:0,0:0:0:0:
188,224,106431,1,0,0:0:0:0:
244,288,106654,1,8,0:0:0:0:
188,224,106876,1,0,0:0:0:0:
272,208,107098,6,0,P|340:200|392:184,1,97.5
368,148,107543,2,0,L|436:240,1,97.5,8|0,0:0|0:0,0:0:0:0:
436,272,107987,2,0,L|444:344,2,65,0|0|8,0:0|0:0|0:0,0:0:0:0:
456,188,108654,1,0,0:0:0:0:
404,120,108876,6,0,P|336:144|280:112,2,130,0|8|0,0:0|0:0|0:0,0:0:0:0:
348,56,109987,1,0,0:0:0:0:
264,40,110209,1,8,0:0:0:0:
287,120,110431,1,0,0:0:0:0:
287,120,110654,6,0,P|292:168|252:240,1,130,0|8,0:0|0:0,0:0:0:0:
224,364,111320,1,0,0:0:0:0:
224,364,111543,2,0,P|172:300|100:292,1,130,0|8,0:0|0:0,0:0:0:0:
44,292,112209,1,0,0:0:0:0:
44,292,112431,6,0,L|28:356,1,65
88,220,112876,1,8,0:0:0:0:
88,220,112987,2,0,L|80:132,1,65,8|0,0:0|0:0,0:0:0:0:
104,116,113320,2,0,L|112:72,3,32.5
140,52,113765,2,0,L|216:28,1,65,8|8,0:0|0:0,0:0:0:0:
296,144,114209,6,0,P|336:200|420:192,2,130,4|8|0,0:0|0:0|0:0,0:0:0:0:
244,212,115320,2,0,L|220:288,1,65,0|8,0:0|0:0,0:0:0:0:
216,140,115765,2,0,P|176:84|92:92,1,130
132,160,116431,2,0,L|140:244,1,65,8|0,0:0|0:0,0:0:0:0:
168,300,116876,1,0,0:0:0:0:
168,300,117098,2,0,L|148:392,2,65,0|8|0,0:0|0:0|0:0,0:0:0:0:
216,232,117765,6,0,P|260:200|312:204,1,97.5
340,224,118209,2,0,L|400:140,1,97.5,8|0,0:0|0:0,0:0:0:0:
424,108,118654,1,0,0:0:0:0:
348,48,118876,1,0,0:0:0:0:
248,48,119098,1,8,0:0:0:0:
176,112,119320,1,0,0:0:0:0:
264,136,119543,6,0,L|288:288,2,130,0|8|0,0:0|0:0|0:0,0:0:0:0:
248,48,120654,1,0,0:0:0:0:
176,112,120876,1,8,0:0:0:0:
104,172,121098,1,0,0:0:0:0:
96,180,121209,1,0,0:0:0:0:
88,188,121320,6,0,L|208:196,1,97.5,4|0,0:0|0:0,0:0:0:0:
228,184,121765,2,0,P|232:240|280:284,1,97.5,8|0,0:0|0:0,0:0:0:0:
296,292,122209,2,0,L|280:368,1,65
364,236,122654,1,8,0:0:0:0:
444,268,122876,1,0,0:0:0:0:
444,268,122987,1,0,0:0:0:0:
444,268,123098,6,0,P|448:212|392:152,2,130,0|8|0,0:0|0:0|0:0,0:0:0:0:
372,324,124209,2,0,L|296:324,1,65,0|8,0:0|0:0,0:0:0:0:
232,360,124654,1,0,0:0:0:0:
236,276,124876,6,0,L|284:144,1,130,4|8,0:0|0:0,0:0:0:0:
252,76,125543,1,0,0:0:0:0:
176,40,125765,2,0,L|88:28,2,65
268,52,126431,2,0,L|340:64,2,65
280,140,127098,6,0,L|308:172,3,32.5,8|8|8|4,0:0|0:0|0:0|0:0,0:0:0:0:
344,156,127543,2,0,L|368:232,1,65
428,276,127987,2,0,L|444:308,3,32.5
428,276,128431,6,0,P|376:288|340:324,1,97.50000371933,2|0,0:0|0:0,0:0:0:0:
266,296,129098,1,0,0:0:0:0:
194,328,129320,2,0,L|130:312,2,48.750001859665,2|0|0,0:0|0:0|0:0,0:0:0:0:
266,296,129987,1,0,0:0:0:0:
350,196,130209,6,0,L|366:92,1,97.50000371933,2|0,0:0|0:0,0:0:0:0:
274,40,130876,1,0,0:0:0:0:
274,40,131098,2,0,L|258:144,1,97.50000371933
186,164,131765,1,0,0:0:0:0:
110,144,131987,6,0,P|54:164|30:204,1,97.50000371933,2|0,0:0|0:0,0:0:0:0:
106,224,132654,2,0,L|78:320,1,97.50000371933,2|0,0:0|0:0,0:0:0:0:
78,317,133320,1,0,0:0:0:0:
198,240,133543,1,0,0:0:0:0:
198,240,133765,6,0,L|250:216,1,48.750001859665,2|0,0:0|0:0,0:0:0:0:
316,252,134209,2,2,L|332:276,2,24.3750009298325
304,172,134654,1,0,0:0:0:0:
376,40,134876,1,2,0:0:0:0:
380,48,134987,1,2,0:0:0:0:
384,56,135098,2,2,L|400:112,1,48.750001859665
480,92,135543,6,0,P|472:140|388:192,1,130,0|8,0:0|0:0,0:0:0:0:
296,288,136320,1,0,0:0:0:0:
296,288,136431,2,0,L|288:376,2,65,0|0|8,0:0|0:0|0:0,0:0:0:0:
256,212,137098,1,0,0:0:0:0:
208,144,137320,6,0,P|160:108|80:124,1,130,0|8,0:0|0:0,0:0:0:0:
96,240,138098,1,0,0:0:0:0:
96,240,138209,2,0,L|84:324,1,65
240,280,138654,2,0,L|248:200,1,65,8|0,0:0|0:0,0:0:0:0:
256,132,139098,6,0,P|280:84|364:68,1,130,0|8,0:0|0:0,0:0:0:0:
340,148,139765,2,0,L|360:240,2,65
416,112,140431,1,8,0:0:0:0:
349,63,140654,2,0,L|324:12,1,32.5
349,63,140876,6,0,P|296:64|248:128,2,130,0|8|0,0:0|0:0|0:0,0:0:0:0:
336,148,141987,1,0,0:0:0:0:
324,232,142209,2,0,L|312:320,1,65,8|0,0:0|0:0,0:0:0:0:
256,192,142654,12,0,144431,0:0:0:0:
256,52,144876,5,0,0:0:0:0:
256,60,145320,1,0,0:0:0:0:
256,68,145765,1,0,0:0:0:0:
120,168,146209,6,0,P|164:148|232:160,1,97.5,4|0,0:0|0:0,0:0:0:0:
252,172,146654,2,0,L|296:264,1,97.5
332,284,147098,2,2,L|336:348,2,65
392,124,147987,6,0,P|348:104|280:116,1,97.5
260,128,148432,2,0,L|216:220,1,97.5
180,240,148876,2,2,L|176:304,2,65
60,184,149765,6,0,L|168:144,1,97.5
196,156,150209,2,0,P|244:140|296:152,1,97.5
324,176,150654,2,2,L|336:248,2,65
372,104,151320,1,0,0:0:0:0:
500,180,151543,6,0,P|460:168|420:136,1,65
372,104,151987,2,0,L|280:88,1,65
307,93,152320,1,0,0:0:0:0:
307,93,152431,1,0,0:0:0:0:
224,112,152654,1,0,0:0:0:0:
217,115,152765,1,0,0:0:0:0:
210,118,152876,1,0,0:0:0:0:
202,120,152987,1,0,0:0:0:0:
195,123,153098,1,0,0:0:0:0:
84,76,153320,6,0,P|76:152|96:184,1,97.5,6|0,0:0|0:0,0:0:0:0:
120,196,153765,2,0,L|128:296,1,97.5
160,324,154209,2,2,L|248:348,2,65
320,268,155098,6,0,P|376:240|432:256,1,97.5
444,272,155543,2,0,L|472:160,1,97.5
452,136,155987,2,2,L|448:52,2,65
368,40,156765,1,0,0:0:0:0:
368,40,156876,6,0,P|320:56|264:40,1,97.5
236,24,157320,2,0,L|180:124,1,97.5
148,128,157765,2,2,L|76:120,2,65
144,224,158431,1,0,0:0:0:0:
144,224,158543,1,0,0:0:0:0:
144,224,158654,6,0,P|176:268|252:272,2,130
220,200,159765,1,2,0:0:0:0:
308,88,159987,1,2,0:0:0:0:
376,208,160209,1,2,0:0:0:0:
300,168,160431,6,0,L|204:116,1,97.5,4|0,0:0|0:0,0:0:0:0:
176,128,160876,2,0,P|128:140|80:112,1,97.5
56,88,161320,1,2,0:0:0:0:
56,88,161543,2,2,L|36:0,1,65
56,196,162209,6,0,P|52:248|24:296,1,97.5
4,324,162654,2,0,L|120:356,1,97.5
136,328,163098,1,2,0:0:0:0:
136,328,163320,2,2,L|220:316,1,65
248,84,163987,5,0,0:0:0:0:
368,128,164320,1,0,0:0:0:0:
368,128,164431,2,0,L|432:212,1,97.5
404,284,164876,2,2,L|392:364,1,65
328,244,165320,2,0,L|280:308,1,65,2|0,0:0|0:0,0:0:0:0:
248,316,165654,1,0,0:0:0:0:
208,332,165765,6,0,L|116:316,2,65
336,356,166431,1,0,0:0:0:0:
336,356,166543,1,0,0:0:0:0:
336,356,166654,2,2,P|360:320|368:284,1,65
300,184,167098,2,2,P|276:220|268:256,1,65,2|0,0:0|0:0,0:0:0:0:
240,80,167543,6,0,P|184:72|140:32,1,97.5,4|0,0:0|0:0,0:0:0:0:
116,24,167987,2,0,L|64:120,1,97.5
32,132,168431,1,2,0:0:0:0:
96,248,168654,1,2,0:0:0:0:
32,132,168876,1,2,0:0:0:0:
112,284,169320,6,0,P|160:316|216:316,1,97.5
236,296,169765,2,0,L|292:192,1,97.5
272,168,170209,1,2,0:0:0:0:
388,236,170431,1,2,0:0:0:0:
272,168,170654,1,2,0:0:0:0:
164,248,171098,6,0,P|136:176|144:136,1,97.5
176,132,171543,2,0,L|280:80,1,97.5
308,96,171987,2,2,L|392:100,1,65
452,64,172431,1,2,0:0:0:0:
452,64,172654,2,0,L|460:28,2,32.5,0|0|2,0:0|0:0|0:0,0:0:0:0:
464,152,173098,6,0,L|380:148,1,65,0|2,0:0|0:0,0:0:0:0:
399,148,173431,1,0,0:0:0:0:
399,148,173543,1,0,0:0:0:0:
272,60,173765,2,0,L|320:124,1,65
272,240,174209,2,0,L|224:176,1,65
144,56,174654,6,0,P|144:96|68:160,1,130,2|0,0:0|0:0,0:0:0:0:
100,240,175320,1,0,0:0:0:0:
100,240,175543,2,0,L|136:380,1,130
208,324,176209,2,0,P|252:296|340:320,1,130,2|0,0:0|0:0,0:0:0:0:
404,340,176876,1,0,0:0:0:0:
404,340,177098,1,2,0:0:0:0:
404,340,177543,5,0,0:0:0:0:
388,268,177765,1,0,0:0:0:0:
372,196,177987,1,0,0:0:0:0:
352,88,178209,2,0,P|312:136|224:120,2,130,2|0|0,0:0|0:0|0:0,0:0:0:0:
276,56,179320,1,0,0:0:0:0:
248,137,179543,1,0,0:0:0:0:
220,216,179765,2,0,L|232:372,1,130,2|0,0:0|0:0,0:0:0:0:
304,196,180431,6,0,L|340:280,1,65,2|0,0:0|0:0,0:0:0:0:
392,100,181098,1,0,0:0:0:0:
392,100,181209,1,0,0:0:0:0:
392,100,181320,2,0,L|324:36,1,65,2|0,0:0|0:0,0:0:0:0:
256,36,181765,6,0,P|212:64|132:44,2,130,2|0|0,0:0|0:0|0:0,0:0:0:0:
316,96,182876,2,0,L|336:172,1,65,0|2,0:0|0:0,0:0:0:0:
336,244,183320,2,0,P|316:308|260:328,1,130,2|0,0:0|0:0,0:0:0:0:
260,252,183987,2,0,P|204:276|184:340,1,130,2|0,0:0|0:0,0:0:0:0:
136,228,184654,2,0,L|104:152,2,65
44,344,185320,6,0,P|96:304|160:348,1,130,2|0,0:0|0:0,0:0:0:0:
324,344,186209,2,0,P|276:304|219:328,1,130
136,180,187098,6,0,L|154:51,1,130,2|0,0:0|0:0,0:0:0:0:
296,148,187987,2,0,L|276:296,1,130
440,344,188876,6,0,L|456:300,3,32.5
460,272,189320,2,8,L|456:228,3,32.5
460,200,189765,2,4,L|448:164,3,32.5,8|8|4|4,0:0|0:0|0:0|0:0,0:0:0:0:
428,128,190209,1,4,0:0:0:0:
416,112,190320,1,4,0:0:0:0:
404,96,190431,1,4,0:0:0:0:
392,80,190543,1,4,0:0:0:0:
384,68,190654,6,0,B|312:132|216:40|136:108,1,260
256,192,199543,6,0,L|364:176,1,97.50000371933
364,280,200431,2,0,L|468:220,1,97.50000371933
440,128,201320,5,0,0:0:0:0:
341,110,201765,1,0,0:0:0:0:
243,93,202209,1,0,0:0:0:0:
144,75,202654,1,0,0:0:0:0:
184,168,203098,6,0,P|168:212|120:240,2,97.50000371933
188,304,204431,1,0,0:0:0:0:
312,276,204876,1,8,0:0:0:0:
312,268,204987,1,8,0:0:0:0:
312,260,205098,1,4,0:0:0:0:
312,252,205209,1,4,0:0:0:0:
312,244,205320,6,0,P|344:192|332:128,1,116.999996429443,4|0,0:0|0:0,0:0:0:0:
356,100,205765,2,0,L|372:56,7,38.9999988098145,0|0|0|8|8|4|4|4,0:0|0:0|0:0|0:0|0:0|0:0|0:0|0:0,0:0:0:0:
356,100,206654,6,0,L|264:156,1,97.5,4|0,0:0|0:0,0:0:0:0:
256,192,207098,2,0,P|216:216|156:216,1,97.5
136,184,207543,2,2,L|116:112,2,65
68,340,208431,6,0,P|128:312|172:316,1,97.5
184,280,208876,2,0,L|268:356,1,97.5
296,364,209320,1,2,0:0:0:0:
380,328,209543,1,2,0:0:0:0:
460,280,209765,1,2,0:0:0:0:
460,280,210209,6,0,P|468:224|452:168,1,97.5
416,192,210654,2,0,L|392:84,1,97.5
352,108,211098,2,2,L|268:92,1,65
188,164,211543,2,0,L|264:180,1,65,2|0,0:0|0:0,0:0:0:0:
372,208,211987,5,0,0:0:0:0:
372,208,212209,1,0,0:0:0:0:
380,292,212431,2,0,L|336:368,1,65
272,292,212876,2,2,L|192:336,1,65
120,324,213320,2,0,L|108:368,3,32.5,2|0|0|0,0:0|0:0|0:0|0:0,0:0:0:0:
120,324,213765,6,0,P|84:260|84:216,1,97.5,4|0,0:0|0:0,0:0:0:0:
100,196,214209,2,0,L|176:112,1,97.5
136,92,214654,2,2,L|96:28,2,65
300,144,215543,6,0,P|320:184|316:244,1,97.5
288,268,215987,2,0,L|192:316,1,97.5
160,296,216431,2,2,L|128:356,2,65
56,200,217320,5,0,0:0:0:0:
180,172,217654,1,0,0:0:0:0:
180,172,217765,2,0,L|296:148,1,97.5
320,152,218209,2,2,P|344:188|348:232,1,65
300,280,218654,2,0,P|312:316|344:348,1,65,2|0,0:0|0:0,0:0:0:0:
412,336,219098,2,0,L|477:336,1,65
256,192,219543,12,0,220876,0:0:0:0:
