osu file format v14

[General]
AudioFilename: audio.mp3
AudioLeadIn: 0
PreviewTime: 68431
Countdown: 0
SampleSet: Soft
StackLeniency: 0.7
Mode: 0
LetterboxInBreaks: 0
WidescreenStoryboard: 1

[Editor]
Bookmarks: 6876,21320
DistanceSpacing: 1.2
BeatDivisor: 2
GridSize: 4
TimelineZoom: 1.5

[Metadata]
Title:Kami no Manimani
TitleUnicode:神のまにまに
Artist:Dancing Dolls
ArtistUnicode:Dancing Dolls
Creator:M7x7
Version:Easy
Source:
Tags:
BeatmapID:946769
BeatmapSetID:439978

[Difficulty]
HPDrainRate:1
CircleSize:2
OverallDifficulty:1
ApproachRate:2
SliderMultiplier:1
SliderTickRate:1

[Events]
//Background and Video events
0,0,"enterdesk (12).jpg",0,0
//Break Periods
2,7743,21863
2,192631,204974
//Storyboard Layer 0 (Background)
//Storyboard Layer 1 (Fail)
//Storyboard Layer 2 (Pass)
//Storyboard Layer 3 (Foreground)
//Storyboard Sound Samples

[TimingPoints]
432,444.444444444444,4,1,1,23,1,0
6209,-100,4,2,1,70,0,0
7543,-100,4,1,1,45,0,1
21765,-100,4,3,1,35,0,1
22654,-100,4,3,1,35,0,0
23543,-100,4,1,1,25,0,0
59098,-100,4,1,1,27,0,0
68431,-100,4,2,2,50,0,0
69765,-100,4,2,2,100,0,1
97320,-100,4,1,0,30,0,1
98209,-100,4,1,1,43,0,0
99987,-100,4,1,1,25,0,0
135543,-100,4,1,1,30,0,0
144876,-100,4,2,2,50,0,0
146209,-100,4,2,2,100,0,1
174654,-100,4,2,1,60,0,0
190654,-100,4,2,0,5,0,0
192431,-100,4,2,0,50,0,0
204876,-100,4,1,0,56,0,0
206654,-100,4,2,2,100,0,1
220876,-100,4,1,0,30,0,0

[Colours]
Combo1 : 255,208,66
Combo2 : 84,150,239
Combo3 : 98,198,188
Combo4 : 247,81,105

[HitObjects]
176,84,432,6,0,L|308:84,1,100,0|8,0:0|0:0,0:0:0:0:
304,200,1320,2,0,L|176:200,1,100,0|8,0:0|0:0,0:0:0:0:
156,308,2209,1,0,0:0:0:0:
272,332,2654,2,0,L|388:356,2,100,8|0|8,0:0|0:0|0:0,0:0:0:0:
328,228,3987,6,0,P|440:172|364:48,1,300
248,52,5765,1,0,0:0:0:0:
176,148,6209,2,0,L|152:276,2,100
92,64,7543,5,4,0:0:0:0:
288,56,23543,6,0,P|280:128|304:192,1,100,0|8,0:0|0:0,0:0:0:0:
396,112,24431,2,0,P|403:161|393:210,1,100,0|8,0:0|0:0,0:0:0:0:
324,308,25320,2,0,L|452:324,2,100,0|8|0,0:0|0:0|0:0,0:0:0:0:
212,348,26654,1,8,0:0:0:0:
228,228,27098,6,0,L|244:104,2,100,0|8|0,0:0|0:0|0:0,0:0:0:0:
120,276,28431,1,8,0:0:0:0:
92,160,28876,2,0,L|44:52,2,100,0|8|0,0:0|0:0|0:0,0:0:0:0:
200,108,30209,1,8,0:0:0:0:
304,48,30654,6,0,P|320:108|292:176,1,100,0|8,0:0|0:0,0:0:0:0:
264,256,31543,2,0,P|324:260|380:296,1,100,0|8,0:0|0:0,0:0:0:0:
428,180,32431,2,0,L|468:80,2,100,0|8|0,0:0|0:0|0:0,0:0:0:0:
424,300,33765,1,8,0:0:0:0:
304,316,34209,6,0,P|280:240|248:200,1,100,0|8,0:0|0:0,0:0:0:0:
172,164,35098,2,0,P|140:88|108:48,1,100,0|8,0:0|0:0,0:0:0:0:
52,164,35987,2,0,L|32:308,2,100
172,164,37320,1,0,0:0:0:0:
260,80,37765,6,0,P|288:128|288:200,1,100,4|8,0:0|0:0,0:0:0:0:
400,116,38654,2,0,L|416:264,1,100,0|8,0:0|0:0,0:0:0:0:
328,300,39543,2,0,L|456:336,2,100,0|8|0,0:0|0:0|0:0,0:0:0:0:
216,348,40876,1,8,0:0:0:0:
136,260,41320,5,0,0:0:0:0:
72,160,41765,1,8,0:0:0:0:
176,96,42209,1,0,0:0:0:0:
288,56,42654,1,8,0:0:0:0:
400,100,43098,2,0,P|432:164|432:216,2,100,0|8|0,0:0|0:0|0:0,0:0:0:0:
316,184,44431,1,8,0:0:0:0:
376,288,44876,6,0,P|324:308|268:296,1,100,0|8,0:0|0:0,0:0:0:0:
164,288,45765,2,0,P|114:282|69:302,1,100,0|8,0:0|0:0,0:0:0:0:
88,184,46654,2,0,L|104:68,2,100,0|8|0,0:0|0:0|0:0,0:0:0:0:
200,144,47987,1,8,0:0:0:0:
276,52,48431,6,0,P|352:100|448:196,1,200
332,244,49765,1,8,0:0:0:0:
224,300,50209,2,0,L|76:300,2,100,0|8|0,0:0|0:0|0:0,0:0:0:0:
316,224,51543,1,8,0:0:0:0:
432,200,51987,6,0,P|384:132|196:192,1,300,0|8,0:0|0:0,0:0:0:0:
316,224,53765,2,0,P|232:296|88:200,1,300,0|8,0:0|0:0,0:0:0:0:
60,92,55543,6,0,L|384:112,1,300,0|8,0:0|0:0,0:0:0:0:
396,224,57320,2,0,L|96:205,1,300,0|8,0:0|0:0,0:0:0:0:
112,324,59098,6,0,L|228:332,1,100,0|8,0:0|0:0,0:0:0:0:
304,252,59987,2,0,L|352:352,1,100,0|8,0:0|0:0,0:0:0:0:
400,236,60876,2,0,L|452:124,1,100,0|8,0:0|0:0,0:0:0:0:
324,156,61765,2,0,L|216:144,1,100,0|8,0:0|0:0,0:0:0:0:
148,236,62654,6,0,P|128:88|268:36,1,300,4|8,0:0|0:0,0:0:0:0:
224,148,64431,2,0,P|336:160|336:332,1,300,0|8,0:0|0:0,0:0:0:0:
256,192,66209,12,0,67987,0:0:0:0:
224,208,69765,6,0,L|328:200,2,100,0|0|2,0:0|0:0|0:0,0:0:0:0:
144,300,71098,1,2,0:0:0:0:
124,180,71543,2,0,L|108:64,2,100,0|0|2,0:0|0:0|0:0,0:0:0:0:
144,300,72876,1,2,0:0:0:0:
256,348,73320,6,0,P|336:340|328:164,1,300,2|0,0:0|0:0,0:0:0:0:
232,236,75098,2,0,P|204:148|380:52,1,300,2|0,0:0|0:0,0:0:0:0:
372,160,76876,6,0,L|408:284,2,100,4|0|2,0:0|0:0|0:0,0:0:0:0:
268,100,78209,1,2,0:0:0:0:
168,164,78654,2,0,L|132:288,2,100,0|0|2,0:0|0:0|0:0,0:0:0:0:
268,100,79987,1,2,0:0:0:0:
356,20,80431,6,0,P|388:116|224:212,1,300,2|0,0:0|0:0,0:0:0:0:
268,100,82209,2,0,P|136:152|176:316,1,300,2|0,0:0|0:0,0:0:0:0:
240,216,83987,6,2,L|368:236,2,100,6|0|2,0:0|0:0|0:0,0:0:0:0:
264,332,85320,1,2,0:0:0:0:
144,324,85765,2,0,L|44:288,2,100,0|0|2,0:0|0:0|0:0,0:0:0:0:
264,332,87098,1,2,0:0:0:0:
380,360,87543,6,0,P|364:276|172:252,1,300,2|0,0:0|0:0,0:0:0:0:
276,316,89320,2,0,P|280:192|128:140,1,300,2|0,0:0|0:0,0:0:0:0:
180,248,91098,6,2,L|92:320,2,100,6|0|2,0:0|0:0|0:0,0:0:0:0:
188,128,92431,1,2,0:0:0:0:
308,136,92876,2,2,L|428:144,2,100,2|0|2,0:0|0:0|0:0,0:0:0:0:
188,128,94209,1,2,0:0:0:0:
244,236,94654,6,0,L|260:356,2,100,0|0|2,0:0|0:0|0:0,0:0:0:0:
340,168,95987,1,0,0:0:0:0:
256,192,96876,12,0,99098,0:0:0:0:
280,112,100876,6,0,L|152:128,1,100,0|8,0:0|0:0,0:0:0:0:
124,228,101765,2,0,L|108:348,2,100,0|8|0,0:0|0:0|0:0,0:0:0:0:
64,124,103098,1,8,0:0:0:0:
172,72,103543,6,0,P|280:124|468:80,1,300,0|8,0:0|0:0,0:0:0:0:
472,208,105320,2,0,L|172:276,1,300,0|8,0:0|0:0,0:0:0:0:
64,240,107098,6,0,L|28:372,2,100,4|8|0,0:0|0:0|0:0,0:0:0:0:
180,216,108431,1,8,0:0:0:0:
104,124,108876,2,0,P|188:96|228:104,1,100,0|8,0:0|0:0,0:0:0:0:
316,96,109765,2,0,P|365:100|409:123,1,100
456,232,110654,6,0,L|320:220,1,100,0|8,0:0|0:0,0:0:0:0:
412,328,111543,2,0,L|313:345,1,100,0|8,0:0|0:0,0:0:0:0:
192,352,112431,2,0,P|92:296|184:148,1,300,0|8,0:0|0:0,0:0:0:0:
228,56,114209,6,0,L|104:24,2,100,4|8|0,0:0|0:0|0:0,0:0:0:0:
348,48,115543,1,8,0:0:0:0:
292,156,115987,2,0,L|308:280,1,100,0|8,0:0|0:0,0:0:0:0:
200,316,116876,2,0,L|188:200,1,100,0|8,0:0|0:0,0:0:0:0:
92,148,117765,6,0,P|16:164|-12:200,2,100,0|8|0,0:0|0:0|0:0,0:0:0:0:
200,96,119098,1,8,0:0:0:0:
192,216,119543,2,0,P|268:336|412:268,1,300,0|8,0:0|0:0,0:0:0:0:
312,208,121320,6,0,P|236:88|84:144,1,300,0|8,0:0|0:0,0:0:0:0:
48,228,123098,2,0,L|28:352,1,100,0|8,0:0|0:0,0:0:0:0:
144,280,123987,2,0,L|204:176,1,100,0|8,0:0|0:0,0:0:0:0:
284,116,124876,6,0,P|340:136|396:140,2,100,0|8|0,0:0|0:0|0:0,0:0:0:0:
172,72,126209,1,8,0:0:0:0:
196,188,126654,2,0,L|180:300,2,100,0|8|0,0:0|0:0|0:0,0:0:0:0:
172,72,127987,1,8,0:0:0:0:
56,100,128431,6,0,P|128:184|284:104,1,300,0|8,0:0|0:0,0:0:0:0:
344,220,130209,2,0,P|256:288|68:280,1,300,0|8,0:0|0:0,0:0:0:0:
0,196,131987,6,0,L|336:136,1,300,0|8,0:0|0:0,0:0:0:0:
372,236,133765,2,0,L|36:296,1,300,0|8,0:0|0:0,0:0:0:0:
116,176,135543,6,0,L|140:60,2,100,4|8|0,0:0|0:0|0:0,0:0:0:0:
192,268,136876,1,8,0:0:0:0:
236,156,137320,2,0,L|352:208,2,100,0|8|0,0:0|0:0|0:0,0:0:0:0:
116,176,138654,1,8,0:0:0:0:
60,68,139098,6,0,P|-8:152|96:296,1,300,0|8,0:0|0:0,0:0:0:0:
116,176,140876,2,0,L|392:332,1,300,0|8,0:0|0:0,0:0:0:0:
256,192,142654,12,0,144431,0:0:0:0:
296,240,146209,6,2,L|316:384,2,100,0|0|2,0:0|0:0|0:0,0:0:0:0:
200,168,147543,1,2,0:0:0:0:
312,124,147987,2,2,L|432:80,2,100,0|0|2,0:0|0:0|0:0,0:0:0:0:
200,168,149320,1,2,0:0:0:0:
84,144,149765,6,0,P|128:260|288:240,1,300,2|0,0:0|0:0,0:0:0:0:
380,176,151543,2,0,P|340:348|204:344,1,300,2|0,0:0|0:0,0:0:0:0:
112,344,153320,6,0,L|16:280,2,100,0|0|2,0:0|0:0|0:0,0:0:0:0:
188,252,154654,1,2,0:0:0:0:
244,144,155098,2,0,L|300:40,2,100,0|0|2,0:0|0:0|0:0,0:0:0:0:
304,248,156431,1,2,0:0:0:0:
376,152,156876,6,0,P|420:272|276:360,1,300,2|0,0:0|0:0,0:0:0:0:
180,364,158654,2,0,P|92:236|56:56,1,300,2|0,0:0|0:0,0:0:0:0:
176,76,160431,6,0,L|304:64,2,100,0|0|2,0:0|0:0|0:0,0:0:0:0:
56,96,161765,1,2,0:0:0:0:
136,188,162209,2,0,L|120:304,2,100,0|0|2,0:0|0:0|0:0,0:0:0:0:
56,96,163543,1,2,0:0:0:0:
176,76,163987,6,0,P|304:76|488:128,1,300,2|0,0:0|0:0,0:0:0:0:
444,236,165765,2,0,P|300:195|150:192,1,300,2|0,0:0|0:0,0:0:0:0:
236,280,167543,6,0,L|344:352,2,100,0|0|2,0:0|0:0|0:0,0:0:0:0:
124,328,168876,1,2,0:0:0:0:
136,208,169320,2,0,L|68:92,2,100,0|0|2,0:0|0:0|0:0,0:0:0:0:
124,328,170654,1,2,0:0:0:0:
232,276,171098,6,0,L|240:156,2,100,0|0|2,0:0|0:0|0:0,0:0:0:0:
344,236,172431,1,0,0:0:0:0:
444,300,172876,2,0,P|456:188|396:48,1,250
236,124,174654,6,0,L|38:103,1,200,4|0,0:0|0:0,0:0:0:0:
180,296,176431,2,0,L|378:317,1,200,4|0,0:0|0:0,0:0:0:0:
408,92,178209,6,4,L|440:232,2,100,4|0|4,0:0|0:0|0:0,0:0:0:0:
316,168,179543,1,4,0:0:0:0:
352,280,179987,2,0,P|224:248|224:88,1,300,4|0,0:0|0:0,0:0:0:0:
96,84,181765,6,0,L|-8:144,2,100,4|0|0,0:0|0:0|0:0,0:0:0:0:
144,196,183098,1,0,0:0:0:0:
216,100,183543,2,0,P|320:96|476:232,1,300,4|0,0:0|0:0,0:0:0:0:
468,332,185320,6,0,L|128:332,1,300,4|0,0:0|0:0,0:0:0:0:
112,224,187098,2,0,L|412:224,1,300,4|0,0:0|0:0,0:0:0:0:
256,192,188876,12,0,190654,0:0:0:0:
324,296,192431,5,2,0:0:0:0:
164,256,206654,6,0,P|224:304|292:316,2,100,4|0|2,0:0|0:0|0:0,0:0:0:0:
264,192,207987,1,2,0:0:0:0:
156,144,208431,2,0,L|80:44,2,100,0|0|2,0:0|0:0|0:0,0:0:0:0:
264,192,209765,1,2,0:0:0:0:
332,92,210209,6,0,P|388:204|240:308,1,300,2|0,0:0|0:0,0:0:0:0:
264,192,211987,2,0,P|172:240|64:88,1,300,2|0,0:0|0:0,0:0:0:0:
176,124,213765,6,0,L|228:16,2,100,4|0|2,0:0|0:0|0:0,0:0:0:0:
96,212,215098,1,2,0:0:0:0:
216,224,215543,2,0,L|244:340,2,100,0|0|2,0:0|0:0|0:0,0:0:0:0:
96,212,216876,1,2,0:0:0:0:
32,312,217320,6,0,P|132:320|200:156,1,300,2|0,0:0|0:0,0:0:0:0:
310,158,219098,2,0,P|340:296|480:312,1,300,2|0,0:0|0:0,0:0:0:0:
420,208,220876,5,4,0:0:0:0:
