osu file format v14

[General]
AudioFilename: audio.ogg
AudioLeadIn: 0
PreviewTime: 144720
Countdown: 0
SampleSet: Soft
StackLeniency: 0.7
Mode: 0
LetterboxInBreaks: 0
WidescreenStoryboard: 0

[Editor]
Bookmarks: 179809,254095
DistanceSpacing: 0.6
BeatDivisor: 8
GridSize: 32
TimelineZoom: 1

[Metadata]
Title:Untitled / And I Told Them I Invented Times New Roman
TitleUnicode:Untitled / And I Told Them I Invented Times New Roman
Artist:Dance Gavin Dance
ArtistUnicode:Dance Gavin Dance
Creator:MonsieurSebas
Version:Best-Seller Tragedy
Source:
Tags:dbm dtbm downtown battle mountain dgd post-hardcore screamo rock english usa american progressive jonny craig will swan sean o'sullivan matt mingus eric lodge jon mess swancore emo
BeatmapID:4433904
BeatmapSetID:2112047

[Difficulty]
HPDrainRate:6
CircleSize:4
OverallDifficulty:8.6
ApproachRate:9.1
SliderMultiplier:3.59999990463257
SliderTickRate:1

[Events]
//Background and Video events
0,0,"z.jpg",0,0
//Break Periods
2,214295,219225
//Storyboard Layer 0 (Background)
//Storyboard Layer 1 (Fail)
//Storyboard Layer 2 (Pass)
//Storyboard Layer 3 (Foreground)
//Storyboard Layer 4 (Overlay)
//Storyboard Sound Samples

[TimingPoints]
2666.7027027027,714.285714285714,4,2,1,50,1,0
25166,-285.714285714286,4,2,0,40,0,0
48380,-100,4,2,1,75,0,0
71238,-400,4,2,1,50,0,0
74095,-250,4,2,1,50,0,0
76952,-166.666666666667,4,2,1,50,0,0
79809,-166.666666666667,4,2,1,60,0,0
82666,-100,4,2,1,60,0,0
88380,-200,4,2,1,60,0,0
90702,-100,4,2,1,60,0,0
99809,-200,4,2,1,60,0,0
102130,-100,4,2,1,60,0,0
105523,-133.333333333333,4,2,1,60,0,0
128380,-100,4,2,1,70,0,0
142666,-200,4,2,1,70,0,0
144809,-100,4,2,1,70,0,0
168380,-133.333333333333,4,2,1,60,0,0
190702,-100,4,2,1,60,0,0
191238,-113.636363636364,4,2,1,60,0,0
203023,-100,4,2,1,70,0,0
244095,-79.3650793650794,4,2,1,70,0,0
251238,-100,4,2,1,70,0,0
254095,-500,4,2,1,70,0,0
256059,-500,4,2,2,50,0,0
256952,-100,4,2,1,80,0,0
308380,-80,4,2,1,80,0,0
331952,-133.333333333333,4,2,1,50,0,0
332666,-400,4,2,1,50,0,0
332711,-400,4,2,2,5,0,0

[Colours]
Combo1 : 216,175,175
Combo2 : 255,255,132

[HitObjects]
44,52,25166,6,0,P|63:52|82:49,1,31.4999990386963,2|0,0:0|0:0,0:0:0:0:
126,103,25523,2,0,P|143:104|163:109,1,31.4999990386963,2|0,0:0|0:0,0:0:0:0:
225,72,25880,1,2,0:0:0:0:
236,58,26238,2,0,P|283:66|337:69,1,94.499997116089,2|0,0:0|0:0,0:0:0:0:
380,124,26952,6,0,P|375:142|375:160,1,31.4999990386963,2|0,0:0|0:0,0:0:0:0:
317,229,27309,1,2,0:0:0:0:
323,248,27666,2,0,P|370:260|425:264,1,94.499997116089,2|0,0:0|0:0,0:0:0:0:
251,297,28380,6,0,P|234:293|214:291,1,31.4999990386963,2|0,0:0|0:0,0:0:0:0:
153,225,28738,1,2,0:0:0:0:
139,237,29095,2,0,P|89:244|40:246,1,94.499997116089,2|0,0:0|0:0,0:0:0:0:
2,178,29809,2,0,P|0:159|-4:142,1,31.4999990386963,2|0,0:0|0:0,0:0:0:0:
53,91,30166,2,0,P|55:72|59:55,1,31.4999990386963,2|0,0:0|0:0,0:0:0:0:
130,40,30523,2,0,P|174:49|232:57,1,94.499997116089,2|0,0:0|0:0,0:0:0:0:
310,29,31238,5,2,0:0:0:0:
333,37,31416,1,0,3:0:0:0:
354,41,31595,1,2,0:0:0:0:
487,130,31952,2,0,P|442:120|385:113,1,94.499997116089,2|0,0:0|0:0,0:0:0:0:
343,183,32666,5,2,0:0:0:0:
320,191,32844,1,0,3:0:0:0:
299,195,33023,1,2,0:0:0:0:
158,280,33380,2,0,P|202:270|260:263,1,94.499997116089,2|0,0:0|0:0,0:0:0:0:
341,344,34095,5,2,0:0:0:0:
333,321,34273,1,0,3:0:0:0:
329,300,34452,1,2,0:0:0:0:
379,155,34809,2,0,P|388:199|396:257,1,94.499997116089,2|0,0:0|0:0,0:0:0:0:
485,313,35523,5,2,0:0:0:0:
481,292,35702,1,0,3:0:0:0:
473,269,35880,1,2,0:0:0:0:
379,155,36238,2,0,P|385:201|395:248,1,94.499997116089,2|0,0:0|0:0,0:0:0:0:
329,319,36952,6,0,P|310:322|287:329,1,31.4999990386963,2|0,0:0|0:0,0:0:0:0:
206,291,37309,1,2,0:0:0:0:
215,272,37666,2,0,P|209:197|221:137,1,125.999996154785,2|0,0:0|0:0,0:0:0:0:
169,86,38559,1,2,0:0:0:0:
169,86,38738,1,0,0:0:0:0:
298,169,39095,2,0,P|304:94|292:34,1,125.999996154785,2|0,0:0|0:0,0:0:0:0:
358,0,39988,5,2,0:0:0:0:
358,0,40167,1,0,0:0:0:0:
511,95,40523,2,0,P|448:104|386:97,1,125.999996154785,2|0,0:0|0:0,0:0:0:0:
328,169,41416,1,2,0:0:0:0:
328,169,41595,1,0,0:0:0:0:
142,107,41952,2,0,P|204:97|266:104,1,125.999996154785,2|0,0:0|0:0,0:0:0:0:
201,69,42845,2,0,P|185:72|164:73,2,31.4999990386963,2|0|0,0:0|0:0|0:0,0:0:0:0:
35,12,43380,2,0,P|25:78|32:142,1,125.999996154785,2|0,0:0|0:0,0:0:0:0:
15,244,44273,1,2,0:0:0:0:
15,244,44452,1,0,0:0:0:0:
256,192,44541,12,0,48202,0:0:0:0:
42,43,48380,6,0,P|88:87|160:91,1,135,6|0,3:1|0:0,3:0:0:0:
156,92,48738,2,0,P|131:144|136:183,1,90,2|2,0:1|3:2,0:0:0:0:
63,360,49095,1,2,1:0:0:0:
12,295,49273,2,0,P|67:307|145:337,1,135,2|0,3:2|0:0,0:0:0:0:
140,334,49630,1,2,3:2:0:0:
401,325,49809,5,2,3:1:0:0:
244,290,49988,2,0,P|238:249|219:200,1,90,4|0,3:2|0:1,0:0:0:0:
424,63,50345,2,0,P|407:104|400:149,1,90,4|0,3:2|1:1,0:0:0:0:
443,226,50702,2,0,B|487:225|487:225|535:257,1,90,4|0,3:2|0:2,3:2:0:0:
244,290,51059,5,4,3:2:0:0:
330,348,51238,2,0,B|261:333|261:333|222:356|222:356|152:344,1,180,2|2,3:1|0:1,0:0:0:0:
6,230,51773,2,0,L|107:214,1,90,2|0,3:2|1:0,0:0:0:0:
174,134,52130,1,2,3:2:0:0:
67,65,52309,5,2,0:3:0:0:
203,214,52488,1,2,3:2:0:0:
370,124,52666,1,2,3:3:0:0:
300,32,52845,6,0,P|281:73|270:129,1,90,4|0,3:2|0:1,0:0:0:0:
445,196,53202,2,0,P|463:156|473:112,1,90,4|0,3:2|1:1,0:0:0:0:
202,213,53559,2,0,P|117:191|69:118,1,180,4|2,3:2|3:2,0:0:0:0:
138,26,54005,5,0,3:0:0:0:
149,29,54095,2,0,B|163:70|163:70|167:133,1,90,2|2,3:1|3:2,0:0:0:0:
298,329,54452,2,0,B|300:282|300:282|314:241,1,90,2|2,0:1|3:2,0:0:0:0:
491,213,54809,5,2,1:0:0:0:
341,136,54988,1,2,3:2:0:0:
320,37,55166,5,2,0:1:0:0:
144,203,55345,1,2,3:2:0:0:
144,203,55434,1,0,3:0:0:0:
144,203,55523,2,0,P|187:215|244:235,1,90,2|2,3:1|3:2,0:0:0:0:
395,362,55880,2,0,P|437:347|480:335,1,90,2|2,0:1|3:2,0:0:0:0:
341,136,56238,2,0,P|290:190|280:304,1,180,2|2,1:0|0:1,0:0:0:0:
237,371,56773,1,2,3:2:0:0:
414,280,56952,5,6,1:2:0:0:
243,143,57130,1,0,1:0:0:0:
243,143,57220,1,0,1:0:0:0:
243,143,57309,1,0,1:0:0:0:
448,42,57488,1,4,1:2:0:0:
448,42,57845,1,2,1:0:0:0:
335,191,58023,1,4,1:2:0:0:
130,148,58202,1,0,3:0:0:0:
304,291,58380,1,4,1:2:0:0:
498,197,58559,1,0,1:0:0:0:
498,197,58648,1,0,1:0:0:0:
498,197,58738,1,0,1:0:0:0:
329,376,58916,1,4,1:2:0:0:
329,376,59273,2,0,L|313:323,1,45,2|0,1:0|0:0,0:0:0:0:
217,214,59452,2,0,L|203:257,1,45,0|0,1:0|1:0,0:0:0:0:
76,378,59630,6,0,L|62:334,1,45,0|0,1:0|1:0,0:0:0:0:
7,280,59809,1,6,3:1:0:0:
7,280,59898,1,0,3:0:0:0:
7,280,59988,2,0,P|95:298|199:335,1,180,2|2,3:2|3:2,0:0:0:0:
466,245,60523,1,2,1:0:0:0:
387,225,60702,2,0,P|350:237|301:248,1,90,2|2,3:2|0:1,0:0:0:0:
34,155,61059,5,2,3:2:0:0:
193,255,61238,1,2,3:1:0:0:
326,116,61416,2,0,P|310:71|301:22,1,90,2|2,3:2|0:1,0:0:0:0:
470,177,61773,5,2,3:2:0:0:
230,183,61952,2,0,P|312:170|398:250,1,180,2|2,1:0|0:1,0:0:0:0:
106,279,62488,5,2,3:2:0:0:
218,340,62666,2,0,B|120:327|156:387|36:384,1,180,6|2,3:1|0:1,3:2:0:0:
229,185,63202,1,2,3:2:0:0:
229,185,63291,1,0,3:0:0:0:
229,185,63380,2,0,P|241:229|260:280,1,90,2|2,1:0|3:2,0:0:0:0:
32,182,63738,2,0,P|47:139|59:96,1,90,2|2,0:1|3:2,0:0:0:0:
321,36,64095,5,6,3:1:0:0:
215,93,64273,2,2,B|281:106|281:106|306:149|306:149|389:173,1,180,2|2,3:2|3:2,0:0:0:0:
375,173,64720,1,0,3:0:0:0:
375,173,64809,2,0,P|379:219|399:274,1,90,2|2,3:1|3:2,0:0:0:0:
207,356,65077,1,0,3:0:0:0:
207,356,65166,2,0,P|221:313|225:269,1,90,2|2,1:1|3:2,0:0:0:0:
350,67,65523,5,6,3:1:0:0:
484,164,65702,2,0,P|396:139|350:65,1,180,2|2,3:2|3:2,0:0:0:0:
91,97,66238,1,2,1:0:0:0:
91,97,66416,2,0,P|161:73|197:21,1,135,2|0,3:2|0:0,0:0:0:0:
196,25,66773,1,2,3:2:0:0:
241,287,66952,6,0,P|248:243|264:195,1,90,2|2,3:1|3:2,0:0:0:0:
0,134,67309,2,0,P|13:177|21:222,1,90,2|2,0:1|3:2,0:0:0:0:
262,94,67666,1,2,1:0:0:0:
262,94,67845,2,0,P|342:137|372:223,1,180,2|2,3:2|3:2,0:0:0:0:
472,362,68380,5,4,1:2:0:0:
249,294,68559,1,0,1:0:0:0:
249,294,68648,1,0,1:0:0:0:
249,294,68738,1,0,1:0:0:0:
380,109,68916,1,4,1:2:0:0:
380,109,69273,1,2,1:0:0:0:
509,261,69451,1,4,1:2:0:0:
300,374,69630,1,0,3:0:0:0:
196,155,69809,1,4,1:2:0:0:
417,39,69988,1,0,1:2:0:0:
417,39,70077,1,0,1:2:0:0:
417,39,70166,1,0,1:2:0:0:
377,277,70345,1,4,1:2:0:0:
377,277,70702,2,0,L|314:266,1,45,2|0,1:0|0:0,0:0:0:0:
196,155,70880,6,0,L|203:199,1,45,0|0,1:0|1:0,0:0:0:0:
100,353,71059,2,0,L|107:308,1,45,0|0,1:0|1:0,0:0:0:0:
28,262,71238,6,0,B|226:270|101:359|314:372,1,315,4|2,3:2|0:0,0:0:0:0:
310,371,73916,1,0,0:0:0:0:
28,262,74095,6,0,P|206:284|399:53,1,504,4|2,3:2|0:0,0:0:0:0:
398,54,76773,1,0,0:0:0:0:
102,192,76952,6,0,P|97:164|81:124,1,53.9999983520508,6|0,3:2|0:0,0:0:0:0:
173,172,77309,2,0,P|168:144|152:104,1,53.9999983520508,2|0,3:2|0:0,0:0:0:0:
384,106,77666,6,0,P|388:78|405:38,1,53.9999983520508,2|0,3:2|0:0,0:0:0:0:
313,86,78023,2,0,P|317:58|334:18,1,53.9999983520508,2|0,3:2|0:0,0:0:0:0:
107,106,78380,6,0,P|134:110|175:127,1,53.9999983520508,2|0,3:2|0:0,0:0:0:0:
127,35,78737,2,0,P|154:39|195:56,1,53.9999983520508,2|0,3:2|0:0,0:0:0:0:
404,177,79095,6,0,P|376:181|336:198,1,53.9999983520508,2|0,3:2|0:0,0:0:0:0:
384,106,79452,2,0,P|356:110|316:127,1,53.9999983520508,2|0,3:2|0:0,0:0:0:0:
217,279,79809,5,6,3:2:0:0:
319,358,79988,1,0,3:0:0:0:
434,300,80166,1,2,3:2:0:0:
434,300,80345,1,0,3:0:0:0:
217,279,80523,5,6,3:2:0:0:
344,296,80702,1,0,3:0:0:0:
409,187,80880,1,2,3:2:0:0:
409,187,81059,1,0,3:0:0:0:
217,279,81238,5,6,3:2:0:0:
365,216,81417,1,0,3:0:0:0:
367,56,81595,1,2,3:2:0:0:
228,134,81774,1,0,3:0:0:0:
217,279,81952,5,6,3:2:0:0:
313,150,82131,1,0,3:0:0:0:
235,10,82309,1,2,3:2:0:0:
139,152,82488,1,0,3:0:0:0:
332,268,82666,6,0,P|378:277|430:293,1,90,2|0,1:0|1:0,0:0:0:0:
493,251,82934,1,0,1:0:0:0:
500,261,83023,2,0,P|495:306|477:366,1,90,2|8,1:0|3:0,0:0:0:0:
235,331,83380,1,2,1:0:0:0:
190,341,83470,1,0,1:0:0:0:
146,351,83559,1,0,1:0:0:0:
102,361,83648,1,0,1:0:0:0:
57,372,83738,1,8,3:0:0:0:
130,253,83916,1,8,3:0:0:0:
130,253,84273,5,4,1:2:0:0:
25,69,84452,1,4,1:2:0:0:
34,212,84630,1,0,3:0:0:0:
194,121,84809,5,8,3:0:0:0:
53,213,84988,1,0,3:0:0:0:
128,0,85166,1,4,1:2:0:0:
3,71,85345,1,8,3:0:0:0:
200,209,85523,6,0,P|245:216|308:239,1,90,2|0,1:0|1:0,0:0:0:0:
334,310,85791,1,0,1:0:0:0:
348,302,85880,2,0,L|370:206,1,90,2|8,1:0|3:0,0:0:0:0:
163,95,86238,1,2,1:0:0:0:
117,98,86328,1,0,1:0:0:0:
75,80,86417,1,0,1:0:0:0:
43,47,86506,1,0,1:0:0:0:
31,3,86595,1,8,3:0:0:0:
35,150,86773,1,8,3:0:0:0:
35,150,87130,5,4,1:2:0:0:
265,81,87309,1,4,1:2:0:0:
166,193,87488,1,0,3:0:0:0:
382,224,87666,5,8,3:0:0:0:
177,180,87845,1,8,3:0:0:0:
320,323,88023,5,4,1:2:0:0:
252,95,88202,1,8,3:0:0:0:
239,375,88380,6,0,P|235:331|239:275,1,90,6|0,1:2|3:0,0:0:0:0:
245,284,89095,2,0,P|249:240|245:184,1,90,2|0,3:2|3:0,0:0:0:0:
253,189,89809,2,0,P|249:145|253:89,1,90,2|0,3:2|3:0,0:0:0:0:
219,29,90345,5,2,0:0:0:0:
379,122,90523,1,2,3:2:0:0:
472,80,90702,2,0,P|477:127|475:172,1,90,2|0,0:0|3:0,0:0:0:0:
38,170,91059,6,0,P|33:123|35:78,1,90,6|6,0:1|1:2,0:0:0:0:
200,176,91416,2,0,P|161:203|121:224,1,90,2|0,0:2|3:0,0:0:0:0:
127,30,91773,2,0,P|170:49|208:73,1,90,2|0,0:0|3:0,3:0:0:0:
283,151,92130,1,2,0:0:0:0:
379,200,92309,1,0,3:2:0:0:
477,221,92488,1,2,0:0:0:0:
294,293,92666,5,0,1:0:0:0:
294,293,92755,1,0,1:0:0:0:
294,293,92845,1,2,3:0:0:0:
441,133,93023,1,0,1:0:0:0:
441,133,93113,1,0,1:0:0:0:
441,133,93202,1,2,3:0:0:0:
250,18,93380,1,0,1:0:0:0:
214,53,93470,1,0,1:0:0:0:
207,101,93559,1,8,0:3:0:0:
229,145,93648,1,8,0:3:0:0:
266,178,93738,1,4,0:3:0:0:
281,224,93827,1,4,0:3:0:0:
282,273,93916,1,0,3:0:0:0:
265,319,94005,1,0,3:0:0:0:
226,350,94095,6,0,P|190:347|133:349,1,90,6|0,1:0|1:0,0:0:0:0:
378,326,94363,1,0,1:0:0:0:
381,319,94452,2,0,P|425:321|475:315,1,90,2|8,1:0|3:0,0:0:0:0:
196,218,94809,1,2,1:0:0:0:
160,190,94898,1,0,1:0:0:0:
147,146,94988,1,0,1:0:0:0:
163,104,95077,1,0,1:0:0:0:
201,81,95166,1,8,3:0:0:0:
58,156,95345,1,8,3:0:0:0:
58,156,95702,5,4,1:2:0:0:
251,16,95880,1,4,1:2:0:0:
330,213,96059,1,8,3:0:0:0:
156,246,96238,1,8,3:0:0:0:
189,106,96416,1,0,3:0:0:0:
360,52,96595,1,4,1:2:0:0:
459,215,96773,1,0,3:0:0:0:
295,368,96952,6,0,P|286:322|285:270,1,90,6|0,1:0|1:0,0:0:0:0:
108,231,97220,1,0,1:0:0:0:
99,223,97309,2,0,B|55:212|55:212|3:234,1,90,2|8,1:0|3:0,0:0:0:0:
286,187,97666,1,2,1:0:0:0:
311,150,97755,1,0,1:0:0:0:
320,105,97845,1,0,1:0:0:0:
314,60,97934,1,0,1:0:0:0:
289,22,98023,1,8,3:0:0:0:
408,122,98202,1,8,3:0:0:0:
408,122,98559,5,4,1:2:0:0:
314,308,98738,1,4,1:2:0:0:
465,379,98916,1,4,3:0:0:0:
441,235,99095,1,8,3:0:0:0:
294,198,99273,1,0,3:0:0:0:
217,381,99452,1,4,1:2:0:0:
60,363,99630,1,8,3:0:0:0:
0,155,99809,6,0,P|45:152|108:156,1,90,6|0,1:2|3:2,0:0:0:0:
97,147,100523,2,0,P|142:150|205:146,1,90,2|0,3:2|3:2,0:0:0:0:
195,157,101238,2,0,P|240:154|303:158,1,90,2|0,3:2|3:2,0:0:0:0:
341,92,101773,1,2,0:0:0:0:
434,235,101952,1,0,3:2:0:0:
503,174,102130,2,0,P|505:219|514:281,1,90,2|0,0:0|3:0,0:0:0:0:
27,300,102488,6,0,P|24:254|16:193,1,90,6|6,0:1|1:2,0:0:0:0:
186,284,102845,2,0,P|147:309|98:347,1,90,2|0,0:0|3:2,3:0:0:0:
88,161,103202,2,0,P|128:181|186:204,1,90,2|0,0:0|3:2,3:0:0:0:
261,236,103559,1,2,0:0:0:0:
353,217,103738,1,0,3:0:0:0:
412,136,103916,1,2,0:0:0:0:
255,204,104095,5,0,3:0:0:0:
322,130,104273,1,2,0:0:0:0:
310,31,104452,1,0,3:0:0:0:
227,0,104630,1,2,0:0:0:0:
228,184,104809,5,0,1:0:0:0:
207,138,104898,1,0,1:0:0:0:
159,120,104988,1,8,3:3:0:0:
112,135,105077,1,8,3:3:0:0:
82,175,105166,1,4,3:0:0:0:
86,223,105255,1,4,3:0:0:0:
116,262,105345,1,0,3:0:0:0:
164,275,105434,1,0,3:0:0:0:
174,270,105523,6,0,P|252:282|332:308,1,135.000005149842,2|6,3:2|3:2,0:0:0:0:
371,362,106059,1,0,0:0:0:0:
498,204,106238,2,0,P|433:222|366:231,1,135.000005149842,2|6,1:2|3:2,0:0:0:0:
295,173,106773,1,0,0:0:0:0:
379,6,106952,6,0,B|368:48|368:48|383:80|383:80|365:162,1,135.000005149842,2|4,3:2|3:2,0:0:0:0:
295,173,107488,1,0,0:0:0:0:
141,80,107666,2,0,B|152:122|152:122|137:154|137:154|155:236,1,135.000005149842,2|4,1:2|3:2,0:0:0:0:
221,253,108202,1,0,0:0:0:0:
64,384,108380,6,0,P|51:348|80:278,1,101.250003862381,2|0,3:2|0:0,0:0:0:0:
73,277,108738,2,0,P|109:286|146:288,1,67.5000025749208,4|0,3:2|0:0,0:0:0:0:
253,376,109095,2,0,P|289:367|326:365,1,67.5000025749208,2|0,1:2|0:0,0:0:0:0:
396,260,109452,2,0,P|429:257|462:248,1,67.5000025749208,4|0,3:2|0:0,0:0:0:0:
462,248,109720,5,2,0:0:0:0:
462,248,109809,2,0,B|389:236|409:277|318:270,1,135.000005149842,2|4,3:2|3:2,0:0:0:0:
257,229,110345,1,2,0:0:0:0:
438,163,110523,2,0,P|380:127|308:134,1,135.000005149842,0|4,1:2|3:2,0:0:0:0:
93,264,111059,5,2,0:0:0:0:
155,199,111238,2,0,P|171:232|167:287,1,67.5000025749208,2|0,3:2|0:0,0:0:0:0:
30,322,111595,2,0,P|14:289|18:234,1,67.5000025749208,4|0,3:2|0:0,0:0:0:0:
118,117,111952,2,0,P|183:168|248:169,1,135.000005149842,2|4,1:2|3:2,0:0:0:0:
319,145,112488,1,0,0:0:0:0:
118,117,112666,6,0,P|200:107|246:61,1,135.000005149842,2|4,3:2|3:2,3:0:0:0:
319,145,113202,1,0,0:0:0:0:
118,117,113380,6,0,P|169:52|170:-12,1,135.000005149842,2|4,1:2|3:2,3:0:0:0:
28,118,113916,1,0,0:0:0:0:
181,234,114095,2,0,P|232:299|233:363,2,135.000005149842,2|4|0,3:2|3:2|1:0,3:0:0:0:
140,318,114988,1,2,0:0:0:0:
140,318,115077,1,2,0:0:0:0:
140,318,115166,2,0,P|104:311|66:308,1,67.5000025749208,4|0,3:2|0:0,0:0:0:0:
314,270,115523,6,0,P|351:277|388:280,1,67.5000025749208,2|0,3:2|0:0,0:0:0:0:
216,163,115880,2,0,P|208:98|185:25,1,135.000005149842,4|2,3:2|1:2,0:0:0:0:
115,99,116416,1,2,0:0:0:0:
306,184,116595,2,0,P|356:181|410:170,1,101.250003862381,4|0,0:0|0:0,0:0:0:0:
416,165,116952,6,0,P|421:127|431:94,1,67.5000025749208,2|0,3:2|0:0,0:0:0:0:
322,72,117309,2,0,P|317:34|307:1,1,67.5000025749208,4|0,3:2|0:0,0:0:0:0:
219,64,117666,2,0,L|77:90,1,135.000005149842,0|4,1:0|3:2,0:0:0:0:
170,168,118202,1,0,0:0:0:0:
83,245,118380,2,0,L|225:271,1,135.000005149842,2|4,3:2|3:2,0:0:0:0:
399,378,118916,5,2,0:0:0:0:
439,296,119095,2,0,P|390:302|327:314,1,101.250003862381,0|0,1:0|0:0,0:0:0:0:
329,308,119452,2,0,P|325:275|315:231,1,67.5000025749208,4|0,3:2|0:0,0:0:0:0:
441,204,119809,2,0,P|445:170|453:125,1,67.5000025749208,2|0,3:2|0:0,0:0:0:0:
346,31,120166,2,0,P|291:46|265:125,1,135.000005149842,4|0,3:2|1:0,0:0:0:0:
162,204,120702,5,0,0:0:0:0:
236,257,120880,2,0,P|246:222|248:175,1,67.5000025749208,4|0,3:2|0:0,0:0:0:0:
116,79,121238,2,0,P|106:114|104:161,1,67.5000025749208,2|0,3:2|0:0,0:0:0:0:
9,237,121595,1,4,3:2:0:0:
76,277,121773,1,2,0:0:0:0:
73,353,121952,1,0,1:0:0:0:
108,286,122130,1,2,0:0:0:0:
185,273,122309,1,4,3:2:0:0:
245,320,122488,1,2,0:0:0:0:
379,371,122666,6,0,P|412:370|458:376,1,67.5000025749208,2|0,3:2|0:0,0:0:0:0:
259,244,123023,2,0,P|272:195|272:103,1,135.000005149842,4|2,3:2|1:2,0:0:0:0:
335,41,123559,1,0,0:0:0:0:
411,90,123738,2,0,P|416:123|430:159,1,67.5000025749208,4|0,3:2|0:0,0:0:0:0:
259,244,124095,6,0,L|184:231,1,67.5000025749208,2|0,3:2|0:0,0:0:0:0:
114,164,124452,2,0,P|104:198|99:255,1,67.5000025749208,4|0,3:2|0:0,0:0:0:0:
309,337,124809,6,0,L|384:324,1,67.5000025749208,2|0,1:2|0:0,0:0:0:0:
454,257,125166,2,0,P|464:291|469:348,1,67.5000025749208,4|0,3:2|0:0,0:0:0:0:
219,367,125523,6,0,P|238:290|302:248,1,135.000005149842,2|4,3:2|3:2,0:0:0:0:
344,188,126059,1,0,0:0:0:0:
229,0,126238,2,0,P|248:77|312:119,1,135.000005149842,2|4,1:2|3:2,0:0:0:0:
427,195,126773,1,0,0:0:0:0:
112,220,126952,6,0,P|143:212|188:214,1,67.5000025749208,2|0,3:2|0:0,0:0:0:0:
427,195,127309,6,0,P|395:187|351:189,1,67.5000025749208,4|0,3:2|0:0,0:0:0:0:
143,123,127666,5,0,1:0:0:0:
330,280,127845,1,0,3:0:0:0:
283,144,128023,5,0,1:0:0:0:
225,372,128202,1,0,3:0:0:0:
225,372,128291,1,0,3:0:0:0:
225,372,128380,2,0,P|214:328|197:280,1,90,2|0,1:2|3:0,0:0:0:0:
105,282,128648,1,0,3:0:0:0:
105,282,128738,2,0,P|99:251|89:222,1,44.9999988079071,2|2,3:0|3:3,0:0:0:0:
302,204,128916,6,0,P|313:160|330:112,1,90,2|0,1:0|3:0,0:0:0:0:
420,108,129184,1,0,3:0:0:0:
420,108,129273,2,0,P|428:82|439:58,1,44.9999988079071,2|2,3:0|3:0,0:0:0:0:
131,86,129452,6,0,P|120:42|103:-6,1,90,6|0,1:0|3:0,0:0:0:0:
30,52,129720,1,0,3:0:0:0:
30,52,129809,2,2,P|23:30|16:8,1,44.9999988079071,2|2,3:0|3:0,0:0:0:0:
256,193,129988,5,6,1:0:0:0:
256,152,130077,1,0,3:0:0:0:
257,111,130166,1,0,3:0:0:0:
257,70,130255,1,2,3:0:0:0:
257,29,130345,1,0,3:0:0:0:
512,68,130523,6,0,P|470:62|421:48,1,90,6|0,1:0|3:0,0:0:0:0:
175,198,130880,6,0,P|133:204|84:218,1,90,6|0,1:0|3:0,0:0:0:0:
6,200,131148,1,0,3:0:0:0:
14,190,131238,2,0,P|114:215|131:317,1,180,6|0,1:0|3:0,0:0:0:0:
374,164,131773,6,0,P|380:189|394:221,1,44.9999988079071,2|0,1:0|3:0,0:0:0:0:
476,350,131952,2,0,P|451:356|419:370,1,44.9999988079071,2|0,3:0|3:0,0:0:0:0:
238,366,132130,1,2,3:2:0:0:
238,366,132220,1,0,3:0:0:0:
238,366,132309,2,0,P|244:322|257:265,1,90,2|0,1:0|3:0,0:0:0:0:
342,259,132577,1,0,3:0:0:0:
342,259,132666,2,0,P|346:231|352:206,1,44.9999988079071,2|2,3:0|3:0,3:0:0:0:
145,183,132845,6,0,P|139:139|126:82,1,90,2|0,1:0|3:0,0:0:0:0:
46,106,133113,1,0,3:0:0:0:
46,106,133202,2,0,P|39:78|34:60,1,44.9999988079071,2|2,3:0|3:0,3:0:0:0:
372,88,133380,6,0,P|378:44|391:-13,1,90,6|0,1:0|3:0,0:0:0:0:
231,149,133738,5,6,1:0:0:0:
499,300,133916,1,0,3:0:0:0:
319,165,134095,6,0,P|326:190|343:233,1,44.9999988079071,6|0,1:0|3:0,0:0:0:0:
427,205,134273,2,0,P|414:228|395:270,1,44.9999988079071,2|0,3:0|3:0,0:0:0:0:
499,300,134452,2,0,P|473:307|431:324,1,44.9999988079071,2|0,3:0|3:0,0:0:0:0:
254,379,134630,5,2,1:0:0:0:
254,351,134720,1,0,3:0:0:0:
254,324,134809,1,2,3:0:0:0:
252,297,134898,1,0,3:0:0:0:
250,269,134988,1,2,3:0:0:0:
187,83,135166,6,0,P|179:108|163:151,1,44.9999988079071,6|0,1:0|3:0,0:0:0:0:
79,123,135344,2,0,P|91:146|110:188,1,44.9999988079071,2|0,3:0|3:0,0:0:0:0:
7,218,135523,2,0,P|32:225|75:242,1,44.9999988079071,2|0,3:0|3:0,0:0:0:0:
261,296,135701,5,2,1:0:0:0:
261,268,135791,1,0,3:0:0:0:
261,241,135880,1,2,3:0:0:0:
263,214,135969,1,0,3:0:0:0:
265,186,136059,1,2,3:0:0:0:
399,277,136238,5,6,1:0:0:0:
142,165,136416,1,0,3:0:0:0:
413,137,136595,5,6,1:0:0:0:
154,317,136773,1,0,3:0:0:0:
154,317,136863,1,0,3:0:0:0:
154,317,136952,2,0,B|254:327|210:347|348:378,1,179.999995231629,6|2,1:0|3:2,0:0:0:0:
380,320,137398,1,0,3:0:0:0:
380,320,137488,2,0,P|374:295|369:260,1,44.9999988079071,2|0,1:0|0:0,0:0:0:0:
269,229,137666,2,0,P|275:204|280:169,1,44.9999988079071,2|0,3:2|3:0,0:0:0:0:
448,160,137845,1,2,3:0:0:0:
90,153,138023,6,0,P|150:103|146:-12,1,180,6|2,1:0|3:2,0:0:0:0:
80,2,138470,1,0,3:0:0:0:
80,2,138559,2,0,P|82:28|93:59,1,44.9999988079071,2|0,1:0|0:0,0:0:0:0:
196,206,138738,2,0,P|201:184|203:161,1,44.9999988079071,2|0,3:2|3:0,0:0:0:0:
335,53,138916,1,0,3:0:0:0:
24,133,139095,5,2,1:0:0:0:
340,158,139273,1,2,3:2:0:0:
155,6,139452,1,2,1:0:0:0:
234,365,139630,1,2,3:2:0:0:
234,365,139720,1,0,3:0:0:0:
234,365,139809,1,6,1:0:0:0:
500,25,140345,5,6,1:0:0:0:
22,364,140880,5,6,1:0:0:0:
252,17,141952,5,2,1:0:0:0:
235,68,142040,1,0,1:0:0:0:
245,140,142130,1,2,1:0:0:0:
298,197,142219,1,0,1:0:0:0:
378,221,142309,2,0,P|421:226|466:241,1,90,2|2,1:0|0:0,0:0:0:0:
1,193,142666,6,2,P|8:126|0:56,1,135,6|0,1:0|0:0,0:1:0:0:
0,59,143738,5,6,1:0:0:0:
0,59,144809,2,2,P|-3:123|3:259,1,180,0|6,0:1|1:0,0:1:0:0:
8,333,145345,1,2,0:0:0:0:
339,373,145523,5,6,1:0:0:0:
243,328,145702,2,0,P|252:282|257:236,1,90,2|0,3:2|0:0,0:0:0:0:
143,240,146059,5,2,3:2:0:0:
358,190,146238,2,0,P|348:144|344:98,1,90,2|2,1:1|3:2,0:0:0:0:
447,129,146595,5,2,1:0:0:0:
133,86,146773,2,0,P|213:42|230:-13,1,135,2|0,3:2|0:0,0:0:0:0:
232,10,147130,6,0,P|243:56|246:111,1,90,4|0,3:2|0:0,0:0:0:0:
106,327,147488,2,0,P|117:281|120:226,1,90,4|0,3:2|1:0,0:0:0:0:
217,204,147845,2,0,B|263:198|263:198|302:217,1,90,4|0,3:2|1:0,0:0:0:0:
396,252,148202,1,0,1:0:0:0:
245,291,148380,1,6,1:0:0:0:
504,331,148559,6,0,B|443:322|443:322|399:357|399:357|319:348,1,180,2|2,3:2|3:2,0:0:0:0:
32,258,149095,2,0,P|78:249|122:238,1,90,2|2,1:0|3:2,0:0:0:0:
354,101,149452,1,2,1:0:0:0:
233,15,149630,1,2,3:2:0:0:
233,15,149720,1,0,3:0:0:0:
233,15,149809,1,2,3:1:0:0:
133,128,149988,6,0,P|177:131|238:146,1,90,4|0,3:2|0:0,0:0:0:0:
368,292,150345,2,0,P|412:288|456:279,1,90,4|0,3:2|1:0,0:0:0:0:
162,229,150702,5,4,3:2:0:0:
280,357,150880,1,0,1:0:0:0:
292,173,151059,5,0,1:0:0:0:
168,360,151238,1,6,1:0:0:0:
7,221,151416,2,0,P|22:178|32:122,1,90,2|0,3:2|0:0,0:0:0:0:
197,76,151773,1,2,3:2:0:0:
52,8,151952,1,2,1:0:0:0:
166,224,152130,1,2,3:2:0:0:
435,162,152309,5,2,1:0:0:0:
476,70,152488,2,0,B|371:71|420:116|306:124,1,180,2|2,3:2|3:2,0:0:0:0:
107,25,153023,6,0,B|89:67|89:67|87:132,1,90,2|2,0:1|3:2,0:0:0:0:
235,284,153380,2,0,B|246:240|246:240|250:195,1,90,2|2,1:1|3:2,0:0:0:0:
426,275,153738,1,2,1:0:0:0:
217,374,153916,1,0,1:0:0:0:
469,374,154095,5,6,1:2:0:0:
250,195,154273,1,0,3:0:0:0:
176,242,154452,5,6,1:2:0:0:
87,384,154630,1,0,3:0:0:0:
97,287,154809,5,4,1:2:0:0:
179,354,154988,1,0,3:0:0:0:
453,221,155166,5,4,1:2:0:0:
278,384,155345,1,0,3:0:0:0:
302,141,155523,6,0,P|295:96|279:43,1,90,6|0,1:0|0:0,0:0:0:0:
230,1,155791,1,8,3:0:0:0:
216,2,155880,1,4,3:0:0:0:
386,61,156059,1,0,3:0:0:0:
230,284,156238,6,0,P|237:239|253:186,1,90,6|0,1:0|0:0,0:0:0:0:
302,141,156506,1,8,3:0:0:0:
316,142,156595,1,4,3:0:0:0:
132,255,156774,1,0,3:0:0:0:
391,277,156952,5,6,1:0:0:0:
489,332,157130,2,0,B|399:329|423:378|309:385,1,180,2|2,3:2|3:2,0:0:0:0:
89,290,157666,2,0,B|109:248|109:248|109:190,1,90,2|2,1:0|3:2,0:0:0:0:
249,62,158023,5,2,1:0:0:0:
34,149,158202,2,0,B|124:146|100:195|214:202,1,180,2|2,3:2|3:2,0:0:0:0:
377,310,158738,2,0,P|363:261|360:207,1,90,2|2,3:1|3:2,0:0:0:0:
411,164,159005,1,0,3:0:0:0:
415,144,159095,1,2,1:0:0:0:
486,291,159273,1,0,3:0:0:0:
256,369,159452,1,2,1:0:0:0:
306,156,159630,1,0,1:0:0:0:
80,23,159809,5,6,1:0:0:0:
102,257,159988,1,2,3:2:0:0:
102,257,160077,1,0,3:0:0:0:
102,257,160166,1,4,3:0:0:0:
306,156,160345,1,2,3:2:0:0:
193,96,160523,2,0,P|177:138|167:182,1,90,2|2,1:0|3:2,0:0:0:0:
0,285,160880,5,2,1:0:0:0:
198,378,161059,2,0,B|180:311|180:311|202:269|202:269|181:191,1,180,2|2,3:2|3:2,0:0:0:0:
440,256,161595,5,2,3:1:0:0:
286,316,161773,1,0,3:0:0:0:
286,316,161863,1,0,3:0:0:0:
286,316,161952,2,0,P|333:323|395:349,1,90,2|0,1:0|3:0,0:0:0:0:
247,120,162309,5,2,1:0:0:0:
440,256,162488,1,0,1:0:0:0:
344,57,162666,5,6,1:0:0:0:
173,256,162845,2,0,P|167:166|120:85,1,180,2|2,3:2|3:2,0:0:0:0:
409,173,163380,2,0,P|413:105|448:44,1,135,2|0,1:0|0:2,0:0:0:0:
444,47,163738,1,2,1:0:0:0:
295,189,163916,6,0,P|386:193|448:282,1,180,2|2,3:2|3:2,0:0:0:0:
365,363,164452,2,0,P|354:316|350:267,1,90,2|2,3:1|3:2,0:0:0:0:
295,190,164720,1,0,3:0:0:0:
284,179,164809,1,2,1:0:0:0:
144,283,164988,1,2,3:2:0:0:
144,283,165077,1,0,3:0:0:0:
144,283,165166,1,2,1:0:0:0:
23,158,165345,1,0,1:0:0:0:
243,40,165523,5,6,1:0:0:0:
150,84,165702,1,2,3:2:0:0:
339,155,165880,5,2,1:0:0:0:
478,231,166059,1,2,3:2:0:0:
240,278,166238,5,2,1:0:0:0:
48,354,166416,2,0,P|76:270|94:167,1,180,2|2,3:2|3:2,0:0:0:0:
376,328,166952,6,0,P|361:285|353:241,1,90,6|2,1:0|3:2,0:0:0:0:
297,191,167220,1,8,3:0:0:0:
288,179,167309,1,4,3:0:0:0:
478,231,167488,1,0,3:0:0:0:
185,134,167666,5,6,1:0:0:0:
277,77,167845,1,2,3:2:0:0:
277,77,167934,1,8,3:0:0:0:
277,77,168023,1,4,3:0:0:0:
186,28,168202,1,0,3:0:0:0:
113,248,168380,6,0,P|209:254|253:345,1,202.500007724762,2|0,3:2|3:0,0:0:0:0:
182,384,169095,2,0,P|169:350|170:299,1,67.5000025749208,0|0,1:0|3:0,0:0:0:0:
325,288,169452,6,0,P|338:322|337:373,1,67.5000025749208,2|0,0:0|3:0,0:0:0:0:
340,352,169720,1,0,3:0:0:0:
340,352,169809,2,0,B|419:351|388:325|481:317,1,135.000005149842,2|2,3:2|3:2,0:0:0:0:
392,251,170345,1,0,3:0:0:0:
463,189,170523,1,0,1:0:0:0:
391,133,170702,1,8,3:0:0:0:
403,109,170791,1,8,3:0:0:0:
408,82,170880,1,4,3:0:0:0:
402,55,170970,1,4,3:0:0:0:
387,32,171059,1,4,3:0:0:0:
363,18,171148,1,4,3:0:0:0:
335,15,171238,6,0,P|277:26|184:30,1,135.000005149842,6|0,3:2|0:0,0:0:0:0:
21,103,171773,2,0,P|79:114|172:118,1,135.000005149842,2|0,3:2|3:0,0:0:0:0:
217,318,172309,6,0,P|220:250|232:184,1,135.000005149842,2|0,3:2|3:0,0:0:0:0:
154,118,172845,2,0,P|150:185|138:251,1,135.000005149842,2|0,3:2|3:0,0:0:0:0:
288,373,173380,1,0,1:0:0:0:
372,322,173559,1,8,3:0:0:0:
354,301,173648,1,8,3:0:0:0:
347,274,173738,1,4,3:0:0:0:
354,248,173827,1,4,3:0:0:0:
373,228,173916,1,4,3:0:0:0:
399,224,174005,1,4,3:0:0:0:
425,231,174095,1,6,3:2:0:0:
512,295,174273,6,0,P|477:302|442:300,1,67.5000025749208,2|0,0:0|3:0,0:0:0:0:
270,188,174630,2,0,P|280:153|283:113,1,67.5000025749208,2|0,3:2|1:0,0:0:0:0:
353,63,174988,2,0,P|363:98|366:138,1,67.5000025749208,0|0,3:2|0:0,0:0:0:0:
199,242,175345,5,0,3:0:0:0:
199,242,175523,2,0,P|155:243|68:197,1,135.000005149842,2|0,3:2|3:0,0:0:0:0:
70,316,176059,2,0,P|103:322|140:339,1,67.5000025749208,2|0,3:2|1:0,0:0:0:0:
312,377,176416,1,8,3:0:0:0:
333,361,176505,1,8,3:0:0:0:
345,336,176595,1,4,3:0:0:0:
347,309,176684,1,4,3:0:0:0:
337,283,176773,1,4,3:0:0:0:
316,265,176863,1,4,3:0:0:0:
291,253,176952,6,0,P|277:189|269:116,1,135.000005149842,0|2,3:2|0:0,0:0:0:0:
191,59,177488,1,0,3:0:0:0:
392,187,177666,5,0,1:0:0:0:
402,92,177845,1,0,3:0:0:0:
376,168,178023,1,0,3:2:0:0:
429,83,178202,1,2,3:2:0:0:
291,253,178380,6,0,P|371:286|395:338,1,135.000005149842,0|0,3:0|3:0,0:0:0:0:
494,272,178916,1,0,3:0:0:0:
256,372,179095,5,0,1:0:0:0:
256,372,179809,1,0,3:0:0:0:
194,320,179988,1,2,3:2:0:0:
266,293,180166,1,0,3:0:0:0:
326,344,180345,1,4,3:0:0:0:
119,376,180523,6,0,P|111:311|87:235,1,135.000005149842,4|2,1:2|0:0,0:0:0:0:
17,212,181059,1,0,3:0:0:0:
168,164,181238,2,0,P|168:130|177:98,1,67.5000025749208,0|2,3:2|3:2,0:0:0:0:
111,10,181595,2,0,P|110:43|102:76,1,67.5000025749208,0|0,3:2|3:2,0:0:0:0:
28,102,181863,1,0,3:0:0:0:
12,106,181952,1,4,1:2:0:0:
168,164,182130,1,8,3:0:0:0:
193,153,182220,1,8,3:0:0:0:
219,157,182309,1,4,3:0:0:0:
240,173,182398,1,4,3:0:0:0:
254,195,182488,1,4,3:0:0:0:
255,221,182577,1,4,3:0:0:0:
242,245,182666,6,0,P|233:280|227:321,1,67.5000025749208,0|2,3:2|0:0,0:0:0:0:
284,372,183023,1,0,3:0:0:0:
132,366,183202,1,0,3:0:0:0:
132,366,183291,1,0,3:0:0:0:
132,366,183380,2,0,P|129:298|114:226,1,135.000005149842,4|4,1:2|3:0,0:0:0:0:
57,177,183916,1,0,3:0:0:0:
243,61,184095,5,0,3:0:0:0:
301,114,184273,1,2,3:2:0:0:
229,137,184452,1,0,3:0:0:0:
168,88,184630,1,0,3:0:0:0:
332,37,184809,5,4,1:2:0:0:
434,144,184988,1,8,3:0:0:0:
369,221,185166,1,4,3:0:0:0:
348,238,185255,1,4,3:0:0:0:
338,263,185345,1,4,3:0:0:0:
338,289,185434,1,4,3:0:0:0:
346,314,185523,1,2,3:2:0:0:
418,381,185702,6,0,P|422:344|434:309,1,67.5000025749208,2|0,0:0|3:0,0:0:0:0:
237,241,186059,2,0,P|246:273|250:306,1,67.5000025749208,2|4,3:2|1:2,0:0:0:0:
286,164,186416,1,0,3:0:0:0:
219,119,186595,1,8,3:0:0:0:
286,164,186773,1,0,3:0:0:0:
398,66,186952,5,2,3:2:0:0:
398,66,187130,2,0,P|401:104|410:135,1,67.5000025749208,2|0,0:0|3:0,0:0:0:0:
187,22,187488,1,2,3:2:0:0:
187,22,187577,1,0,3:0:0:0:
187,22,187666,2,0,P|184:60|175:91,1,67.5000025749208,4|8,1:2|3:0,0:0:0:0:
24,160,188023,1,4,3:0:0:0:
50,156,188113,1,4,3:0:0:0:
75,165,188202,1,4,3:0:0:0:
92,185,188291,1,4,3:0:0:0:
102,209,188380,5,2,3:2:0:0:
174,226,188559,1,0,3:0:0:0:
248,239,188738,1,0,3:0:0:0:
394,183,188916,1,0,3:0:0:0:
394,183,189005,1,0,3:0:0:0:
394,183,189095,2,0,L|465:176,1,67.5000025749208,0|0,1:0|0:0,0:0:0:0:
388,362,189452,5,2,3:2:0:0:
367,289,189630,1,0,3:0:0:0:
443,271,189809,1,2,3:2:0:0:
467,347,189988,1,0,3:0:0:0:
467,347,190345,1,0,3:0:0:0:
217,288,190523,1,0,1:0:0:0:
291,219,190702,6,0,P|285:191|282:166,1,45,4|0,0:0|0:0,0:0:0:0:
115,212,190880,2,0,P|120:190|125:168,1,45,4|0,0:0|0:0,0:0:0:0:
73,86,191059,5,2,0:0:0:0:
73,86,191148,1,2,0:0:0:0:
73,86,191238,2,0,P|148:142|234:141,1,158.400004833984,4|0,3:2|0:0,0:0:0:0:
272,99,191773,1,0,3:0:0:0:
502,187,191952,2,0,B|465:178|465:178|405:201,1,79.2000024169922,6|0,1:2|3:0,0:0:0:0:
350,261,192309,2,0,P|364:299|365:350,1,79.2000024169922,0|8,3:0|3:0,0:0:0:0:
197,382,192666,6,0,P|160:314|182:228,1,158.400004833984,6|0,3:2|0:0,0:0:0:0:
253,187,193202,1,2,3:2:0:0:
20,180,193380,2,0,B|52:204|52:204|107:197,1,79.2000024169922,6|0,1:2|0:0,0:0:0:0:
332,128,193738,5,4,3:0:0:0:
306,109,193827,1,4,3:0:0:0:
288,82,193916,1,4,3:0:0:0:
284,50,194005,1,4,3:0:0:0:
294,19,194095,2,0,L|376:12,1,79.2000024169922,6|0,3:2|0:0,0:0:0:0:
462,66,194452,1,4,3:0:0:0:
421,156,194630,1,0,3:0:0:0:
506,296,194809,2,0,P|527:230|500:135,1,158.400004833984,4|0,1:2|3:0,0:0:0:0:
506,296,195345,1,4,3:0:0:0:
286,174,195523,2,0,P|265:240|292:335,1,158.400004833984,4|0,3:2|3:0,0:0:0:0:
369,370,196059,1,0,3:0:0:0:
166,375,196238,6,0,P|177:335|181:289,1,79.2000024169922,4|8,1:2|3:0,0:0:0:0:
153,231,196505,1,8,3:0:0:0:
124,217,196595,1,4,3:0:0:0:
92,217,196684,1,4,3:0:0:0:
63,231,196773,1,4,3:0:0:0:
300,251,196952,6,0,P|289:211|285:165,1,79.2000024169922,4|0,3:2|0:0,0:0:0:0:
359,132,197309,1,0,3:0:0:0:
207,3,197488,1,4,3:0:0:0:
207,3,197577,1,0,3:0:0:0:
207,3,197666,2,0,P|203:41|190:95,1,79.2000024169922,4|0,1:2|3:0,0:0:0:0:
409,69,198023,2,0,B|375:50|375:50|336:57,1,79.2000024169922,0|0,3:0|3:0,0:0:0:0:
498,254,198380,6,0,B|410:254|443:289|343:298,1,158.400004833984,4|0,3:2|3:0,0:0:0:0:
286,237,198916,1,0,3:0:0:0:
190,369,199095,2,0,P|202:331|208:292,1,79.2000024169922,4|8,1:2|3:0,0:0:0:0:
121,187,199452,1,4,3:0:0:0:
94,204,199541,1,4,3:0:0:0:
78,231,199630,1,4,3:0:0:0:
75,262,199720,1,4,3:0:0:0:
81,292,199809,1,4,3:2:0:0:
310,184,200166,2,0,P|297:144|290:103,1,79.2000024169922,0|8,3:0|3:0,0:0:0:0:
142,30,200523,2,0,P|135:69|123:107,1,79.2000024169922,4|0,1:2|3:0,0:0:0:0:
408,63,200880,5,0,3:0:0:0:
290,107,201059,2,0,B|385:111|332:153|446:167,1,158.400004833984,0|0,1:2|3:0,0:0:0:0:
195,241,201595,2,0,B|100:245|153:287|39:301,1,158.400004833984,0|0,1:2|3:0,0:0:0:0:
334,345,202130,5,8,3:0:0:0:
252,371,202309,2,0,B|252:329|252:329|268:292,1,79.2000024169922,4|0,3:0|3:0,0:0:0:0:
501,278,202666,5,4,3:2:0:0:
257,193,202845,1,0,3:1:0:0:
257,193,203202,1,0,3:0:0:0:
438,148,203380,2,0,P|396:140|341:121,1,90,4|0,1:2|3:0,0:0:0:0:
274,42,203738,5,0,3:0:0:0:
13,49,203916,2,0,P|101:84|195:105,1,180,4|0,1:2|3:0,0:0:0:0:
310,308,204452,2,0,P|300:264|294:213,1,90,4|0,1:2|3:0,0:0:0:0:
204,273,204809,1,0,3:2:0:0:
357,377,204988,1,4,1:2:0:0:
482,210,205166,1,4,1:2:0:0:
396,179,205345,1,0,3:0:0:0:
506,94,205523,5,4,3:2:0:0:
257,146,205702,1,0,3:0:0:0:
257,146,206059,1,0,3:0:0:0:
98,65,206238,2,0,B|138:88|138:88|202:88,1,90,4|0,1:2|3:0,0:0:0:0:
31,155,206595,5,0,3:0:0:0:
179,291,206773,2,0,B|103:245|103:245|-5:249,1,180,4|0,1:2|3:0,3:0:0:0:
259,374,207309,2,0,B|280:314|280:314|266:259|266:259|285:200,1,180,4|0,1:2|3:0,0:0:0:0:
415,355,207845,5,8,3:0:0:0:
492,260,208023,1,8,3:0:0:0:
388,272,208202,1,0,3:0:0:0:
503,348,208380,1,4,3:2:0:0:
424,112,208559,5,2,3:1:0:0:
424,112,208916,1,0,3:0:0:0:
279,177,209095,2,0,P|292:138|304:84,1,90,4|0,1:2|3:0,0:0:0:0:
373,186,209452,1,0,3:0:0:0:
172,22,209630,5,2,1:0:0:0:
29,112,209809,1,0,3:0:0:0:
8,22,209988,1,4,3:0:0:0:
153,119,210166,2,0,P|165:158|180:216,1,90,2|0,1:0|3:0,0:0:0:0:
101,266,210523,5,0,3:0:0:0:
297,368,210702,1,2,1:0:0:0:
432,204,210880,1,2,1:0:0:0:
309,209,211059,1,0,3:1:0:0:
452,319,211238,6,0,P|458:240|487:122,1,180,6|0,3:1|0:0,0:0:0:0:
251,155,211773,1,0,3:0:0:0:
439,37,211952,1,4,1:2:0:0:
339,226,212130,1,0,3:0:0:0:
333,5,212309,1,0,3:0:0:0:
455,219,212488,6,0,B|436:258|436:258|450:329,1,90,4|0,1:2|0:0,0:0:0:0:
339,226,212845,1,0,3:0:0:0:
227,374,213023,2,0,B|245:288|245:288|198:184,1,180,4|0,1:2|3:0,0:0:0:0:
347,129,213559,5,4,1:2:0:0:
65,54,213738,1,0,1:0:0:0:
286,39,213916,5,0,3:2:0:0:
119,154,214095,1,4,3:2:0:0:
200,368,219809,6,0,P|196:322|187:269,1,90,6|2,3:2|0:0,0:0:0:0:
338,310,220166,2,0,P|341:264|351:211,1,90,2|2,3:2|0:0,0:0:0:0:
85,185,220523,6,0,B|128:174|128:174|189:203,1,90,2|2,3:2|0:0,0:0:0:0:
459,127,220880,2,0,B|417:146|417:146|374:135,1,90,2|2,3:2|0:0,0:0:0:0:
129,40,221238,5,2,3:2:0:0:
217,26,221416,1,2,0:0:0:0:
273,98,221595,1,2,3:2:0:0:
187,107,221773,1,2,0:0:0:0:
353,272,221952,5,2,3:2:0:0:
441,286,222130,1,2,0:0:0:0:
497,214,222309,1,2,3:2:0:0:
411,205,222487,1,2,0:0:0:0:
243,281,222666,6,0,P|243:325|232:375,1,90,2|2,3:2|0:0,0:0:0:0:
243,281,223023,1,2,3:2:0:0:
116,379,223202,2,0,P|107:288|144:208,1,180,2|0,0:0|0:0,0:0:0:0:
354,331,223738,2,0,P|363:240|326:160,1,180,2|0,3:2|3:0,0:0:0:0:
99,94,224273,5,2,0:0:0:0:
242,37,224452,1,2,3:2:0:0:
198,139,224630,1,2,0:0:0:0:
137,0,224809,1,2,3:2:0:0:
327,161,224988,6,0,P|415:189|496:142,1,180,2|0,0:0|0:0,0:0:0:0:
276,271,225523,6,0,B|254:313|254:313|257:371,1,90,6|2,3:2|0:0,0:0:0:0:
57,288,225880,2,0,L|146:272,1,90,2|2,3:2|0:0,0:0:0:0:
264,94,226238,6,0,B|261:51|261:51|283:9,1,90,2|2,3:2|0:0,0:0:0:0:
400,134,226595,2,0,L|491:151,1,90,2|2,3:2|0:0,0:0:0:0:
182,184,226952,6,0,L|91:201,1,90,2|2,3:2|0:0,0:0:0:0:
128,109,227309,1,2,3:2:0:0:
269,172,227488,1,2,0:0:0:0:
167,285,227666,1,2,3:2:0:0:
21,233,227845,1,2,0:0:0:0:
147,282,228023,1,2,3:2:0:0:
39,242,228202,1,2,0:2:0:0:
261,362,228380,6,0,P|252:316|248:270,1,90,2|2,3:2|0:0,0:0:0:0:
339,291,228738,1,2,3:2:0:0:
460,173,228916,2,0,B|454:228|454:228|476:269|476:269|468:350,1,180,2|0,0:0|0:0,0:0:0:0:
172,153,229452,2,0,B|178:208|178:208|156:249|156:249|163:326,1,180,2|0,3:2|3:0,0:0:0:0:
381,161,229988,5,2,0:0:0:0:
255,79,230166,1,2,3:2:0:0:
394,47,230345,5,2,0:0:0:0:
255,192,230523,2,0,L|66:237,1,180,2|0,3:2|3:0,0:0:0:0:
194,292,231059,1,2,0:0:0:0:
134,95,231238,5,6,3:2:0:0:
0,197,231416,1,2,3:2:0:0:
130,371,231595,5,6,3:2:0:0:
67,229,231773,1,2,3:2:0:0:
242,87,231952,5,6,3:2:0:0:
356,236,232130,1,2,3:2:0:0:
246,164,232309,1,6,3:2:0:0:
363,160,232488,1,2,3:2:0:0:
181,219,232666,5,6,3:1:0:0:
432,112,232845,1,2,3:2:0:0:
240,297,233023,5,2,3:1:0:0:
361,43,233202,1,2,3:2:0:0:
251,279,233380,5,2,3:1:0:0:
449,132,233559,1,2,3:2:0:0:
181,219,233738,5,2,3:1:0:0:
468,256,233916,1,2,3:2:0:0:
121,154,234095,5,6,3:1:0:0:
121,154,234273,1,2,3:2:0:0:
30,113,234452,1,2,3:1:0:0:
102,53,234630,1,2,3:2:0:0:
199,249,234809,5,2,3:1:0:0:
105,261,234988,1,2,3:2:0:0:
234,78,235166,5,2,3:1:0:0:
297,142,235345,1,2,3:2:0:0:
326,342,235523,5,6,3:1:0:0:
358,259,235702,1,2,3:2:0:0:
507,117,235880,5,2,3:1:0:0:
423,157,236059,1,2,3:2:0:0:
326,342,236238,5,2,3:1:0:0:
191,284,236416,1,2,3:2:0:0:
212,91,236595,5,2,3:1:0:0:
14,151,236773,1,2,3:2:0:0:
268,233,236952,6,0,P|281:195|290:142,1,90,6|2,3:1|3:2,0:0:0:0:
163,0,237309,1,2,3:1:0:0:
164,187,237488,1,2,3:2:0:0:
302,42,237666,1,2,3:2:0:0:
81,93,237845,1,2,3:1:0:0:
411,180,238023,6,0,L|510:213,1,90,6|2,3:1|3:2,0:0:0:0:
307,326,238380,1,2,3:2:0:0:
393,366,238559,1,2,3:1:0:0:
360,242,238738,1,2,3:1:0:0:
206,333,238916,1,2,3:2:0:0:
55,180,239095,1,2,3:1:0:0:
257,249,239273,1,2,3:2:0:0:
382,38,239452,1,2,3:1:0:0:
166,167,239630,1,2,3:2:0:0:
468,212,239809,6,0,P|455:172|452:113,1,90,6|2,3:1|3:2,0:0:0:0:
166,167,240166,5,2,3:1:0:0:
335,49,240345,1,2,3:2:0:0:
219,243,240523,1,2,3:2:0:0:
249,8,240702,1,2,3:2:0:0:
319,243,240880,1,2,3:1:0:0:
168,51,241059,1,2,3:2:0:0:
384,128,241237,1,2,3:2:0:0:
125,135,241416,1,2,3:2:0:0:
381,109,241595,5,2,3:1:0:0:
136,155,241773,1,2,3:2:0:0:
363,27,241952,1,2,3:2:0:0:
168,236,242130,1,2,3:2:0:0:
284,2,242309,1,2,3:1:0:0:
234,297,242488,1,2,3:2:0:0:
471,82,242666,5,2,3:1:0:0:
470,108,242755,1,0,3:0:0:0:
470,135,242845,1,2,3:2:0:0:
472,161,242934,1,0,3:0:0:0:
441,183,243023,5,2,3:1:0:0:
442,209,243112,1,0,3:0:0:0:
442,236,243202,1,2,3:2:0:0:
440,262,243291,1,0,3:0:0:0:
470,285,243380,5,2,3:1:0:0:
469,311,243469,1,0,3:0:0:0:
469,338,243559,1,2,3:2:0:0:
471,364,243648,1,0,3:0:0:0:
433,382,243738,6,0,P|411:377|378:376,1,45,2|0,3:1|3:0,0:0:0:0:
330,301,243916,2,0,P|308:305|275:307,1,45,2|0,3:2|3:0,0:0:0:0:
82,146,244095,5,2,3:1:0:0:
48,176,244184,1,0,3:0:0:0:
44,221,244273,1,2,3:2:0:0:
60,263,244363,1,0,3:0:0:0:
97,287,244452,1,2,3:1:0:0:
142,285,244541,1,0,3:0:0:0:
183,266,244630,1,2,3:2:0:0:
200,223,244720,1,0,3:2:0:0:
187,179,244809,2,0,P|183:150|173:115,1,56.6999982696534,2|0,3:1|3:0,0:0:0:0:
306,24,244988,2,0,P|309:52|320:88,1,56.6999982696534,2|0,3:2|3:0,0:0:0:0:
263,274,245166,6,0,P|270:247|274:219,1,56.6999982696534,2|0,3:1|3:0,0:0:0:0:
466,155,245345,2,0,P|469:183|476:210,1,56.6999982696534,2|0,3:2|3:0,0:0:0:0:
298,376,245523,5,2,3:1:0:0:
246,374,245613,1,0,3:0:0:0:
198,356,245702,1,2,3:2:0:0:
168,314,245791,1,0,3:0:0:0:
154,264,245880,1,2,3:1:0:0:
169,214,245970,1,0,3:0:0:0:
204,178,246059,6,0,P|197:148|194:113,1,56.6999982696534,2|0,3:1|3:0,0:0:0:0:
446,230,246238,2,0,P|423:251|394:271,1,56.6999982696534,2|0,3:2|3:0,0:0:0:0:
340,0,246416,2,0,P|369:8|401:23,1,56.6999982696534,2|0,3:1|3:0,0:0:0:0:
239,156,246595,6,0,P|247:126|262:94,1,56.6999982696534,2|0,3:1|3:0,0:0:0:0:
362,225,246774,2,0,P|331:232|297:235,1,56.6999982696534,2|0,3:2|3:0,3:0:0:0:
378,74,246952,2,0,P|399:96|419:125,1,56.6999982696534,2|0,3:1|3:0,0:0:0:0:
201,292,247130,5,2,3:1:0:0:
167,286,247220,1,0,3:0:0:0:
139,265,247309,1,2,3:2:0:0:
120,236,247398,1,0,3:0:0:0:
115,202,247488,1,2,3:2:0:0:
124,169,247577,1,0,3:0:0:0:
147,144,247666,1,2,3:1:0:0:
180,150,247755,1,0,3:0:0:0:
212,159,247845,1,2,3:2:0:0:
244,167,247934,1,0,3:0:0:0:
276,177,248023,1,2,3:1:0:0:
308,186,248113,1,0,3:0:0:0:
340,196,248202,1,2,3:2:0:0:
372,205,248291,1,0,3:0:0:0:
403,192,248380,6,0,P|407:221|422:262,1,56.6999982696534,2|0,3:1|3:0,0:0:0:0:
337,346,248559,2,0,P|333:317|318:276,1,56.6999982696534,2|0,3:2|3:0,0:0:0:0:
106,162,248738,6,0,P|102:191|87:232,1,56.6999982696534,2|0,3:1|3:0,0:0:0:0:
172,316,248917,2,0,P|176:287|191:246,1,56.6999982696534,2|0,3:2|3:0,0:0:0:0:
390,136,249095,6,0,P|394:165|409:206,1,56.6999982696534,2|0,3:1|3:0,0:0:0:0:
324,290,249274,2,0,P|320:261|305:220,1,56.6999982696534,2|0,3:2|3:0,0:0:0:0:
118,106,249452,6,0,P|114:135|99:176,1,56.6999982696534,2|0,3:1|3:0,0:0:0:0:
184,260,249631,2,0,P|188:231|203:190,1,56.6999982696534,2|0,3:2|3:0,0:0:0:0:
377,80,249809,6,0,P|381:109|396:150,1,56.6999982696534,2|0,3:1|3:0,0:0:0:0:
497,195,249988,1,2,3:2:0:0:
471,217,250077,1,0,3:0:0:0:
456,247,250166,1,2,3:1:0:0:
450,280,250255,1,0,3:2:0:0:
450,315,250345,1,2,3:2:0:0:
456,348,250434,1,0,3:1:0:0:
470,378,250523,2,0,L|395:360,1,56.6999982696534,2|0,3:1|3:0,0:0:0:0:
319,278,250702,2,0,P|316:248|301:203,1,56.6999982696534,2|0,3:2|3:0,0:0:0:0:
114,313,250880,6,0,L|189:295,1,56.6999982696534,2|0,3:1|3:0,0:0:0:0:
294,210,251059,2,0,P|300:174|312:135,1,56.6999982696534,2|0,3:2|3:0,0:0:0:0:
222,21,251238,5,2,3:1:0:0:
183,33,251327,1,0,3:0:0:0:
158,65,251416,1,2,3:2:0:0:
152,105,251505,1,0,3:0:0:0:
164,143,251595,1,2,3:1:0:0:
128,161,251684,1,0,3:0:0:0:
106,195,251773,1,2,3:2:0:0:
105,235,251863,1,0,3:0:0:0:
121,271,251952,6,0,L|192:297,1,45,2|0,3:1|3:0,3:0:0:0:
393,310,252130,2,0,L|322:336,1,45,2|0,3:2|3:0,3:0:0:0:
254,377,252309,5,2,3:1:0:0:
254,341,252398,1,0,3:2:0:0:
253,304,252488,1,2,3:2:0:0:
253,268,252577,1,0,3:2:0:0:
252,231,252666,1,6,3:1:0:0:
251,196,252755,1,0,3:0:0:0:
213,179,252845,6,0,P|208:149|205:122,1,45,2|0,3:1|3:0,0:0:0:0:
317,18,253023,2,0,P|313:40|310:62,1,45,2|0,3:1|3:0,0:0:0:0:
123,160,253202,6,0,P|118:130|115:103,1,45,2|0,3:1|3:0,0:0:0:0:
392,202,253380,2,0,P|388:224|385:246,1,45,2|0,3:1|3:0,0:0:0:0:
149,353,253559,2,0,P|152:330|155:308,1,45,2|0,3:1|3:0,0:0:0:0:
417,364,253738,5,4,3:2:0:0:
377,372,253827,1,0,3:0:0:0:
336,367,253916,1,4,3:2:0:0:
303,343,254005,1,0,3:0:0:0:
278,308,254095,2,0,L|261:104,1,198,6|2,3:1|0:0,0:0:0:0:
198,56,256238,6,0,L|196:79,2,18,2|2|0,0:0|0:0|0:0,0:0:0:0:
259,5,256773,1,2,0:0:0:0:
31,148,256952,6,0,B|100:157|100:157|133:193|133:193|211:204,1,180,6|2,3:1|0:0,0:0:0:0:
473,84,257488,2,0,B|404:93|404:93|371:129|371:129|293:140,1,180,0|2,3:2|3:2,0:0:0:0:
30,137,257934,1,0,3:0:0:0:
31,148,258023,2,0,P|134:142|184:70,1,180,6|0,1:1|0:0,0:0:0:0:
448,308,258559,6,0,P|361:318|296:261,1,180,2|0,3:2|3:0,0:0:0:0:
61,359,259095,2,0,P|138:333|243:325,1,180,6|2,1:2|3:2,0:0:0:0:
128,256,259630,1,0,3:0:0:0:
385,243,259809,6,0,P|352:149|337:51,1,180,6|0,3:1|0:2,0:0:0:0:
59,134,260345,2,0,P|135:114|183:22,1,180,6|0,3:1|3:0,0:0:0:0:
444,181,260791,1,0,3:0:0:0:
439,176,260880,2,0,B|355:149|355:149|281:224,1,180,6|0,1:0|0:0,0:0:0:0:
73,248,261416,6,0,P|179:291|204:360,1,180,2|0,0:0|3:0,0:0:0:0:
445,346,261952,5,4,1:2:0:0:
290,214,262130,1,0,3:0:0:0:
326,314,262309,5,8,3:0:0:0:
414,250,262487,1,4,3:0:0:0:
220,13,262666,6,0,P|195:102|196:208,1,180,6|0,3:1|0:0,0:0:0:0:
463,344,263202,2,0,P|493:325|465:190,1,180,2|0,3:2|3:0,0:0:0:0:
201,186,263648,1,0,3:0:0:0:
193,189,263738,2,0,P|163:170|191:35,1,180,6|0,1:0|0:0,0:0:0:0:
320,176,264273,6,0,P|304:219|297:274,1,90,2|0,3:2|0:0,0:0:0:0:
383,249,264630,1,0,3:0:0:0:
144,365,264809,2,0,P|137:320|121:278,1,90,6|0,1:2|3:0,0:0:0:0:
39,239,265166,1,0,3:0:0:0:
39,239,265345,1,0,3:0:0:0:
236,301,265523,6,0,B|300:308|300:308|335:342|335:342|409:352,1,180,6|0,3:1|3:2,0:0:0:0:
206,103,266059,2,0,P|130:87|41:165,1,180,2|0,1:2|3:2,0:0:0:0:
306,280,266595,6,0,P|317:180|337:100,1,180,6|0,1:2|0:0,0:0:0:0:
195,14,267130,2,0,P|205:61|205:108,1,90,8|4,3:0|3:0,0:0:0:0:
285,40,267488,1,0,3:0:0:0:
83,172,267666,1,0,3:0:0:0:
306,280,267845,1,4,3:0:0:0:
125,371,268023,1,0,1:0:0:0:
64,256,268202,1,0,3:0:0:0:
393,316,268380,5,6,3:1:0:0:
393,316,268470,1,0,3:0:0:0:
393,316,268559,2,0,P|401:235|420:131,1,180,0|0,3:2|3:0,0:0:0:0:
249,26,269095,2,0,P|259:71|262:127,1,90,2|0,1:2|3:0,0:0:0:0:
34,202,269452,5,6,3:1:0:0:
249,347,269630,1,0,3:0:0:0:
177,148,269809,1,2,3:2:0:0:
113,377,269988,1,0,3:0:0:0:
368,200,270166,5,2,3:1:0:0:
437,367,270345,1,0,3:2:0:0:
481,243,270523,1,2,1:2:0:0:
343,322,270702,1,0,3:0:0:0:
473,259,270880,1,2,3:1:0:0:
354,311,271059,1,0,3:0:0:0:
219,141,271238,6,0,P|219:80|192:11,1,135,6|0,3:1|0:0,0:0:0:0:
192,12,271595,2,0,L|90:36,1,90,2|0,3:2|3:0,0:0:0:0:
320,147,271863,1,0,3:0:0:0:
332,153,271952,2,0,L|434:177,1,90,2|0,1:2|3:0,0:0:0:0:
184,352,272309,5,6,3:1:0:0:
22,169,272488,1,0,3:0:0:0:
236,238,272666,5,2,3:2:0:0:
31,297,272845,1,0,3:0:0:0:
315,298,273023,5,2,3:1:0:0:
461,359,273202,1,0,3:2:0:0:
439,264,273380,5,2,3:2:0:0:
352,382,273559,1,0,3:0:0:0:
352,382,273648,1,0,3:0:0:0:
352,382,273738,1,2,1:0:0:0:
405,268,273916,1,0,3:0:0:0:
187,166,274095,6,0,P|184:123|170:70,1,90,6|2,3:1|3:2,0:0:0:0:
294,117,274452,1,2,0:1:0:0:
194,253,274630,1,2,3:2:0:0:
73,146,274809,1,2,1:0:0:0:
162,3,274988,1,2,3:2:0:0:
97,139,275166,1,2,0:1:0:0:
198,233,275345,1,2,3:2:0:0:
422,140,275523,5,2,3:1:0:0:
322,40,275702,2,0,P|305:116|293:242,1,180,2|2,3:2|3:2,0:0:0:0:
121,366,276238,2,0,P|118:319|103:255,1,90,2|2,1:0|3:2,0:0:0:0:
221,340,276595,1,2,3:1:0:0:
22,217,276773,5,2,3:2:0:0:
261,139,276952,2,0,P|172:138|110:215,1,180,6|0,1:0|3:0,0:0:0:0:
354,314,277488,2,0,P|265:315|203:238,1,180,6|0,1:0|3:0,0:0:0:0:
29,84,278023,5,6,1:0:0:0:
29,84,278559,1,2,0:0:0:0:
117,45,278738,1,2,3:2:0:0:
46,175,278916,1,2,3:2:0:0:
245,62,279095,5,6,1:0:0:0:
86,280,279273,1,0,3:0:0:0:
284,188,279452,1,8,3:0:0:0:
193,300,279630,1,4,3:0:0:0:
446,374,279809,5,6,3:1:0:0:
508,311,279988,1,0,3:0:0:0:
414,282,280166,1,2,3:2:0:0:
359,354,280345,1,0,3:0:0:0:
359,354,280434,1,0,3:0:0:0:
359,354,280523,1,6,1:0:0:0:
508,311,280702,1,0,3:0:0:0:
312,250,280880,1,2,3:2:0:0:
477,202,281059,1,0,3:0:0:0:
256,160,281238,6,0,P|268:120|275:68,1,90,6|0,3:1|3:0,0:0:0:0:
356,125,281595,1,2,3:2:0:0:
151,237,281773,6,0,P|145:193|133:150,1,90,2|0,3:1|1:0,0:0:0:0:
25,231,282130,1,2,3:2:0:0:
319,349,282309,6,0,P|322:304|338:262,1,90,2|0,3:1|3:0,0:0:0:0:
30,218,282577,1,0,3:0:0:0:
25,231,282666,2,0,B|133:239|64:280|192:307,1,180,6|2,3:1|3:2,0:0:0:0:
257,256,283202,1,0,3:0:0:0:
475,115,283380,6,0,B|367:123|436:164|308:191,1,180,6|2,1:1|3:2,0:0:0:0:
239,152,283916,1,0,3:0:0:0:
417,364,284095,5,2,3:1:0:0:
492,283,284273,1,2,3:2:0:0:
348,304,284452,1,0,3:2:0:0:
459,193,284630,1,2,3:1:0:0:
459,193,284720,1,0,3:0:0:0:
459,193,284809,1,0,1:0:0:0:
271,241,284988,1,0,3:0:0:0:
452,76,285166,1,2,3:1:0:0:
178,154,285345,5,2,3:2:0:0:
476,0,285523,2,0,P|388:30|350:107,1,180,6|2,3:1|3:2,0:0:0:0:
346,178,286059,1,0,3:0:0:0:
72,164,286238,6,0,P|160:194|198:271,1,180,6|2,1:1|3:2,0:0:0:0:
381,346,286773,5,0,3:0:0:0:
284,369,286952,2,0,P|288:325|299:277,1,90,2|2,3:1|3:2,0:0:0:0:
483,322,287309,2,0,P|479:278|468:230,1,90,2|2,3:1|3:2,0:0:0:0:
417,178,287577,5,0,3:0:0:0:
425,163,287666,1,6,1:0:0:0:
219,137,287845,1,2,3:2:0:0:
473,90,288023,1,2,3:1:0:0:
260,17,288202,1,2,3:2:0:0:
69,194,288380,6,0,P|39:273|47:379,1,180,6|0,3:1|3:0,0:0:0:0:
449,313,288916,2,0,P|479:234|471:128,1,180,6|0,1:1|3:0,0:0:0:0:
197,46,289452,5,2,1:0:0:0:
260,384,289630,2,0,L|245:177,1,180,6|8,1:0|3:0,0:0:0:0:
399,336,290166,2,0,P|375:295|365:239,1,90,4|0,3:0|3:0,0:0:0:0:
118,220,290523,2,0,P|142:179|152:123,1,90,0|0,1:0|3:0,0:0:0:0:
393,119,290791,1,0,3:0:0:0:
383,116,290880,2,0,P|359:77|349:33,1,90,0|0,1:0|3:0,0:0:0:0:
32,188,291238,5,6,3:1:0:0:
196,252,291416,2,0,B|133:258|133:258|104:299|104:299|12:313,1,180,2|0,3:2|3:0,0:0:0:0:
317,380,291952,5,2,1:0:0:0:
443,306,292130,1,0,3:2:0:0:
319,210,292309,1,2,3:2:0:0:
443,306,292488,1,0,3:0:0:0:
448,124,292666,1,2,3:1:0:0:
443,306,292845,1,0,3:2:0:0:
239,278,293023,1,2,3:2:0:0:
263,101,293202,2,0,L|249:10,1,90,2|0,3:1|1:0,0:0:0:0:
56,121,293559,1,2,3:2:0:0:
90,292,293738,1,2,3:1:0:0:
95,318,293827,1,0,3:1:0:0:
107,341,293916,1,0,3:1:0:0:
128,356,294005,1,0,3:1:0:0:
154,360,294095,6,0,P|201:359|268:373,1,90,6|2,3:1|3:2,0:0:0:0:
394,209,294452,2,0,P|441:210|508:196,1,90,2|2,3:1|3:2,0:0:0:0:
483,203,294720,1,0,3:0:0:0:
483,203,294809,2,0,B|384:193|422:257|297:256,1,180,6|2,1:0|3:2,0:0:0:0:
225,201,295345,1,0,3:0:0:0:
352,96,295523,5,2,3:1:0:0:
225,201,295702,1,0,3:0:0:0:
263,31,295880,1,2,3:2:0:0:
317,257,296059,1,2,3:1:0:0:
83,218,296238,1,0,1:0:0:0:
239,108,296416,1,2,3:2:0:0:
140,341,296595,6,0,P|145:312|153:286,1,45,2|0,3:1|3:0,3:0:0:0:
13,129,296773,2,0,P|8:158|0:184,1,45,2|0,3:2|3:0,3:0:0:0:
217,337,296952,6,0,B|305:318|305:318|390:368,1,180,6|2,3:1|3:2,0:0:0:0:
247,236,297488,1,0,3:0:0:0:
373,162,297666,2,0,B|330:168|330:168|268:135,1,90,2|0,1:0|3:0,0:0:0:0:
466,144,298023,5,2,3:1:0:0:
263,50,298202,1,2,3:2:0:0:
205,159,298380,5,2,3:1:0:0:
32,206,298559,1,2,3:2:0:0:
181,247,298738,5,2,3:1:0:0:
44,104,298916,1,2,3:2:0:0:
196,367,299095,5,6,1:0:0:0:
428,227,299273,1,6,3:2:0:0:
255,20,299452,1,2,3:2:0:0:
252,46,299541,1,0,3:0:0:0:
250,72,299630,1,0,3:0:0:0:
247,99,299720,1,0,3:0:0:0:
246,125,299809,2,0,P|261:213|268:339,1,180,6|0,3:1|3:0,0:0:0:0:
60,206,300345,6,0,P|35:131|81:44,1,180,6|0,1:0|3:0,0:0:0:0:
452,178,300880,2,0,P|477:253|431:340,1,180,6|0,1:0|3:0,0:0:0:0:
316,378,301416,1,8,3:0:0:0:
316,378,301773,1,4,3:0:0:0:
334,241,301952,1,4,0:0:0:0:
432,341,302130,1,0,3:0:0:0:
195,294,302309,1,4,1:2:0:0:
340,143,302488,1,0,3:0:0:0:
494,276,302666,5,2,3:2:0:0:
481,251,302755,1,0,3:0:0:0:
473,225,302845,1,0,3:0:0:0:
468,198,302934,1,0,3:0:0:0:
466,171,303023,1,2,3:2:0:0:
85,195,303380,5,2,1:2:0:0:
98,170,303469,1,0,3:0:0:0:
106,144,303559,1,0,3:0:0:0:
111,117,303648,1,0,3:0:0:0:
113,90,303737,1,2,3:2:0:0:
279,29,304273,5,0,1:0:0:0:
297,277,304452,1,0,1:0:0:0:
229,212,304809,5,2,3:2:0:0:
225,185,304898,1,0,3:0:0:0:
221,157,304988,1,0,3:0:0:0:
216,130,305077,1,0,3:0:0:0:
212,103,305166,1,2,3:2:0:0:
399,249,305523,5,2,3:2:0:0:
403,276,305612,1,0,3:0:0:0:
407,304,305702,1,0,3:0:0:0:
412,331,305791,1,0,3:0:0:0:
416,358,305880,1,2,3:2:0:0:
95,355,306238,5,2,1:2:0:0:
91,328,306327,1,0,3:0:0:0:
87,300,306417,1,0,3:0:0:0:
82,273,306506,1,0,3:0:0:0:
78,246,306595,1,2,3:2:0:0:
259,378,307130,5,0,1:0:0:0:
288,144,307309,1,0,1:0:0:0:
221,202,307666,5,2,3:2:0:0:
219,228,307755,1,0,3:0:0:0:
217,255,307845,1,0,3:0:0:0:
214,281,307934,1,0,3:0:0:0:
212,307,308023,1,2,3:2:0:0:
369,29,308380,6,0,P|370:56|387:91,1,56.25,2|0,3:1|3:0,3:0:0:0:
285,25,308559,2,0,P|272:48|269:87,1,56.25,2|0,3:1|3:0,3:0:0:0:
203,2,308738,1,2,3:1:0:0:
452,131,309095,6,0,P|466:153|498:175,1,56.25,2|0,1:1|3:0,3:0:0:0:
272,157,309274,2,0,P|259:180|256:219,1,56.25,2|0,3:1|3:0,3:0:0:0:
117,46,309452,1,2,3:1:0:0:
117,46,309988,5,2,1:0:0:0:
406,212,310166,1,2,1:0:0:0:
406,212,310523,1,2,3:2:0:0:
379,233,310613,1,0,3:2:0:0:
360,261,310702,1,0,3:2:0:0:
354,294,310791,1,0,3:2:0:0:
355,327,310880,1,2,3:2:0:0:
161,367,311238,6,0,P|157:335|144:308,1,56.25,2|0,3:1|3:0,0:0:0:0:
248,345,311416,2,0,P|260:315|262:285,1,56.25,2|0,3:1|3:0,0:0:0:0:
332,375,311595,1,2,3:1:0:0:
79,269,311952,6,0,P|59:243|34:226,1,56.25,2|0,1:1|3:0,0:0:0:0:
267,212,312131,2,0,P|279:182|281:152,1,56.25,2|0,3:1|3:0,0:0:0:0:
410,334,312309,1,2,3:1:0:0:
410,334,312845,5,2,1:0:0:0:
150,211,313023,1,2,1:0:0:0:
150,211,313380,1,2,3:2:0:0:
161,178,313470,1,0,3:0:0:0:
161,144,313559,1,0,3:0:0:0:
147,113,313648,1,0,3:0:0:0:
118,94,313738,1,2,3:2:0:0:
489,159,314095,6,0,P|461:151|434:135,1,56.25,2|0,3:1|3:0,3:0:0:0:
457,243,314273,2,0,P|428:250|397:249,1,56.25,2|0,3:1|3:0,3:0:0:0:
508,322,314452,1,2,3:1:0:0:
388,78,314809,6,0,P|367:57|352:29,1,56.25,2|0,1:1|3:0,3:0:0:0:
321,231,314988,2,0,P|292:238|261:237,1,56.25,2|0,3:1|3:0,3:0:0:0:
441,379,315166,1,2,3:1:0:0:
441,379,315702,5,2,1:1:0:0:
315,140,315880,1,2,1:0:0:0:
315,140,316238,1,2,3:2:0:0:
285,155,316327,1,0,3:0:0:0:
251,158,316416,1,0,3:0:0:0:
221,143,316505,1,0,3:0:0:0:
200,116,316595,1,2,3:2:0:0:
34,259,316952,6,0,P|62:267|89:283,1,56.25,2|0,3:1|3:0,3:0:0:0:
66,175,317130,2,0,P|94:167|125:168,1,56.25,2|0,3:1|3:0,3:0:0:0:
15,96,317309,1,2,3:1:0:0:
135,340,317666,6,0,P|155:360|170:388,1,56.25,2|0,1:1|3:0,3:0:0:0:
202,187,317845,2,0,P|230:179|261:180,1,56.25,2|0,3:1|3:0,3:0:0:0:
82,39,318023,1,2,3:1:0:0:
82,39,318559,5,2,1:1:0:0:
208,278,318737,1,2,1:0:0:0:
201,369,318916,5,8,3:0:0:0:
309,240,319095,1,8,3:0:0:0:
287,148,319273,5,4,3:0:0:0:
428,365,319452,1,0,1:0:0:0:
428,365,319809,1,2,3:1:0:0:
445,329,319898,1,0,3:0:0:0:
425,294,319988,1,2,3:2:0:0:
441,258,320077,1,0,3:0:0:0:
412,230,320166,1,2,3:1:0:0:
433,197,320255,1,0,3:0:0:0:
403,170,320345,2,0,L|409:103,1,56.25,2|0,3:2|3:2,3:2:0:0:
485,27,320523,2,0,B|493:55|493:55|475:111,1,56.25,2|0,1:0|3:0,0:0:0:0:
322,119,320702,2,0,B|314:91|314:91|332:35,1,56.25,2|0,3:2|3:0,0:0:0:0:
170,37,320880,2,0,L|49:58,1,112.5,2|0,3:1|0:0,0:0:0:0:
5,115,321238,1,2,3:2:0:0:
218,127,321416,5,0,1:0:0:0:
28,269,321595,1,0,1:0:0:0:
28,269,321952,1,2,3:2:0:0:
67,271,322041,1,0,3:0:0:0:
97,295,322130,1,0,3:0:0:0:
115,330,322220,1,0,3:0:0:0:
121,368,322309,1,2,3:2:0:0:
121,368,322666,5,2,3:1:0:0:
152,344,322755,1,0,3:0:0:0:
187,362,322845,1,2,3:2:0:0:
223,346,322934,1,0,3:0:0:0:
252,372,323023,1,2,3:1:0:0:
482,260,323380,5,2,1:1:0:0:
451,284,323469,1,0,3:0:0:0:
416,266,323559,1,2,3:2:0:0:
380,282,323648,1,0,3:0:0:0:
351,256,323737,1,2,3:1:0:0:
407,170,323916,1,2,0:0:0:0:
354,93,324095,1,2,3:1:0:0:
495,33,324273,5,0,1:0:0:0:
235,22,324452,1,0,1:0:0:0:
235,22,324809,1,2,3:2:0:0:
248,58,324898,1,0,3:0:0:0:
254,97,324988,1,0,3:0:0:0:
254,136,325077,1,0,3:0:0:0:
244,174,325166,1,2,3:2:0:0:
244,174,325523,5,2,3:1:0:0:
206,160,325613,1,0,3:0:0:0:
171,179,325702,1,2,3:2:0:0:
133,166,325791,1,0,3:0:0:0:
103,192,325880,1,2,3:1:0:0:
67,173,325970,1,0,3:0:0:0:
34,195,326059,2,0,L|22:261,1,56.25,2|0,3:2|3:0,0:0:0:0:
135,355,326238,2,0,B|163:367|163:367|206:366,1,56.25,2|0,1:0|3:0,0:0:0:0:
343,287,326416,2,0,B|368:286|368:286|396:298,1,56.25,2|0,3:2|3:0,0:0:0:0:
464,382,326595,2,0,L|330:363,1,112.5,2|0,3:1|0:0,0:0:0:0:
283,339,326952,1,2,3:2:0:0:
489,224,327130,5,0,1:0:0:0:
256,249,327309,1,0,1:0:0:0:
256,249,327666,1,2,3:2:0:0:
238,213,327755,1,0,3:0:0:0:
231,173,327845,1,0,3:0:0:0:
230,133,327934,1,0,3:0:0:0:
238,94,328023,1,2,3:2:0:0:
238,94,328380,5,2,3:1:0:0:
210,65,328470,1,0,3:0:0:0:
173,78,328559,1,2,3:2:0:0:
141,54,328648,1,0,3:0:0:0:
106,74,328738,1,2,3:1:0:0:
354,109,329095,5,2,1:1:0:0:
382,138,329185,1,0,3:0:0:0:
419,125,329274,1,2,3:2:0:0:
451,149,329363,1,0,3:0:0:0:
486,129,329453,1,2,3:1:0:0:
417,231,329630,1,2,0:0:0:0:
494,290,329809,1,2,3:1:0:0:
263,305,329988,5,0,1:0:0:0:
494,372,330166,1,0,1:0:0:0:
494,372,330523,1,2,3:2:0:0:
458,353,330613,1,0,3:0:0:0:
419,345,330702,1,0,3:0:0:0:
380,352,330791,1,0,3:0:0:0:
345,370,330880,1,2,3:2:0:0:
163,190,331238,5,2,3:1:0:0:
191,162,331327,1,0,3:0:0:0:
198,123,331416,1,2,3:2:0:0:
185,85,331505,1,0,3:0:0:0:
156,57,331595,1,2,3:1:0:0:
118,45,331684,1,0,3:0:0:0:
79,52,331773,1,2,3:2:0:0:
48,76,331863,1,0,3:0:0:0:
32,111,331952,2,0,P|42:161|49:230,2,101.250003862381,2|2|2,0:0|0:0|0:0,0:0:0:0:
254,26,332666,6,0,P|250:111|255:206,1,180,2|0,0:0|0:0,0:0:0:0:
