osu file format v14

[General]
AudioFilename: audio.mp3
AudioLeadIn: 0
PreviewTime: 6923
Countdown: 0
SampleSet: Soft
StackLeniency: 0.4
Mode: 0
LetterboxInBreaks: 0
WidescreenStoryboard: 1

[Editor]
DistanceSpacing: 0.8
BeatDivisor: 4
GridSize: 32
TimelineZoom: 2.3

[Metadata]
Title:Tree Village
TitleUnicode:Tree Village
Artist:Dance Gavin Dance
ArtistUnicode:Dance Gavin Dance
Creator:Dilectus
Version:Mathew's Hard
Source:
Tags:happiness post hardcore progressive screamo minorsonek waku c00l cool rvmathew davided jenhideo osatia
BeatmapID:1688907
BeatmapSetID:703666

[Difficulty]
HPDrainRate:5
CircleSize:4.3
OverallDifficulty:7
ApproachRate:8
SliderMultiplier:1.6
SliderTickRate:1

[Events]
//Background and Video events
0,0,"bg.jpg",0,0
//Break Periods
2,97763,107528
//Storyboard Layer 0 (Background)
//Storyboard Layer 1 (Fail)
//Storyboard Layer 2 (Pass)
//Storyboard Layer 3 (Foreground)
//Storyboard Sound Samples

[TimingPoints]
9092,361.44578313253,3,2,5,60,1,0
9092,-117.647058823529,3,2,5,60,0,0
25357,-200,3,2,5,60,0,0
26449,348.837209302326,3,2,1,80,1,0
43193,-125,3,2,1,70,0,0
45286,-90.9090909090909,3,2,1,70,0,0
47379,-125,3,2,1,70,0,0
49474,-90.9090909090909,3,2,1,70,0,0
59937,-100,3,2,5,70,0,0
60199,-100,3,2,1,70,0,0
60985,-100,3,2,5,70,0,0
61158,-100,3,2,1,70,0,0
61507,-100,3,2,5,60,0,0
61681,-100,3,2,1,70,0,0
63600,-100,3,2,5,60,0,0
63774,-100,3,2,1,70,0,0
65169,-100,3,2,5,70,0,0
65344,-100,3,2,1,70,0,0
65693,-100,3,2,5,60,0,0
65867,-100,3,2,1,70,0,0
66216,-100,3,2,5,70,0,0
66478,-100,3,2,1,70,0,0
67786,-100,3,2,5,60,0,0
67873,-100,3,2,1,70,0,0
68309,-100,3,2,5,70,0,0
68571,-100,3,2,1,70,0,0
69355,-100,3,2,5,70,0,0
69530,-100,3,2,1,70,0,0
69879,-100,3,2,5,60,0,0
70053,-100,3,2,1,70,0,0
70402,-100,3,2,5,70,0,0
70664,-100,3,2,1,70,0,0
71449,-100,3,2,5,70,0,0
71623,-100,3,2,1,70,0,0
71972,-100,3,2,5,60,0,0
72146,-100,3,2,1,70,0,0
72495,-100,3,2,5,70,0,0
72757,-100,3,2,1,70,0,0
73542,-100,3,2,5,70,0,0
73716,-100,3,2,1,70,0,0
74065,-100,3,2,5,60,0,0
74239,-100,3,2,1,70,0,0
74588,352.941176470588,3,2,1,70,1,0
75648,-100,3,2,5,70,0,0
75737,-100,3,2,1,60,0,0
75999,313.971742543171,4,2,1,80,1,0
77745,314.96062992126,4,2,1,80,1,1
78060,309.597523219814,4,2,1,80,1,1
78204,309.119010819165,4,2,1,80,1,1
95060,312.880829015544,4,2,1,80,1,1
97563,335.570469798658,4,2,1,80,1,0
100247,327.510917030568,4,2,1,80,1,0
101721,331.858407079646,4,2,1,60,1,0
102867,326.441784548422,4,2,1,60,1,0
102869,-125,4,2,1,60,0,0
105644,329.308452250274,4,2,1,60,1,0
108278,330.03300330033,4,2,1,90,1,0
108278,-125,4,2,1,70,0,0
129402,340.715502555366,4,2,1,60,1,0
129742,-111.111111111111,4,2,1,60,0,0
148482,-111.111111111111,4,2,1,70,0,0
149844,-111.111111111111,4,2,1,75,0,0
150526,-111.111111111111,4,2,1,80,0,0
151207,-90.9090909090909,4,2,1,90,0,1
173013,-100,4,2,1,80,0,0
177783,-100,4,2,1,70,0,0
180509,-100,4,2,1,60,0,0

[Colours]
Combo1 : 122,126,105
Combo2 : 108,131,181
Combo3 : 189,187,201
Combo4 : 189,144,84

[HitObjects]
90,50,9092,6,0,P|72:105|143:148,1,136.000002593994,10|2,0:0|0:0,0:0:0:0:
199,135,9634,2,0,P|250:172|234:234,1,136.000002593994,2|0,0:0|0:0,0:0:0:0:
182,288,10176,6,0,L|86:288,1,68.0000012969971,2|0,0:0|0:0,0:0:0:0:
65,231,10537,2,0,P|30:176|64:121,1,136.000002593994,0|2,0:0|0:0,0:0:0:0:
128,81,11079,1,2,0:0:0:0:
128,81,11260,6,0,P|123:50|145:14,2,68.0000012969971,2|0|0,0:0|0:0|0:0,0:0:0:0:
189,124,11802,2,0,L|328:124,1,136.000002593994,2|0,0:0|0:0,0:0:0:0:
388,83,12345,6,0,P|397:45|355:3,2,102.000001945496,2|0|2,0:0|0:0|0:0,0:0:0:0:
325,124,13067,1,0,0:0:0:0:
344,201,13248,1,10,0:0:0:0:
344,201,13429,6,0,P|318:258|382:320,1,136.000002593994,10|2,0:0|0:0,0:0:0:0:
410,366,13971,2,0,P|333:338|259:356,1,136.000002593994,2|0,0:0|0:0,0:0:0:0:
207,358,14513,6,0,B|152:336|129:377|68:356,1,136.000002593994,2|0,0:0|0:0,0:0:0:0:
18,307,15055,2,0,P|-5:246|49:201,1,136.000002593994,2|2,0:0|0:0,0:0:0:0:
100,156,15598,6,0,P|108:124|98:88,2,68.0000012969971,2|0|2,0:0|0:0|0:0,0:0:0:0:
40,202,16140,2,0,P|48:266|117:284,1,136.000002593994,2|0,0:0|0:0,0:0:0:0:
171,245,16682,6,0,P|150:298|190:351,2,102.000001945496,2|0|2,0:0|0:0|0:0,0:0:0:0:
228,196,17405,1,2,0:0:0:0:
301,227,17585,1,10,0:0:0:0:
301,227,17766,6,0,P|303:153|255:116,1,136.000002593994,10|2,0:0|0:0,0:0:0:0:
184,118,18308,2,0,P|135:162|141:228,1,136.000002593994,2|0,0:0|0:0,0:0:0:0:
181,292,18851,6,0,P|218:288|274:313,1,68.0000012969971,2|0,0:0|0:0,0:0:0:0:
309,338,19212,2,0,P|341:345|375:341,1,68.0000012969971,0|2,0:0|0:0,0:0:0:0:
432,292,19573,2,0,P|445:261|443:227,1,68.0000012969971,2|2,0:0|0:0,0:0:0:0:
412,159,19935,6,0,P|405:127|423:80,2,68.0000012969971,2|0|2,0:0|0:0|0:0,0:0:0:0:
443,227,20477,2,0,P|390:186|324:194,1,136.000002593994,2|0,0:0|0:0,0:0:0:0:
269,244,21019,6,0,P|280:296|247:344,2,102.000001945496,2|0|2,0:0|0:0|0:0,0:0:0:0:
208,200,21742,1,2,0:0:0:0:
258,145,21923,1,10,0:0:0:0:
258,145,22104,6,0,P|275:84|205:66,1,136.000002593994,10|2,0:0|0:0,0:0:0:0:
150,90,22646,2,0,B|128:145|169:168|148:229,1,136.000002593994,2|0,0:0|0:0,0:0:0:0:
117,291,23188,6,0,P|129:352|198:344,1,136.000002593994,2|0,0:0|0:0,0:0:0:0:
250,303,23730,2,0,P|316:280|371:318,1,136.000002593994,2|2,0:0|0:0,0:0:0:0:
420,367,24272,6,0,L|399:222,1,136.000002593994,2|2,0:0|0:0,0:0:0:0:
351,176,24814,2,0,P|344:138|367:94,1,68.0000012969971,2|0,0:0|0:0,0:0:0:0:
411,62,25176,1,0,0:0:0:0:
411,62,25357,6,0,B|347:94|315:30|251:62,1,160,4|0,0:0|0:0,0:0:0:0:
93,140,26449,5,12,0:0:0:0:
51,208,26623,1,2,0:0:0:0:
103,268,26797,2,0,L|184:255,1,80,8|2,0:0|0:0,0:0:0:0:
245,206,27146,2,0,L|323:218,1,80,8|2,0:0|0:0,0:0:0:0:
397,185,27495,6,0,P|440:139|401:60,1,160,8|8,0:0|0:0,0:0:0:0:
326,36,28018,2,0,P|274:68|177:63,1,160,2|2,0:0|0:0,0:0:0:0:
100,84,28542,6,0,P|79:121|95:172,1,80,8|2,0:0|0:0,0:0:0:0:
130,222,28890,2,0,L|109:305,1,80,8|2,0:0|0:0,0:0:0:0:
177,344,29239,2,0,L|196:266,1,80,8|2,0:0|0:0,0:0:0:0:
240,199,29588,6,0,B|304:175|336:223|400:199,1,160,8|8,0:0|0:0,0:0:0:0:
451,141,30111,2,0,P|465:81|382:59,1,160,2|2,0:0|0:0,0:0:0:0:
312,89,30635,5,8,0:0:0:0:
245,45,30809,1,2,0:0:0:0:
235,124,30983,2,0,P|225:163|254:207,1,80,8|2,0:0|0:0,0:0:0:0:
283,266,31332,2,0,P|299:301|289:339,1,80,8|2,0:0|0:0,0:0:0:0:
213,364,31681,6,0,B|149:340|117:388|55:365,1,160,8|8,0:0|0:0,0:0:0:0:
6,309,32204,1,2,0:0:0:0:
6,309,32379,2,0,P|-2:267|29:229,1,80,8|2,0:0|0:0,0:0:0:0:
80,188,32728,6,0,P|147:202|176:122,1,160,8|8,0:0|0:0,0:0:0:0:
148,55,33251,2,0,P|112:50|69:71,1,80,2|8,0:0|0:0,0:0:0:0:
24,131,33600,1,2,0:0:0:0:
80,188,33774,5,8,0:0:0:0:
39,257,33949,1,2,0:0:0:0:
111,291,34123,2,0,L|127:388,1,80,8|2,0:0|0:0,0:0:0:0:
195,332,34472,2,0,L|181:253,1,80,8|2,0:0|0:0,0:0:0:0:
119,203,34821,5,8,0:0:0:0:
159,134,34995,1,2,0:0:0:0:
233,163,35169,2,0,P|273:169|309:149,1,80,8|2,0:0|0:0,0:0:0:0:
383,18,35518,2,0,P|358:48|356:88,1,80,8|2,0:0|0:0,0:0:0:0:
389,161,35867,6,0,P|418:236|352:278,1,160,8|8,0:0|0:0,0:0:0:0:
290,310,36390,2,0,B|226:286|194:334|132:311,1,160,2|2,0:0|0:0,0:0:0:0:
81,249,36914,6,0,P|73:212|101:172,1,80,8|2,0:0|0:0,0:0:0:0:
239,133,37262,2,0,P|210:159|171:159,1,80,8|2,0:0|0:0,0:0:0:0:
58,54,37611,2,0,P|95:66|115:101,1,80,8|2,0:0|0:0,0:0:0:0:
73,232,37960,6,0,P|66:300|147:308,1,160,8|8,0:0|0:0,0:0:0:0:
204,262,38483,2,0,P|276:254|272:181,1,160,2|2,0:0|0:0,0:0:0:0:
220,120,39007,6,0,P|215:76|247:38,1,80,8|2,0:0|0:0,0:0:0:0:
309,23,39355,2,0,L|419:23,1,80,8|2,0:0|0:0,0:0:0:0:
501,97,39704,2,0,L|421:97,1,80,8|2,0:0|0:0,0:0:0:0:
357,145,40053,6,0,L|375:243,1,80,8|2,0:0|0:0,0:0:0:0:
394,305,40402,1,8,0:0:0:0:
394,305,40576,2,0,P|333:257|240:278,1,160,2|2,0:0|0:0,0:0:0:0:
186,308,41100,6,0,P|147:322|92:309,1,80,8|2,0:0|0:0,0:0:0:0:
55,258,41449,2,0,P|38:214|72:162,1,80,8|2,0:0|0:0,0:0:0:0:
86,114,41797,1,8,0:0:0:0:
166,142,41972,1,2,0:0:0:0:
166,142,42146,6,0,P|238:134|213:57,1,160,8|8,0:0|0:0,0:0:0:0:
153,32,42669,2,0,P|114:26|68:38,1,80,2|8,0:0|0:0,0:0:0:0:
2,69,43018,1,2,0:0:0:0:
48,133,43193,6,0,P|75:173|66:221,1,96,6|0,0:0|0:0,0:0:0:0:
57,241,43542,2,0,L|59:296,3,32,8|0|0|0,0:0|0:0|0:0|0:0,0:0:0:0:
82,281,43890,2,0,L|87:333,3,32,8|0|0|0,0:0|0:0|0:0|0:0,0:0:0:0:
110,307,44239,6,0,L|131:349,3,32,8|0|0|0,0:0|0:0|0:0|0:0,0:0:0:0:
147,323,44588,2,0,L|185:347,3,32,8|0|0|0,0:0|0:0|0:0|0:0,0:0:0:0:
189,319,44937,2,0,L|244:318,3,32,8|0|0|0,0:0|0:0|0:0|0:0,0:0:0:0:
241,302,45286,6,0,P|250:272|238:215,1,88.000002685547,6|8,0:0|0:0,0:0:0:0:
227,184,45547,2,0,P|270:196|312:174,1,88.000002685547,8|8,0:0|0:0,0:0:0:0:
338,160,45809,1,8,0:0:0:0:
424,202,45983,2,0,P|435:245|413:280,1,88.000002685547,8|8,0:0|0:0,0:0:0:0:
351,343,46332,6,0,L|252:340,1,88.000002685547,6|8,0:0|0:0,0:0:0:0:
237,316,46594,2,0,L|138:313,1,88.000002685547,8|8,0:0|0:0,0:0:0:0:
121,292,46855,1,8,0:0:0:0:
53,235,47030,2,0,P|41:192|59:149,1,88.000002685547,14|8,0:0|0:0,0:0:0:0:
113,99,47379,6,0,P|167:117|225:96,1,96,6|0,0:0|0:0,0:0:0:0:
228,100,47728,2,0,L|238:154,3,32,8|0|0|0,0:0|0:0|0:0|0:0,0:0:0:0:
256,144,48076,2,0,L|246:198,3,32,8|0|0|0,0:0|0:0|0:0|0:0,0:0:0:0:
236,197,48425,6,0,L|241:228,3,32,8|0|0|0,0:0|0:0|0:0|0:0,0:0:0:0:
260,247,48774,2,0,L|254:278,3,32,8|0|0|0,0:0|0:0|0:0|0:0,0:0:0:0:
232,292,49123,2,0,L|214:336,3,32,8|0|0|0,0:0|0:0|0:0|0:0,0:0:0:0:
198,336,49472,6,0,P|165:327|126:330,1,64,6|8,0:0|0:0,0:0:0:0:
100,334,49733,2,0,P|110:289|98:244,1,88.000002685547,8|8,0:0|0:0,0:0:0:0:
76,222,49995,1,8,0:0:0:0:
113,142,50169,2,0,P|161:154|208:123,1,88.000002685547,6|8,0:0|0:0,0:0:0:0:
281,93,50518,6,0,L|270:191,1,88.000002685547,6|8,0:0|0:0,0:0:0:0:
264,215,50780,2,0,P|309:217|346:247,1,88.000002685547,8|8,0:0|0:0,0:0:0:0:
355,275,51042,1,8,0:0:0:0:
316,354,51216,2,0,P|286:346|270:348,3,44.0000013427735,6|0|8|8,0:0|0:0|0:0|0:0,0:0:0:0:
237,348,51565,6,0,B|205:346|174:369|174:369|149:333|102:333,2,132.00000402832,14|8|8,0:0|0:0|0:0,0:0:0:0:
303,290,52262,1,8,0:0:0:0:
245,223,52437,1,0,0:0:0:0:
312,166,52611,6,0,B|343:164|374:187|374:187|399:151|446:151,2,132.00000402832,8|8|8,0:0|0:0|0:0,0:0:0:0:
245,223,53309,1,8,0:0:0:0:
178,166,53483,1,8,0:0:0:0:
101,210,53658,6,0,P|100:126|141:86,2,132.00000402832,6|8|8,0:0|0:0|0:0,0:0:0:0:
169,265,54355,2,0,P|212:273|264:262,1,88.000002685547,6|8,0:0|0:0,0:0:0:0:
335,228,54704,6,0,P|419:227|459:268,2,132.00000402832,6|8|8,0:0|0:0|0:0,0:0:0:0:
255,265,55402,1,8,0:0:0:0:
189,206,55576,1,8,0:0:0:0:
111,248,55751,6,0,B|80:254|57:285|57:285|22:257|-22:271,2,132.00000402832,6|8|8,0:0|0:0|0:0,0:0:0:0:
189,206,56449,2,0,P|179:162|206:113,1,88.000002685547,8|0,0:0|0:0,0:0:0:0:
273,83,56797,6,0,B|303:89|326:120|326:120|361:92|406:106,2,132.00000402832,8|8|8,0:0|0:0|0:0,0:0:0:0:
194,43,57495,1,8,0:0:0:0:
150,119,57669,1,8,0:0:0:0:
61,119,57844,6,0,P|42:60|101:31,2,132.00000402832,6|8|8,0:0|0:0|0:0,0:0:0:0:
110,192,58542,1,6,0:0:0:0:
192,160,58716,1,8,0:0:0:0:
256,220,58890,6,0,P|285:271|249:338,2,132.00000402832,14|8|8,0:0|0:0|0:0,0:0:0:0:
192,160,59588,2,0,P|182:117|222:85,1,88.000002685547,8|8,0:0|0:0,0:0:0:0:
288,107,59937,6,0,P|340:108|384:44,2,120,10|8|2,0:0|0:3|0:0,0:0:0:0:
210,87,60635,2,0,P|166:79|114:109,1,80,8|2,0:0|0:0,0:0:0:0:
70,139,60983,6,0,P|52:193|75:257,2,120,10|8|4,0:0|0:0|0:0,0:0:0:0:
133,90,61681,2,0,P|149:128|141:176,1,80,8|2,0:0|0:0,0:0:0:0:
102,233,62030,6,0,P|187:212|247:255,1,160,6|4,0:0|0:3,0:0:0:0:
292,313,62553,5,2,0:0:0:0:
360,271,62728,2,0,P|378:233|361:167,1,80,8|2,0:0|0:0,0:0:0:0:
334,128,63076,6,0,P|319:68|403:64,1,160,6|6,0:0|0:0,0:0:0:0:
448,119,63600,2,0,B|424:188|472:212|448:276,1,160,4|2,0:0|0:0,0:0:0:0:
390,330,64123,6,0,P|433:309|498:370,2,120,6|8|2,0:0|0:3|0:0,0:0:0:0:
325,377,64821,1,8,0:0:0:0:
256,337,64995,1,2,0:0:0:0:
192,289,65169,6,0,P|167:239|205:169,2,120,10|8|4,0:0|0:0|0:0,0:0:0:0:
256,337,65867,1,8,0:0:0:0:
319,287,66042,1,2,0:0:0:0:
341,210,66216,6,0,P|333:151|267:125,2,120,10|8|2,0:0|0:3|0:0,0:0:0:0:
319,287,66914,2,0,L|236:287,1,80,8|2,0:0|0:0,0:0:0:0:
166,254,67262,6,0,P|121:190|162:110,2,160,6|0|8,0:0|0:0|0:0,0:0:0:0:
201,181,68135,1,2,0:0:0:0:
251,119,68309,6,0,P|268:77|219:25,2,120,10|8|2,0:0|0:3|0:0,0:0:0:0:
201,181,69007,1,8,0:0:0:0:
125,156,69181,1,2,0:0:0:0:
62,205,69355,6,0,P|45:247|94:299,2,120,2|8|4,0:0|0:0|0:0,0:0:0:0:
125,156,70053,2,0,L|131:67,1,80,8|2,0:0|0:0,0:0:0:0:
203,110,70402,6,0,L|194:229,2,120,10|8|2,0:0|0:3|0:0,0:0:0:0:
259,52,71100,2,0,P|293:72|332:70,1,80,8|2,0:0|0:0,0:0:0:0:
401,28,71449,6,0,P|366:80|415:161,1,160,10|6,0:0|0:0,0:0:0:0:
481,191,71972,2,0,L|314:216,1,160,4|2,0:0|0:0,0:0:0:0:
255,258,72495,6,0,L|136:240,2,120,10|8|2,0:0|0:3|0:0,0:0:0:0:
313,313,73193,1,8,0:0:0:0:
385,279,73367,1,2,0:0:0:0:
424,209,73542,6,0,P|433:158|384:104,2,120,10|8|2,0:0|0:0|0:0,0:0:0:0:
385,279,74239,2,0,L|278:271,1,80,8|2,0:0|0:0,0:0:0:0:
243,222,74588,6,0,P|223:188|252:132,1,80,6|0,0:0|0:0,0:0:0:0:
359,69,74940,2,0,P|340:103|303:115,1,80,2|2,0:3|0:0,0:0:0:0:
164,49,75293,2,0,P|204:48|233:75,1,80,8|2,0:0|0:0,0:0:0:0:
303,115,75646,5,4,0:0:0:0:
256,192,75823,12,6,77254,0:0:0:0:
105,42,77745,6,0,P|45:92|90:159,1,160,6|2,0:0|0:0,0:0:0:0:
139,205,78204,1,8,0:0:0:0:
210,166,78358,1,0,0:0:0:0:
210,166,78513,6,0,P|270:216|225:283,1,160,2|8,0:0|0:0,0:0:0:0:
169,318,78976,1,0,0:0:0:0:
97,282,79131,2,0,P|78:247|89:205,1,80,2|2,0:0|0:0,0:0:0:0:
122,71,79440,6,0,P|141:105|133:144,1,80,8|2,0:0|0:0,0:0:0:0:
87,209,79749,1,8,0:0:0:0:
14,175,79904,1,2,0:0:0:0:
173,249,80213,6,0,P|205:182|280:191,1,160,6|2,0:0|0:0,0:0:0:0:
317,261,80676,2,0,P|321:300|347:330,1,80,8|2,0:0|0:0,0:0:0:0:
359,191,80986,2,0,P|397:158|403:119,1,80,2|2,0:0|0:0,0:0:0:0:
280,191,81295,2,0,P|233:174|196:188,1,80,8|2,0:0|0:0,0:0:0:0:
136,222,81604,5,2,0:0:0:0:
74,171,81758,1,2,0:0:0:0:
104,97,81913,2,0,P|106:56|76:19,1,80,8|2,0:0|0:0,0:0:0:0:
26,80,82222,1,8,0:0:0:0:
74,171,82377,1,2,0:0:0:0:
140,334,82686,6,0,B|207:304|231:347|298:327,1,160,6|2,0:0|0:0,0:0:0:0:
354,272,83149,2,0,P|374:237|370:199,1,80,8|0,0:0|0:0,0:0:0:0:
312,142,83459,2,0,L|212:142,1,80,2|2,0:0|0:0,0:0:0:0:
110,210,83768,2,0,L|190:210,1,80,8|0,0:0|0:0,0:0:0:0:
232,142,84077,5,2,0:0:0:0:
175,86,84231,1,2,0:0:0:0:
109,132,84386,2,0,P|100:170|109:209,1,80,8|2,0:0|0:0,0:0:0:0:
147,280,84695,1,8,0:0:0:0:
216,239,84850,1,2,0:0:0:0:
350,352,85159,6,0,B|283:332|259:375|192:345,1,160,6|2,0:0|0:0,0:0:0:0:
147,280,85622,2,0,P|131:247|146:207,1,80,8|2,0:0|0:0,0:0:0:0:
193,74,85931,2,0,P|210:109|196:146,1,80,2|2,0:0|0:0,0:0:0:0:
144,208,86241,2,0,L|57:196,1,80,8|2,0:0|0:0,0:0:0:0:
196,145,86550,6,0,L|283:133,1,80,2|2,0:0|0:0,0:0:0:0:
342,89,86859,1,8,0:0:0:0:
417,128,87013,1,2,0:0:0:0:
417,128,87168,2,0,L|414:197,3,40
412,200,87477,1,0,0:0:0:0:
367,308,87632,6,0,P|317:241|346:149,1,160,6|2,0:0|0:0,0:0:0:0:
293,100,88095,2,0,P|256:111|211:96,1,80,8|0,0:0|0:0,0:0:0:0:
330,170,88404,2,0,P|367:159|412:174,1,80,2|2,0:0|0:0,0:0:0:0:
467,222,88714,2,0,P|456:182|478:146,1,80,8|0,0:0|0:0,0:0:0:0:
429,13,89023,6,0,P|440:51|423:86,1,80,2|2,0:0|0:0,0:0:0:0:
356,130,89332,1,8,0:0:0:0:
287,90,89486,1,2,0:0:0:0:
226,142,89641,2,0,P|215:181|247:227,1,80,8|2,0:0|0:0,0:0:0:0:
304,248,89950,1,0,0:0:0:0:
342,352,90105,6,0,P|291:294|214:303,1,160,6|2,0:0|0:0,0:0:0:0:
142,269,90568,2,0,P|131:230|149:180,1,80,8|2,0:0|0:0,0:0:0:0:
285,147,90877,2,0,P|247:159|209:151,1,80,2|2,0:0|0:0,0:0:0:0:
336,85,91186,2,0,P|345:47|371:17,1,80,8|2,0:0|0:0,0:0:0:0:
366,160,91496,6,0,P|395:187|407:225,1,80,2|2,0:0|0:0,0:0:0:0:
285,147,91805,1,8,0:0:0:0:
336,85,91959,1,2,0:0:0:0:
366,160,92114,1,8,0:0:0:0:
285,147,92268,1,2,0:0:0:0:
160,71,92578,6,0,B|140:138|183:162|153:229,1,160,6|2,0:0|0:0,0:0:0:0:
106,293,93041,1,8,0:0:0:0:
158,347,93196,1,0,0:0:0:0:
106,293,93350,2,0,P|63:277|21:292,1,80,2|2,0:0|0:0,0:0:0:0:
158,347,93659,2,0,P|201:363|243:348,1,80,8|0,0:0|0:0,0:0:0:0:
379,322,93969,6,0,P|340:311|301:313,1,80,2|2,0:0|0:0,0:0:0:0:
230,275,94278,1,8,0:0:0:0:
201,200,94432,1,2,0:0:0:0:
253,139,94587,2,0,P|262:100|227:52,1,80,8|2,0:0|0:0,0:0:0:0:
104,166,95060,6,0,P|64:227|100:306,1,160,6|2,0:0|0:0,0:0:0:0:
165,339,95529,2,0,P|202:325|239:338,1,80,8|2,0:0|0:0,0:0:0:0:
310,376,95842,1,2,0:0:0:0:
239,338,95998,1,2,0:0:0:0:
345,237,96155,1,8,0:0:0:0:
271,266,96311,1,2,0:0:0:0:
218,205,96467,6,0,P|192:144|263:83,1,160,2|8,0:0|0:0,0:0:0:0:
328,105,96937,2,0,P|371:113|420:84,1,80,2|8,0:0|0:0,0:0:0:0:
480,75,97250,2,0,P|493:119|483:152,1,80,8|0,0:0|0:0,0:0:0:0:
449,217,97563,5,6,0:0:0:0:
424,45,108278,6,0,P|436:81|421:117,1,64,6|2,0:0|0:0,0:0:0:0:
400,169,108608,2,0,P|386:205|401:253,1,64,2|2,0:0|0:0,0:0:0:0:
426,289,108938,2,0,P|365:252|296:282,1,128,8|2,0:0|0:0,0:0:0:0:
178,303,109598,6,0,P|165:264|171:230,1,64,2|0,0:0|0:0,0:0:0:0:
182,172,109928,2,0,P|183:141|175:110,1,64,2|0,0:0|0:0,0:0:0:0:
116,72,110258,1,8,0:0:0:0:
57,110,110423,2,0,P|48:140|50:172,1,64,2|0,0:0|0:0,0:0:0:0:
89,231,110753,6,0,P|151:208|222:229,1,128,2|2,0:0|0:0,0:0:0:0:
271,256,111248,1,2,0:0:0:0:
335,223,111413,1,2,0:0:0:0:
335,223,111578,2,0,L|353:162,1,64,8|0,0:0|0:0,0:0:0:0:
423,167,111908,2,0,L|405:228,1,64,2|0,0:0|0:0,0:0:0:0:
379,294,112238,6,0,P|322:275|252:296,1,128,2|2,0:0|0:0,0:0:0:0:
206,339,112733,1,0,0:0:0:0:
150,296,112898,2,0,P|163:234|129:179,1,128,8|0,0:0|0:0,0:0:0:0:
73,143,113393,6,0,P|141:142|200:80,1,128,2|2,0:0|0:0,0:0:0:0:
230,51,113888,1,2,0:0:0:0:
186,106,114053,1,2,0:0:0:0:
251,144,114218,2,0,P|278:198|248:252,1,128,8|2,0:0|0:0,0:0:0:0:
189,292,114713,1,0,0:0:0:0:
130,252,114878,6,0,P|102:199|137:141,1,128,2|0,0:0|0:0,0:0:0:0:
189,102,115373,1,0,0:0:0:0:
244,58,115538,2,0,P|308:85|384:64,1,128,8|0,0:0|0:0,0:0:0:0:
418,30,116033,6,0,B|399:69|434:118|412:164,1,128,2|2,0:0|0:0,0:0:0:0:
389,221,116528,2,0,L|463:237,2,64,2|2|8,0:0|0:0|0:0,0:0:0:0:
326,247,117023,1,2,0:0:0:0:
326,247,117188,2,0,L|263:260,1,64,2|2,0:0|0:0,0:0:0:0:
195,244,117518,6,0,P|169:177|198:121,1,128,2|2,0:0|0:0,0:0:0:0:
244,83,118013,1,2,0:0:0:0:
306,116,118178,2,0,P|377:128|434:99,1,128,8|2,0:0|0:0,0:0:0:0:
470,50,118674,6,0,L|443:175,1,128,2|2,0:0|0:0,0:0:0:0:
386,216,119169,1,2,0:0:0:0:
426,274,119334,1,2,0:0:0:0:
363,306,119499,2,0,P|312:268|249:273,1,128,8|2,0:0|0:0,0:0:0:0:
188,305,119994,1,0,0:0:0:0:
190,234,120159,6,0,P|200:172|157:127,1,128,2|2,0:0|0:0,0:0:0:0:
92,104,120654,1,0,0:0:0:0:
47,158,120819,2,0,P|36:219|80:265,1,128,8|2,0:0|0:0,0:0:0:0:
141,296,121314,6,0,B|180:315|229:280|275:302,1,128,2|2,0:0|0:0,0:0:0:0:
336,311,121809,2,0,P|334:277|356:233,1,64,2|2,0:0|0:0,0:0:0:0:
389,195,122139,1,8,0:0:0:0:
379,129,122304,1,0,0:0:0:0:
379,129,122469,2,0,P|389:98|386:67,1,64,2|0,0:0|0:0,0:0:0:0:
325,33,122799,6,0,L|175:38,1,128,2|2,0:0|0:0,0:0:0:0:
139,77,123294,1,0,0:0:0:0:
182,133,123459,2,0,L|309:137,1,128,8|2,0:0|0:0,0:0:0:0:
379,149,123954,6,0,P|394:212|330:234,1,128,2|2,0:0|0:0,0:0:0:0:
277,224,124449,2,0,P|238:258|290:351,2,128,2|8|2,0:0|0:0|0:0,0:0:0:0:
342,197,125274,1,0,0:0:0:0:
400,237,125439,6,0,L|485:244,2,64,2|0|2,0:0|0:0|0:0,0:0:0:0:
342,197,125934,1,0,0:0:0:0:
396,152,126099,2,0,P|408:89|356:62,1,128,8|0,0:0|0:0,0:0:0:0:
293,86,126594,6,0,P|230:100|165:74,1,128,2|2,0:0|0:0,0:0:0:0:
106,55,127089,2,0,P|96:95|118:138,1,64,2|2,0:0|0:0,0:0:0:0:
131,180,127419,1,8,0:0:0:0:
77,225,127584,1,2,0:0:0:0:
120,281,127749,1,2,0:0:0:0:
64,324,127914,1,2,0:0:0:0:
120,281,128079,6,0,L|279:281,1,128,2|2,0:0|0:0,0:0:0:0:
298,231,128575,1,2,0:0:0:0:
268,167,128740,2,0,L|140:167,1,128,8|2,0:0|0:0,0:0:0:0:
84,124,129235,5,6,0:0:0:0:
34,332,129742,2,0,L|60:367,3,35.9999989013672,8|0|0|0,0:0|0:0|0:0|0:0,0:0:0:0:
76,341,130083,2,0,L|121:350,3,35.9999989013672,8|0|0|0,0:0|0:0|0:0|0:0,0:0:0:0:
118,319,130424,2,0,L|186:312,3,35.9999989013672,8|8|8|8,0:0|0:0|0:0|0:0,0:0:0:0:
152,286,130764,6,0,L|184:252,3,35.9999989013672,8|0|0|0,0:0|0:0|0:0|0:0,0:0:0:0:
155,240,131105,2,0,L|168:189,3,35.9999989013672,8|0|0|0,0:0|0:0|0:0|0:0,0:0:0:0:
138,190,131446,2,0,P|126:127|186:83,1,143.999995605469,8|8,0:0|0:0,0:0:0:0:
251,109,131957,1,8,0:0:0:0:
306,62,132127,6,0,L|402:62,1,71.9999978027344,8|0,0:0|0:0,0:0:0:0:
399,131,132468,2,0,L|327:131,1,71.9999978027344,8|0,0:0|0:0,0:0:0:0:
276,178,132809,1,8,0:0:0:0:
315,238,132979,1,0,0:0:0:0:
264,289,133149,2,0,P|250:327|268:374,1,71.9999978027344,8|8,0:0|0:0,0:0:0:0:
325,377,133490,6,0,P|338:344|332:309,1,71.9999978027344,8|0,0:0|0:0,0:0:0:0:
315,238,133831,2,0,P|309:202|322:170,1,71.9999978027344,8|0,0:0|0:0,0:0:0:0:
382,128,134172,1,8,0:0:0:0:
382,128,134342,2,0,P|421:133|459:125,2,71.9999978027344,8|8|8,0:0|0:0|0:0,0:0:0:0:
314,101,134853,6,0,P|294:82|271:69,3,35.9999989013672,8|0|0|0,0:0|0:0|0:0|0:0,0:0:0:0:
259,66,135194,2,0,P|237:68|191:69,3,35.9999989013672,8|0|0|0,0:0|0:0|0:0|0:0,0:0:0:0:
194,67,135534,2,0,P|168:61|143:64,3,35.9999989013672,8|0|0|0,0:0|0:0|0:0|0:0,0:0:0:0:
130,65,135875,2,0,P|119:84|110:121,3,35.9999989013672,8|8|8|8,0:0|0:0|0:0|0:0,0:0:0:0:
110,125,136216,6,0,P|119:149|136:191,3,35.9999989013672,8|0|0|0,0:0|0:0|0:0|0:0,0:0:0:0:
130,186,136557,2,0,P|141:212|136:248,3,35.9999989013672,8|0|0|0,0:0|0:0|0:0|0:0,0:0:0:0:
128,245,136897,1,8,0:0:0:0:
128,245,137068,2,0,P|126:306|215:328,1,143.999995605469,0|8,0:0|0:0,0:0:0:0:
265,324,137579,6,0,P|281:291|268:239,1,71.9999978027344,8|8,0:0|0:0,0:0:0:0:
238,196,137919,1,8,0:0:0:0:
278,136,138090,1,8,0:0:0:0:
347,155,138260,2,0,L|429:159,1,71.9999978027344,8|8,0:0|0:0,0:0:0:0:
442,90,138601,2,0,L|370:86,1,71.9999978027344,8|8,0:0|0:0,0:0:0:0:
322,32,138942,5,8,0:0:0:0:
262,71,139112,1,8,0:0:0:0:
196,39,139282,2,0,L|122:39,1,71.9999978027344,8|8,0:0|0:0,0:0:0:0:
66,82,139623,1,8,0:0:0:0:
99,145,139793,1,8,0:0:0:0:
38,184,139964,1,8,0:0:0:0:
68,249,140134,1,8,0:0:0:0:
28,317,140304,6,0,L|48:380,3,35.9999989013672,8|0|0|0,0:0|0:0|0:0|0:0,0:0:0:0:
64,336,140645,2,0,L|99:395,3,35.9999989013672,8|0|0|0,0:0|0:0|0:0|0:0,0:0:0:0:
100,345,140986,2,0,L|153:379,3,35.9999989013672,8|0|8|0,0:0|0:0|0:0|0:0,0:0:0:0:
142,337,141327,2,0,L|196:348,3,35.9999989013672,8|0|0|0,0:0|0:0|0:0|0:0,0:0:0:0:
178,315,141667,6,0,L|228:299,3,35.9999989013672,8|0|0|0,0:0|0:0|0:0|0:0,0:0:0:0:
206,275,142008,2,0,L|254:241,3,35.9999989013672,8|0|0|0,0:0|0:0|0:0|0:0,0:0:0:0:
243,226,142349,1,8,0:0:0:0:
243,226,142519,2,0,P|223:169|296:130,1,143.999995605469,8|0,0:0|0:0,0:0:0:0:
359,150,143030,5,8,0:0:0:0:
421,102,143200,1,8,0:0:0:0:
477,158,143371,2,0,P|495:191|478:238,1,71.9999978027344,8|8,0:0|0:0,0:0:0:0:
456,296,143712,1,8,0:0:0:0:
380,274,143882,1,8,0:0:0:0:
323,329,144052,2,0,L|246:332,1,71.9999978027344,8|8,0:0|0:0,0:0:0:0:
213,262,144393,6,0,L|284:259,1,71.9999978027344,8|8,0:0|0:0,0:0:0:0:
342,205,144734,1,8,0:0:0:0:
287,148,144904,1,8,0:0:0:0:
340,89,145074,2,0,P|345:52|338:13,2,71.9999978027344,8|8|8,0:0|0:0|0:0,0:0:0:0:
287,148,145585,1,8,0:0:0:0:
223,194,145756,6,0,L|164:175,3,35.9999989013672,8|0|0|0,0:0|0:0|0:0|0:0,0:0:0:0:
206,160,146097,2,0,L|173:117,3,35.9999989013672,8|0|0|0,0:0|0:0|0:0|0:0,0:0:0:0:
212,123,146437,2,0,L|196:63,3,35.9999989013672,8|0|8|0,0:0|0:0|0:0|0:0,0:0:0:0:
231,87,146778,2,0,L|240:35,3,35.9999989013672,8|0|0|0,0:0|0:0|0:0|0:0,0:0:0:0:
261,67,147119,6,0,L|298:30,3,35.9999989013672,8|0|0|0,0:0|0:0|0:0|0:0,0:0:0:0:
293,69,147459,2,0,L|349:60,3,35.9999989013672,8|0|0|0,0:0|0:0|0:0|0:0,0:0:0:0:
356,71,147800,1,8,0:0:0:0:
356,71,147970,2,0,P|371:147|323:180,1,143.999995605469,8|0,0:0|0:0,0:0:0:0:
246,161,148482,6,0,L|259:238,1,71.9999978027344,8|0,0:0|0:0,0:0:0:0:
202,289,148822,2,0,L|189:366,1,71.9999978027344,8|0,0:0|0:0,0:0:0:0:
118,326,149163,2,0,L|129:255,1,71.9999978027344,8|8,0:0|0:0,0:0:0:0:
80,193,149504,2,0,L|68:122,1,71.9999978027344,8|0,0:0|0:0,0:0:0:0:
5,72,149844,5,8,0:0:0:0:
79,44,150015,1,0,0:0:0:0:
68,122,150185,1,8,0:0:0:0:
5,72,150356,1,8,0:0:0:0:
79,44,150526,1,8,0:0:0:0:
68,122,150696,1,8,0:0:0:0:
131,170,150867,2,0,L|146:211,3,35.9999989013672,8|8|8|8,0:0|0:0|0:0|0:0,0:0:0:0:
164,232,151207,5,8,0:0:0:0:
239,276,151378,1,6,0:0:0:0:
318,238,151548,2,0,P|355:170|281:104,1,176.000005371094,6|6,0:0|0:0,0:0:0:0:
220,149,152059,1,6,0:0:0:0:
136,123,152229,2,0,P|147:175|117:228,1,88.000002685547,8|6,0:0|0:0,0:0:0:0:
67,262,152570,5,6,0:0:0:0:
106,340,152741,1,8,0:0:0:0:
176,288,152911,2,0,L|270:279,1,88.000002685547,6|6,0:0|0:0,0:0:0:0:
343,242,153252,2,0,L|430:250,2,88.000002685547,8|8|8,0:0|0:0|0:3,0:0:0:0:
283,176,153763,1,2,0:3:0:0:
370,91,153933,5,8,0:0:0:0:
319,20,154103,1,6,0:0:0:0:
230,29,154274,2,0,P|162:77|73:47,1,176.000005371094,6|6,0:0|0:0,0:0:0:0:
9,107,154785,1,6,0:0:0:0:
71,169,154955,2,0,L|81:268,1,88.000002685547,8|6,0:0|0:0,0:0:0:0:
89,344,155296,5,6,0:0:0:0:
8,308,155466,1,8,0:0:0:0:
79,256,155637,2,0,L|71:169,1,88.000002685547,6|6,0:0|0:0,0:0:0:0:
116,93,155977,1,8,0:0:0:0:
194,134,156148,1,8,0:0:0:0:
256,72,156318,2,0,P|298:87|358:78,1,88.000002685547,8|2,0:3|0:3,0:0:0:0:
431,24,156659,5,8,0:0:0:0:
462,107,156829,1,6,0:0:0:0:
490,191,156999,2,0,P|508:258|431:323,1,176.000005371094,6|6,0:0|0:0,0:0:0:0:
358,280,157511,1,6,0:0:0:0:
280,321,157681,2,0,P|237:306|193:305,1,88.000002685547,8|6,0:0|0:0,0:0:0:0:
112,335,158022,5,6,0:0:0:0:
194,305,158192,1,8,0:0:0:0:
137,238,158362,2,0,P|126:196|142:154,1,88.000002685547,6|6,0:0|0:0,0:0:0:0:
206,96,158703,2,0,P|220:55|190:-4,2,88.000002685547,8|8|8,0:0|0:0|0:3,0:0:0:0:
140,155,159214,1,2,0:3:0:0:
206,233,159384,5,8,0:0:0:0:
273,176,159555,1,6,0:0:0:0:
206,233,159725,2,0,P|241:295|173:357,1,176.000005371094,6|6,0:0|0:0,0:0:0:0:
86,361,160236,1,6,0:0:0:0:
19,303,160407,2,0,P|2:258|34:209,1,88.000002685547,8|6,0:0|0:0,0:0:0:0:
75,157,160747,5,6,0:0:0:0:
147,207,160918,1,8,0:0:0:0:
219,158,161088,2,0,L|313:149,1,88.000002685547,6|6,0:0|0:0,0:0:0:0:
379,99,161429,2,0,P|395:61|363:-1,2,88.000002685547,8|8|8,0:0|0:0|0:3,0:0:0:0:
306,149,161940,1,2,0:3:0:0:
228,236,162110,5,8,0:0:0:0:
271,315,162281,1,6,0:0:0:0:
353,350,162451,2,0,P|415:297|379:190,1,176.000005371094,6|6,0:0|0:0,0:0:0:0:
361,133,162962,1,6,0:0:0:0:
280,167,163132,2,0,P|234:177|180:160,1,88.000002685547,8|6,0:0|0:0,0:0:0:0:
114,131,163473,5,6,0:0:0:0:
184,78,163643,1,8,0:0:0:0:
194,168,163814,2,0,P|209:215|190:254,1,88.000002685547,6|6,0:0|0:0,0:0:0:0:
124,301,164154,2,0,P|82:286|33:299,2,88.000002685547,8|8|8,0:0|0:0|0:3,0:0:0:0:
189,361,164666,1,2,0:3:0:0:
266,268,164836,5,8,0:0:0:0:
333,325,165006,1,6,0:0:0:0:
383,252,165177,2,0,P|407:191|348:100,1,176.000005371094,6|6,0:0|0:0,0:0:0:0:
265,98,165688,1,6,0:0:0:0:
194,150,165858,2,0,P|146:156|88:144,1,88.000002685547,8|6,0:0|0:0,0:0:0:0:
21,128,166199,5,6,0:0:0:0:
83,65,166369,1,8,0:0:0:0:
107,150,166539,2,0,L|123:246,1,88.000002685547,6|6,0:0|0:0,0:0:0:0:
217,354,166880,2,0,L|203:268,1,88.000002685547,8|8,0:0|0:0,0:0:0:0:
245,191,167221,1,8,0:3:0:0:
323,232,167391,1,2,0:3:0:0:
410,136,167562,5,8,0:0:0:0:
374,55,167732,1,6,0:0:0:0:
286,52,167902,2,0,P|240:107|273:217,1,176.000005371094,6|6,0:0|0:0,0:0:0:0:
306,277,168413,1,6,0:0:0:0:
252,346,168584,2,0,L|165:330,1,88.000002685547,8|6,0:0|0:0,0:0:0:0:
9,289,168924,6,0,L|96:274,1,88.000002685547,6|8,0:0|0:0,0:0:0:0:
161,215,169265,2,0,P|170:167|137:126,1,88.000002685547,6|6,0:0|0:0,0:0:0:0:
66,106,169606,2,0,P|23:112|-20:76,2,88.000002685547,8|8|8,0:0|0:0|0:3,0:0:0:0:
135,51,170117,1,2,0:3:0:0:
228,116,170287,5,8,0:0:0:0:
312,99,170458,1,6,0:0:0:0:
385,49,170628,2,0,P|446:104|421:208,1,176.000005371094,6|6,0:0|0:0,0:0:0:0:
400,271,171139,1,6,0:0:0:0:
344,338,171310,2,0,P|301:318|257:322,1,88.000002685547,8|6,0:0|0:0,0:0:0:0:
181,358,171650,5,6,0:0:0:0:
100,321,171821,1,8,0:0:0:0:
77,236,171991,2,0,L|68:142,1,88.000002685547,6|6,0:0|0:0,0:0:0:0:
145,104,172332,2,0,L|153:191,1,88.000002685547,8|8,0:0|0:3,0:0:0:0:
200,265,172672,1,2,0:3:0:0:
256,192,172843,1,4,0:3:0:0:
256,192,173013,5,6,0:3:0:0:
256,192,173183,12,8,175057,0:0:0:0:
256,192,175739,12,8,177783,0:0:0:0:
256,192,178465,12,8,180509,0:3:0:0:
256,192,181190,5,6,0:3:0:0:
