osu file format v14

[General]
AudioFilename: audio.mp3
AudioLeadIn: 0
PreviewTime: 6923
Countdown: 0
SampleSet: Soft
StackLeniency: 0.4
Mode: 0
LetterboxInBreaks: 0
WidescreenStoryboard: 1

[Editor]
DistanceSpacing: 0.8
BeatDivisor: 4
GridSize: 32
TimelineZoom: 2.799999

[Metadata]
Title:Tree Village
TitleUnicode:Tree Village
Artist:Dance Gavin Dance
ArtistUnicode:Dance Gavin Dance
Creator:Dilectus
Version:Cool's Extra
Source:
Tags:happiness post hardcore progressive screamo minorsonek waku c00l cool rvmathew davided jenhideo osatia
BeatmapID:1590637
BeatmapSetID:703666

[Difficulty]
HPDrainRate:5.8
CircleSize:4
OverallDifficulty:8.2
ApproachRate:9.2
SliderMultiplier:2.1
SliderTickRate:1

[Events]
//Background and Video events
0,0,"bg.jpg",0,0
//Break Periods
2,173213,174487
2,175939,177213
2,178665,179939
2,181390,182665
//Storyboard Layer 0 (Background)
//Storyboard Layer 1 (Fail)
//Storyboard Layer 2 (Pass)
//Storyboard Layer 3 (Foreground)
//Storyboard Sound Samples

[TimingPoints]
9092,361.44578313253,3,2,5,60,1,0
9092,-125,3,2,5,60,0,0
10537,-142.857142857143,3,2,5,60,0,0
11260,-125,3,2,5,60,0,0
25357,-200,3,2,5,60,0,0
26449,348.837209302326,3,2,1,80,1,0
26449,-125,3,2,1,80,0,0
43542,-166.666666666667,3,2,1,80,0,0
45286,-125,3,2,1,80,0,0
47379,-166.666666666667,3,2,1,80,0,0
47728,-166.666666666667,3,2,1,80,0,0
49472,-125,3,2,1,80,0,0
51565,-100,3,2,1,80,0,0
52611,-83.3333333333333,3,2,1,80,0,0
53658,-100,3,2,1,80,0,0
54704,-83.3333333333333,3,2,1,80,0,0
55751,-100,3,2,1,80,0,0
56797,-125,3,2,1,80,0,0
57844,-100,3,2,1,80,0,0
59937,-111.111111111111,3,2,5,80,0,0
60111,-111.111111111111,3,2,1,80,0,0
60983,-111.111111111111,3,2,5,80,0,0
61158,-111.111111111111,3,2,1,80,0,0
61507,-111.111111111111,3,2,5,80,0,0
61594,-111.111111111111,3,2,1,80,0,0
62030,-100,3,2,1,80,0,0
63600,-100,3,2,5,80,0,0
63774,-100,3,2,1,80,0,0
64123,-111.111111111111,3,2,1,80,0,0
65169,-111.111111111111,3,2,5,80,0,0
65344,-111.111111111111,3,2,1,80,0,0
65693,-111.111111111111,3,2,5,80,0,0
65780,-111.111111111111,3,2,1,80,0,0
66216,-100,3,2,1,80,0,0
67262,-125,3,2,1,80,0,0
67786,-100,3,2,5,80,0,0
67873,-100,3,2,1,80,0,0
68309,-111.111111111111,3,2,5,80,0,0
68483,-111.111111111111,3,2,1,80,0,0
69355,-111.111111111111,3,2,5,80,0,0
69530,-111.111111111111,3,2,1,80,0,0
69879,-111.111111111111,3,2,5,80,0,0
69966,-111.111111111111,3,2,1,80,0,0
70402,-100,3,2,5,80,0,0
70576,-100,3,2,1,80,0,0
71449,-100,3,2,5,80,0,0
71536,-100,3,2,1,80,0,0
71972,-100,3,2,5,80,0,0
72146,-100,3,2,1,80,0,0
72495,-111.111111111111,3,2,5,80,0,0
72582,-111.111111111111,3,2,1,80,0,0
73542,-111.111111111111,3,2,5,80,0,0
73716,-111.111111111111,3,2,1,80,0,0
74588,352.941176470588,3,2,1,70,1,0
74588,-100,3,2,1,70,0,0
75646,-100,3,2,5,70,0,0
75735,-100,3,2,1,70,0,0
75999,313.971742543171,4,2,1,80,1,0
75999,-55.5555555555556,4,2,1,80,0,0
76077,-55.5555555555556,4,2,1,10,0,0
76626,-55.5555555555556,4,2,1,80,0,0
76705,-55.5555555555556,4,2,1,10,0,0
77254,-55.5555555555556,4,2,1,80,0,0
77333,-55.5555555555556,4,2,1,10,0,0
77745,314.96062992126,4,2,1,80,1,0
77745,-100,4,2,1,80,0,0
78059,-100,4,2,1,80,0,0
78060,309.597523219814,4,2,1,80,1,0
78204,309.119010819165,4,2,1,80,1,0
78204,-90.9090909090909,4,2,1,80,0,0
95060,312.880829015544,4,2,1,80,1,0
97563,335.570469798658,4,2,1,80,1,0
97563,-142.857142857143,4,2,1,80,0,0
100247,327.510917030568,4,2,1,80,1,0
100247,-142.857142857143,4,2,1,80,0,0
101721,331.858407079646,4,2,1,60,1,0
101721,-166.666666666667,4,2,1,60,0,0
102135,-166.666666666667,4,2,1,10,0,0
102218,-166.666666666667,4,2,1,60,0,0
102633,-166.666666666667,4,2,1,10,0,0
102716,-166.666666666667,4,2,1,60,0,0
102867,326.441784548422,4,2,1,60,1,0
102867,-142.857142857143,4,2,1,60,0,0
105644,329.308452250274,4,2,1,60,1,0
105644,-142.857142857143,4,2,1,60,0,0
106961,-166.666666666667,4,2,1,60,0,0
108278,330.03300330033,4,2,1,90,1,0
108278,-125,4,2,1,90,0,0
129402,340.715502555366,4,2,1,60,1,0
129402,-166.666666666667,4,2,1,60,0,0
140304,-142.857142857143,4,2,1,60,0,0
148482,-125,4,2,1,70,0,0
149844,-111.111111111111,4,2,1,80,0,0
151207,-90.9090909090909,4,2,1,90,0,1
173013,-90.9090909090909,4,2,1,80,0,0
177783,-90.9090909090909,4,2,1,70,0,0
180509,-90.9090909090909,4,2,1,60,0,0
183235,-90.9090909090909,4,2,1,50,0,0
191241,-90.9090909090909,4,2,1,20,0,0

[Colours]
Combo1 : 122,126,105
Combo2 : 108,131,181
Combo3 : 189,187,201
Combo4 : 189,144,84

[HitObjects]
86,202,9092,5,10,0:0:0:0:
219,171,9272,2,0,L|222:113,2,42,0|0|2,0:0|0:0|0:0,0:0:0:0:
173,246,9634,2,0,B|214:259|214:259|274:248,1,84,2|0,0:0|0:0,0:0:0:0:
331,230,9995,1,0,0:0:0:0:
425,274,10176,5,2,0:0:0:0:
423,299,10266,1,0,0:0:0:0:
421,325,10357,1,0,0:0:0:0:
431,190,10537,6,0,L|436:94,1,73.4999977569581,0|2,0:0|0:0,0:0:0:0:
327,156,10899,2,0,L|331:239,1,73.4999977569581,2|2,0:0|0:0,0:0:0:0:
365,73,11260,6,0,B|322:62|322:62|270:78,1,84,2|0,0:0|0:0,0:0:0:0:
183,122,11622,1,0,0:0:0:0:
79,65,11802,1,2,0:0:0:0:
53,63,11893,1,0,0:0:0:0:
29,69,11983,1,0,0:0:0:0:
166,34,12164,1,0,0:0:0:0:
144,199,12345,6,0,P|201:208|265:157,2,126,2|0|0,0:0|0:0|0:0,0:0:0:0:
38,215,13067,2,0,P|35:187|53:148,2,56
28,309,13429,6,0,B|71:297|71:297|123:311,1,84,10|0,0:0|0:0,0:0:0:0:
181,335,13790,1,2,0:0:0:0:
274,386,13971,2,0,L|267:267,1,84,2|0,0:0|0:0,0:0:0:0:
267,275,14242,1,0,0:0:0:0:
265,245,14332,1,0,0:0:0:0:
357,113,14513,6,0,L|462:119,1,84,2|0,0:0|0:0,0:0:0:0:
435,243,14875,2,0,L|333:251,1,84,0|2,0:0|0:0,0:0:0:0:
352,250,15146,1,0,0:0:0:0:
352,250,15236,1,2,0:0:0:0:
496,173,15417,1,2,0:0:0:0:
282,157,15598,6,0,B|271:118|271:118|282:54,1,84,2|0,0:0|0:0,0:0:0:0:
294,0,15959,1,2,0:0:0:0:
108,122,16140,2,0,L|191:118,1,84,2|0,0:0|0:0,0:0:0:0:
357,113,16501,1,0,0:0:0:0:
232,237,16682,6,0,P|271:252|355:223,2,126,2|0|0,0:0|0:0|0:0,0:0:0:0:
110,176,17405,2,0,P|104:143|113:108,2,56,2|0|0,0:0|0:0|0:0,0:0:0:0:
148,256,17766,6,0,B|106:265|106:265|57:250,1,84,10|0,0:0|0:0,0:0:0:0:
0,219,18128,1,2,0:0:0:0:
106,344,18308,2,0,L|202:348,1,84,2|0,0:0|0:0,0:0:0:0:
267,354,18670,1,0,0:0:0:0:
385,277,18851,6,0,L|388:318,2,42,2|0|0,0:0|0:0|0:0,0:0:0:0:
333,198,19212,2,0,B|376:184|376:184|428:193,1,84,0|2,0:0|0:0,0:0:0:0:
398,54,19573,2,0,B|361:67|361:67|316:62,1,84,2|2,0:0|0:0,0:0:0:0:
215,146,19935,6,0,L|131:152,1,84,2|0,0:0|0:0,0:0:0:0:
8,162,20296,1,2,0:0:0:0:
78,311,20477,2,0,L|72:221,1,84,2|0,0:0|0:0,0:0:0:0:
64,86,20838,1,0,0:0:0:0:
215,146,21019,6,0,P|268:147|319:98,2,126,2|0|0,0:0|0:0|0:0,0:0:0:0:
143,181,21742,2,0,P|134:152|145:109,2,56,2|0|0,0:0|0:0|0:0,0:0:0:0:
218,254,22104,6,0,B|320:263,1,84,10|0,0:0|0:0,0:0:0:0:
383,273,22465,1,2,0:0:0:0:
218,370,22646,2,0,B|320:361,1,84,2|0,0:0|0:0,0:0:0:0:
383,351,23007,1,0,0:0:0:0:
414,192,23188,6,0,B|381:183|381:183|324:200,1,84,2|0,0:0|0:0,0:0:0:0:
218,254,23549,1,0,0:0:0:0:
221,164,23730,2,0,L|225:69,2,84,2|2|2,0:0|0:0|0:0,0:0:0:0:
219,338,24272,6,0,P|238:336|266:320,2,42,2|0|0,0:0|0:0|0:0,0:0:0:0:
197,337,24543,1,0,0:0:0:0:
178,326,24634,1,2,0:0:0:0:
81,194,24814,2,0,L|86:300,1,84,2|0,0:0|0:0,0:0:0:0:
91,375,25176,1,0,0:0:0:0:
239,219,25357,6,0,P|170:187|221:241,1,210,4|0,0:0|0:0,0:0:0:0:
339,383,26449,5,12,0:0:0:0:
338,363,26536,1,2,0:0:0:0:
337,343,26623,1,2,0:0:0:0:
336,323,26710,1,2,0:0:0:0:
335,303,26797,1,8,0:0:0:0:
456,384,26972,5,2,0:0:0:0:
246,310,27146,1,8,0:0:0:0:
225,299,27495,5,8,0:0:0:0:
203,293,27582,1,2,0:0:0:0:
182,296,27669,1,2,0:0:0:0:
163,304,27757,1,2,0:0:0:0:
146,316,27844,1,8,0:0:0:0:
267,384,28018,5,2,0:0:0:0:
233,188,28193,1,8,0:0:0:0:
218,167,28542,5,8,0:0:0:0:
175,162,28629,1,2,0:0:0:0:
133,160,28716,1,2,0:0:0:0:
91,157,28803,1,2,0:0:0:0:
49,154,28890,1,8,0:0:0:0:
140,48,29065,5,2,0:0:0:0:
85,253,29239,1,8,0:0:0:0:
77,281,29588,5,8,0:0:0:0:
115,298,29675,1,2,0:0:0:0:
156,299,29762,1,2,0:0:0:0:
196,287,29850,1,2,0:0:0:0:
226,258,29937,1,8,0:0:0:0:
127,382,30111,5,2,0:0:0:0:
327,329,30286,1,8,0:0:0:0:
351,316,30635,5,8,0:0:0:0:
353,294,30722,1,2,0:0:0:0:
354,273,30809,1,2,0:0:0:0:
355,252,30896,1,2,0:0:0:0:
356,231,30983,1,8,0:0:0:0:
420,368,31158,5,2,0:0:0:0:
271,233,31332,1,8,0:0:0:0:
259,206,31681,5,8,0:0:0:0:
238,200,31768,1,2,0:0:0:0:
217,201,31855,1,2,0:0:0:0:
197,208,31943,1,2,0:0:0:0:
182,222,32030,1,8,0:0:0:0:
270,333,32204,5,2,0:0:0:0:
326,142,32379,1,8,0:0:0:0:
316,110,32728,5,8,0:0:0:0:
273,105,32815,1,2,0:0:0:0:
231,102,32902,1,2,0:0:0:0:
189,100,32989,1,2,0:0:0:0:
147,96,33076,1,8,0:0:0:0:
274,18,33251,5,2,0:0:0:0:
301,239,33425,1,8,0:0:0:0:
316,269,33774,5,8,0:0:0:0:
352,289,33861,1,2,0:0:0:0:
393,295,33949,1,2,0:0:0:0:
434,287,34036,1,2,0:0:0:0:
469,265,34123,1,8,0:0:0:0:
339,384,34297,5,2,0:0:0:0:
386,164,34472,1,8,0:0:0:0:
381,133,34821,5,8,0:0:0:0:
362,123,34908,1,2,0:0:0:0:
341,119,34995,1,2,0:0:0:0:
320,122,35082,1,2,0:0:0:0:
301,132,35169,5,8,0:0:0:0:
303,0,35344,1,2,0:0:0:0:
205,65,35518,1,8,0:0:0:0:
408,47,35693,1,2,0:0:0:0:
316,212,35867,5,8,0:0:0:0:
295,214,35954,1,2,0:0:0:0:
273,211,36042,1,2,0:0:0:0:
254,200,36129,1,2,0:0:0:0:
241,183,36216,5,8,0:0:0:0:
249,327,36390,1,2,0:0:0:0:
101,240,36565,1,8,0:0:0:0:
93,384,36739,1,2,0:0:0:0:
157,178,36914,5,8,0:0:0:0:
118,161,37001,1,2,0:0:0:0:
76,163,37088,1,2,0:0:0:0:
40,184,37175,1,2,0:0:0:0:
24,222,37262,5,8,0:0:0:0:
201,112,37437,1,2,0:0:0:0:
182,261,37611,1,8,0:0:0:0:
76,163,37786,1,2,0:0:0:0:
290,152,37960,5,8,0:0:0:0:
296,110,38047,1,2,0:0:0:0:
287,68,38135,1,2,0:0:0:0:
261,34,38222,1,2,0:0:0:0:
220,21,38309,5,8,0:0:0:0:
398,62,38483,1,2,0:0:0:0:
218,190,38658,1,8,0:0:0:0:
396,149,38832,1,2,0:0:0:0:
326,306,39007,5,8,0:0:0:0:
325,285,39094,1,2,0:0:0:0:
324,264,39181,1,2,0:0:0:0:
323,243,39268,1,2,0:0:0:0:
323,222,39355,5,8,0:0:0:0:
411,300,39530,1,2,0:0:0:0:
242,269,39704,1,8,0:0:0:0:
329,384,39879,1,2,0:0:0:0:
166,250,40053,5,8,0:0:0:0:
145,247,40140,1,2,0:0:0:0:
123,249,40228,1,2,0:0:0:0:
103,257,40315,1,2,0:0:0:0:
87,271,40402,5,8,0:0:0:0:
98,117,40576,1,2,0:0:0:0:
13,193,40751,1,8,0:0:0:0:
194,163,40925,1,2,0:0:0:0:
19,72,41100,5,8,0:0:0:0:
49,43,41187,1,2,0:0:0:0:
87,28,41274,1,2,0:0:0:0:
128,32,41361,1,2,0:0:0:0:
161,58,41449,5,8,0:0:0:0:
113,235,41623,1,2,0:0:0:0:
270,193,41797,1,8,0:0:0:0:
98,117,41972,1,2,0:0:0:0:
318,119,42146,5,8,0:0:0:0:
346,149,42233,1,2,0:0:0:0:
357,189,42321,1,2,0:0:0:0:
351,230,42408,1,2,0:0:0:0:
325,263,42495,5,8,0:0:0:0:
474,173,42669,1,2,0:0:0:0:
270,193,42844,1,8,0:0:0:0:
392,354,43018,1,2,0:0:0:0:
318,119,43193,5,6,0:0:0:0:
317,97,43542,6,0,L|315:58,3,31.4999990386963,8|0|0|0,0:0|0:0|0:0|0:0,0:0:0:0:
233,62,43890,2,0,P|226:43|225:24,3,31.4999990386963,8|0|0|0,0:0|0:0|0:0|0:0,0:0:0:0:
393,62,44239,2,0,P|400:43|401:24,3,31.4999990386963,8|0|0|0,0:0|0:0|0:0|0:0,0:0:0:0:
351,174,44588,5,8,0:0:0:0:
336,178,44675,1,0,0:0:0:0:
320,180,44762,1,0,0:0:0:0:
304,179,44850,1,0,0:0:0:0:
289,174,44937,1,8,0:0:0:0:
257,160,45286,5,6,0:0:0:0:
257,191,45373,1,0,0:0:0:0:
258,222,45460,1,8,0:0:0:0:
259,253,45547,1,8,0:0:0:0:
260,284,45635,2,0,L|262:356,2,42,0|8|8,0:0|0:0|0:0,0:0:0:0:
331,105,45983,5,8,0:0:0:0:
296,78,46071,1,8,0:0:0:0:
255,72,46158,1,8,0:0:0:0:
214,80,46245,1,8,0:0:0:0:
183,108,46332,1,6,0:0:0:0:
151,135,46419,1,0,0:0:0:0:
111,143,46507,1,8,0:0:0:0:
69,137,46594,1,0,0:0:0:0:
34,110,46681,6,0,L|31:64,2,42,8|8|0,0:0|0:0|0:0,0:0:0:0:
42,213,46943,1,0,0:0:0:0:
42,213,47030,2,0,L|45:273,1,42,14|8,0:0|0:0,0:0:0:0:
50,338,47204,2,0,L|53:380,1,42,8|8,0:0|0:0,0:0:0:0:
141,285,47379,6,0,B|179:272|179:272|242:289,1,94.499997116089,6|0,0:0|0:0,0:0:0:0:
260,298,47728,2,0,L|263:336,3,31.4999990386963,8|0|0|0,0:0|0:0|0:0|0:0,0:0:0:0:
341,319,48076,2,0,L|344:357,3,31.4999990386963,8|0|0|0,0:0|0:0|0:0|0:0,0:0:0:0:
422,340,48425,2,0,L|425:378,3,31.4999990386963,8|0|0|0,0:0|0:0|0:0|0:0,0:0:0:0:
411,235,48774,5,8,0:0:0:0:
409,218,48861,1,0,0:0:0:0:
408,202,48949,1,0,0:0:0:0:
406,186,49036,1,0,0:0:0:0:
405,170,49123,1,8,0:0:0:0:
403,143,49472,5,6,0:0:0:0:
374,129,49559,1,0,0:0:0:0:
342,124,49646,1,8,0:0:0:0:
311,131,49733,1,0,0:0:0:0:
286,151,49821,2,0,L|284:202,2,42,8|8|0,0:0|0:0|0:0,0:0:0:0:
165,25,50169,5,6,0:0:0:0:
120,25,50257,1,0,0:0:0:0:
80,38,50344,1,8,0:0:0:0:
49,67,50431,1,8,0:0:0:0:
36,107,50518,1,6,0:0:0:0:
68,132,50605,1,0,0:0:0:0:
107,142,50693,1,8,0:0:0:0:
149,134,50780,1,0,0:0:0:0:
187,112,50867,6,0,P|209:108|231:110,2,42,8|8|0,0:0|0:0|0:0,0:0:0:0:
146,217,51129,1,0,0:0:0:0:
146,217,51216,2,0,P|155:235|168:251,1,42,6|0,0:0|0:0,0:0:0:0:
279,237,51390,2,0,P|290:219|297:199,1,42,8|8,0:0|0:0,0:0:0:0:
233,321,51565,6,0,B|284:330|284:330|345:314,1,105,14|0,0:0|0:0,0:0:0:0:
422,329,51826,1,8,0:0:0:0:
422,329,51914,2,0,P|423:303|414:275,1,52.5,0|0,0:0|0:0,0:0:0:0:
430,190,52088,2,0,P|407:176|379:169,1,52.5,8|0,0:0|0:0,0:0:0:0:
296,115,52262,5,8,0:0:0:0:
269,113,52350,1,0,0:0:0:0:
242,112,52437,1,0,0:0:0:0:
215,112,52524,1,0,0:0:0:0:
187,112,52611,6,0,B|190:161|190:161|205:185|205:185|208:253,1,125.999996154785,8|0,0:0|0:0,0:0:0:0:
150,372,52873,6,0,B|146:322|146:322|131:298|131:298|128:230,1,125.999996154785,8|0,0:0|0:0,0:0:0:0:
128,238,53135,1,8,0:0:0:0:
127,225,53222,1,0,0:0:0:0:
126,212,53309,1,8,0:0:0:0:
65,358,53483,1,8,0:0:0:0:
270,287,53658,6,0,B|309:274|309:274|392:297,1,105,6|8,0:0|0:0,0:0:0:0:
452,322,53919,1,8,0:0:0:0:
452,322,54007,2,0,L|448:265,1,52.5,0|8,0:0|0:0,0:0:0:0:
440,191,54181,2,0,L|436:134,1,52.5,8|8,0:0|0:0,0:0:0:0:
429,50,54355,1,6,0:0:0:0:
324,183,54530,5,8,0:0:0:0:
324,183,54617,1,8,0:0:0:0:
324,183,54704,2,0,B|288:184|288:184|262:199|262:199|238:187|238:187|200:189,1,125.999996154785,6|8,0:0|0:0,0:0:0:0:
98,116,54966,6,0,B|133:114|133:114|159:99|159:99|183:111|183:111|221:109,1,125.999996154785,8|0,0:0|0:0,0:0:0:0:
230,108,55228,1,8,0:0:0:0:
242,107,55315,1,0,0:0:0:0:
254,106,55402,1,8,0:0:0:0:
100,31,55576,1,8,0:0:0:0:
16,193,55751,6,0,B|8:245|8:245|25:312,1,105,14|0,0:0|0:0,0:0:0:0:
22,382,56012,1,8,0:0:0:0:
22,382,56100,2,0,P|47:369|84:367,1,52.5,0|0,0:0|0:0,0:0:0:0:
110,281,56274,2,0,P|133:296|153:327,1,52.5,8|0,0:0|0:0,0:0:0:0:
248,379,56449,5,8,0:0:0:0:
249,352,56536,1,0,0:0:0:0:
250,325,56623,1,0,0:0:0:0:
251,298,56710,1,0,0:0:0:0:
253,269,56797,6,0,B|255:235|255:235|260:218|260:218|264:158,1,84,8|0,0:0|0:0,0:0:0:0:
382,189,57059,6,0,B|383:221|383:221|389:238|389:238|391:271,1,84,8|0,0:0|0:0,0:0:0:0:
393,288,57321,1,8,0:0:0:0:
394,304,57408,1,0,0:0:0:0:
395,320,57495,1,8,0:0:0:0:
374,87,57844,6,0,B|324:73|324:73|254:89,1,105,6|8,0:0|0:0,0:0:0:0:
200,126,58105,1,8,0:0:0:0:
200,126,58193,2,0,L|198:184,1,52.5,0|8,0:0|0:0,0:0:0:0:
194,328,58367,2,0,L|193:381,1,52.5,8|8,0:0|0:0,0:0:0:0:
197,250,58542,1,6,0:0:0:0:
335,365,58716,5,8,0:0:0:0:
360,370,58803,1,8,0:0:0:0:
386,371,58890,2,0,P|394:342|393:307,1,52.5,14|0,0:0|0:0,0:0:0:0:
456,266,59065,2,0,P|434:244|404:227,1,52.5,0|8,0:0|0:0,0:0:0:0:
340,155,59239,5,0,0:0:0:0:
327,145,59326,1,0,0:0:0:0:
325,129,59414,1,8,0:0:0:0:
334,116,59501,1,0,0:0:0:0:
350,114,59588,1,8,0:0:0:0:
363,124,59675,1,8,0:0:0:0:
365,139,59762,1,8,0:0:0:0:
355,152,59850,1,8,0:0:0:0:
321,233,59937,6,0,B|299:234|299:234|287:239|287:239|276:234|276:234|214:237,1,94.499997116089,10|0,0:0|0:0,0:0:0:0:
244,158,60199,2,0,B|222:156|222:156|210:151|210:151|199:156|199:156|137:153,1,94.499997116089,8|0,0:3|0:0,0:0:0:0:
152,245,60460,1,2,0:0:0:0:
321,233,60635,5,8,0:0:0:0:
70,253,60809,1,2,0:0:0:0:
244,158,60983,5,10,0:0:0:0:
302,34,61158,5,8,0:0:0:0:
301,62,61245,1,8,0:0:0:0:
300,87,61332,2,0,B|345:91|345:91|358:87|358:87|368:92|368:92|390:94,1,94.499997116089,6|4,0:0|0:0,0:0:0:0:
473,129,61594,1,0,0:0:0:0:
473,129,61681,2,0,P|479:105|474:66,2,47.2499985580445,8|0|2,0:0|0:0|0:0,0:0:0:0:
363,231,62030,6,0,B|476:239,1,105,6|0,0:0|0:0,0:0:0:0:
399,312,62292,1,8,0:3:0:0:
399,312,62379,2,0,B|286:320,1,105,4|2,0:3|0:0,0:0:0:0:
231,384,62640,1,2,0:0:0:0:
231,384,62728,5,8,0:0:0:0:
213,357,62815,1,0,0:0:0:0:
206,325,62902,1,2,0:0:0:0:
208,293,62989,1,0,0:0:0:0:
224,266,63076,2,0,P|232:238|229:208,1,52.5,6|0,0:0|0:0,0:0:0:0:
193,131,63251,5,8,0:0:0:0:
190,104,63338,2,0,L|185:49,1,52.5,8|6,0:0|0:0,0:0:0:0:
44,228,63600,6,0,B|98:240|98:240|149:227,1,105,4|8,0:0|0:0,0:0:0:0:
146,227,63861,1,0,0:0:0:0:
146,227,63949,1,2,0:0:0:0:
86,70,64123,6,0,B|87:96|87:96|95:110|95:110|98:176,1,94.499997116089,6|0,0:0|0:0,0:0:0:0:
44,228,64385,2,0,B|42:254|42:254|34:268|34:268|31:334,1,94.499997116089,8|0,0:3|0:0,0:0:0:0:
105,368,64646,1,2,0:0:0:0:
264,243,64821,5,8,0:0:0:0:
44,228,64995,1,2,0:0:0:0:
231,127,65169,5,10,0:0:0:0:
328,154,65344,5,8,0:0:0:0:
330,122,65431,1,8,0:0:0:0:
333,90,65518,2,0,B|387:93|387:93|401:101|401:101|428:104,1,94.499997116089,6|4,0:0|0:0,0:0:0:0:
508,93,65780,1,0,0:0:0:0:
508,93,65867,2,0,P|507:120|488:160,1,47.2499985580445,8|0,0:0|0:0,0:0:0:0:
450,209,66042,1,2,0:0:0:0:
343,340,66216,6,0,L|336:229,1,105,6|0,0:0|0:0,0:0:0:0:
248,280,66478,1,8,0:3:0:0:
248,280,66565,2,0,L|241:384,1,105,0|2,0:0|0:0,0:0:0:0:
165,310,66826,5,2,0:0:0:0:
165,310,66914,1,8,0:0:0:0:
136,295,67001,1,0,0:0:0:0:
104,290,67088,1,2,0:0:0:0:
73,295,67175,1,0,0:0:0:0:
47,312,67262,5,6,0:0:0:0:
46,301,67350,1,0,0:0:0:0:
47,289,67437,1,0,0:0:0:0:
47,278,67524,1,8,0:3:0:0:
47,267,67611,2,0,L|51:205,1,42,0|0,0:0|0:0,0:0:0:0:
85,128,67786,5,4,0:0:0:0:
56,119,67873,1,0,0:0:0:0:
25,123,67960,1,8,0:0:0:0:
272,106,68309,6,0,B|270:82|270:82|274:73|274:73|270:62|270:62|273:52|273:52|268:41|268:41|267:14,1,94.499997116089,10|0,0:0|0:0,0:0:0:0:
183,79,68571,2,0,B|184:102|184:102|180:111|180:111|184:122|184:122|181:132|181:132|186:143|186:143|187:170,1,94.499997116089,8|0,0:3|0:0,0:0:0:0:
277,193,68832,1,2,0:0:0:0:
183,79,69007,5,8,0:0:0:0:
399,120,69181,1,2,0:0:0:0:
271,274,69355,5,10,0:0:0:0:
176,339,69530,5,8,0:0:0:0:
173,310,69617,1,8,0:0:0:0:
171,281,69704,2,0,B|148:282|148:282|138:279|138:279|128:283|128:283|117:280|117:280|107:286|107:286|80:288,1,94.499997116089,6|4,0:0|0:0,0:0:0:0:
0,280,69966,1,0,0:0:0:0:
0,280,70053,2,0,P|0:303|7:326,2,47.2499985580445,8|0|2,0:0|0:0|0:0,0:0:0:0:
65,154,70402,6,0,L|179:146,1,105,10|0,0:0|0:0,0:0:0:0:
148,49,70664,1,8,0:3:0:0:
148,49,70751,2,0,L|257:57,1,105,0|2,0:0|0:0,0:0:0:0:
324,2,71012,1,2,0:0:0:0:
324,2,71100,5,8,0:0:0:0:
337,30,71187,1,0,0:0:0:0:
341,61,71274,1,2,0:0:0:0:
335,91,71361,1,0,0:0:0:0:
319,118,71449,2,0,P|310:141|312:176,1,52.5,10|0,0:0|0:0,0:0:0:0:
365,264,71623,5,8,0:0:0:0:
367,294,71710,2,0,L|371:357,1,52.5,8|6,0:0|0:0,0:0:0:0:
491,155,71972,6,0,B|438:140|438:140|384:151,1,105,4|8,0:0|0:0,0:0:0:0:
389,149,72233,1,0,0:0:0:0:
389,149,72321,1,2,0:0:0:0:
246,271,72495,6,0,B|230:268|215:272|215:272|196:265|196:265|173:275|140:268,1,94.499997116089,10|0,0:0|0:0,0:0:0:0:
155,192,72757,2,0,B|135:186|112:197|112:197|93:190|93:190|78:193|62:191,1,94.499997116089,8|0,0:3|0:0,0:0:0:0:
0,269,73018,1,2,0:0:0:0:
246,271,73193,5,8,0:0:0:0:
63,192,73367,1,2,0:0:0:0:
237,90,73542,5,10,0:0:0:0:
337,134,73716,5,8,0:0:0:0:
340,105,73803,1,8,0:0:0:0:
343,76,73890,2,0,B|362:70|385:81|385:81|404:74|404:74|419:77|435:75,1,94.499997116089,6|2,0:0|0:0,0:0:0:0:
512,62,74152,1,0,0:0:0:0:
512,62,74239,2,0,P|511:89|500:118,1,47.2499985580445,8|0,0:0|0:0,0:0:0:0:
456,177,74414,1,2,0:0:0:0:
264,232,74588,6,0,L|376:224,1,105,6|0,0:0|0:0,0:0:0:0:
316,321,74852,1,8,0:3:0:0:
316,321,74940,2,0,L|204:313,1,105,0|2,0:0|0:0,0:0:0:0:
140,372,75205,1,0,0:0:0:0:
140,372,75293,5,8,0:0:0:0:
122,342,75382,1,0,0:0:0:0:
120,310,75470,1,2,0:0:0:0:
124,279,75558,1,0,0:0:0:0:
143,253,75646,2,0,P|149:230|146:199,1,52.5,4|0,0:0|0:0,0:0:0:0:
108,101,75823,1,8,0:0:0:0:
81,83,75911,1,8,0:0:0:0:
40,85,75999,6,0,B|38:110|38:110|32:126|32:126|29:186,1,94.499997116089,6|0,0:0|0:0,0:0:0:0:
472,85,76626,2,0,B|473:110|473:110|479:126|479:126|482:186,1,94.499997116089,6|0,0:0|0:0,0:0:0:0:
256,257,77254,2,0,B|256:231|256:231|251:215|251:215|251:163,1,94.499997116089,6|0,0:0|0:0,0:0:0:0:
299,339,77745,6,0,B|258:353|258:353|178:331,1,105,6|0,0:0|0:0,0:0:0:0:
94,300,78060,1,2,0:0:0:0:
164,148,78204,2,0,B|177:202|177:202|165:268,1,115.50000352478,8|0,0:0|0:0,0:0:0:0:
16,184,78513,2,0,B|5:125|5:125|18:71,1,115.50000352478,2|2,0:0|0:0,0:0:0:0:
167,48,78822,5,8,0:0:0:0:
98,206,78976,1,0,0:0:0:0:
253,180,79131,2,0,L|378:186,1,115.50000352478,2|2,0:0|0:0,0:0:0:0:
276,299,79440,5,8,0:0:0:0:
326,100,79595,1,2,0:0:0:0:
276,299,79749,1,8,0:0:0:0:
449,193,79904,1,2,0:0:0:0:
465,69,80213,6,0,B|481:111|481:111|466:195,1,115.50000352478,6|0,0:0|0:0,0:0:0:0:
447,296,80522,1,2,0:0:0:0:
332,208,80676,6,0,B|274:195|274:195|217:207,1,115.50000352478,8|2,0:0|0:0,0:0:0:0:
223,373,80986,2,0,B|277:384|277:384|335:371,1,115.50000352478,2|2,0:0|0:0,0:0:0:0:
335,371,81217,1,0,0:0:0:0:
335,371,81295,1,8,0:0:0:0:
187,290,81449,5,2,0:0:0:0:
4,200,81604,1,2,0:0:0:0:
2,234,81681,1,0,0:0:0:0:
0,268,81758,1,2,0:0:0:0:
163,173,81913,1,8,0:0:0:0:
110,57,82067,2,0,L|106:-9,2,57.7500017623902,2|0|8,0:0|0:0|0:0,0:0:0:0:
121,246,82377,1,2,0:0:0:0:
0,268,82686,6,0,B|59:257|59:257|119:271,1,115.50000352478,6|0,0:0|0:0,0:0:0:0:
271,321,82995,1,2,0:0:0:0:
212,136,83149,2,0,B|199:173|199:173|208:256,1,115.50000352478,8|0,0:0|0:0,0:0:0:0:
347,368,83459,2,0,B|359:330|359:330|350:249,1,115.50000352478,2|2,0:0|0:0,0:0:0:0:
327,105,83768,1,8,0:0:0:0:
207,249,83922,1,0,0:0:0:0:
456,286,84077,6,0,L|443:160,1,115.50000352478,2|2,0:0|0:0,0:0:0:0:
428,8,84386,1,8,0:0:0:0:
339,184,84540,1,2,0:0:0:0:
503,91,84695,1,8,0:0:0:0:
277,37,84850,1,2,0:0:0:0:
145,49,85159,6,0,B|203:35|203:35|269:52,1,115.50000352478,6|0,0:0|0:0,0:0:0:0:
409,103,85468,1,2,0:0:0:0:
320,282,85622,2,0,B|307:222|307:222|316:168,1,115.50000352478,8|2,0:0|0:0,0:0:0:0:
501,171,85931,2,0,B|510:225|510:225|497:284,1,115.50000352478,2|2,0:0|0:0,0:0:0:0:
497,284,86163,1,0,0:0:0:0:
497,284,86241,1,8,0:0:0:0:
409,103,86395,1,2,0:0:0:0:
320,282,86550,6,0,L|324:345,2,57.7500017623902,2|0|2,0:0|0:0|0:0,0:0:0:0:
306,92,86859,1,8,0:0:0:0:
407,285,87013,1,2,0:0:0:0:
223,193,87168,5,8,0:0:0:0:
164,192,87245,1,8,0:0:0:0:
115,224,87323,1,8,0:0:0:0:
92,276,87400,1,8,0:0:0:0:
92,276,87477,1,0,0:0:0:0:
45,360,87632,6,0,B|93:373|93:373|195:348,1,115.50000352478,6|0,0:0|0:0,0:0:0:0:
322,311,87941,1,2,0:0:0:0:
215,77,88095,6,0,L|223:207,1,115.50000352478,8|0,0:0|0:0,0:0:0:0:
423,83,88404,2,0,L|415:213,1,115.50000352478,2|2,0:0|0:0,0:0:0:0:
320,106,88714,1,8,0:0:0:0:
322,311,88868,1,0,0:0:0:0:
164,192,89023,2,0,B|121:181|121:181|38:197,1,115.50000352478,2|2,0:0|0:0,0:0:0:0:
28,201,89255,1,0,0:0:0:0:
5,206,89332,5,8,0:0:0:0:
134,92,89486,1,2,0:0:0:0:
119,310,89641,1,8,0:0:0:0:
227,119,89795,1,2,0:0:0:0:
241,0,90105,6,0,B|257:41|257:41|245:126,1,115.50000352478,6|0,0:0|0:0,0:0:0:0:
212,283,90414,1,2,0:0:0:0:
344,173,90568,2,0,B|402:160|402:160|469:178,1,115.50000352478,8|2,0:0|0:0,0:0:0:0:
456,174,90800,1,0,0:0:0:0:
456,174,90877,1,2,0:0:0:0:
397,57,91032,1,2,0:0:0:0:
406,257,91186,1,8,0:0:0:0:
240,168,91341,1,2,0:0:0:0:
352,332,91496,6,0,B|410:346|410:346|476:326,1,115.50000352478,2|2,0:0|0:0,0:0:0:0:
294,267,91805,2,0,B|236:253|236:253|170:273,1,115.50000352478,8|2,0:0|0:0,0:0:0:0:
161,278,92037,1,0,0:0:0:0:
140,287,92114,1,8,0:0:0:0:
247,83,92268,1,2,0:0:0:0:
368,64,92578,6,0,B|322:48|322:48|244:65,1,115.50000352478,6|0,0:0|0:0,0:0:0:0:
118,98,92887,1,2,0:0:0:0:
27,283,93041,2,0,L|35:164,1,115.50000352478,8|0,0:0|0:0,0:0:0:0:
208,283,93350,2,0,L|200:164,1,115.50000352478,2|2,0:0|0:0,0:0:0:0:
118,310,93659,5,8,0:0:0:0:
281,203,93814,1,0,0:0:0:0:
395,384,93969,2,0,B|410:345|410:345|401:260,1,115.50000352478,2|2,0:0|0:0,0:0:0:0:
398,248,94200,1,0,0:0:0:0:
395,224,94278,1,8,0:0:0:0:
494,359,94432,5,2,0:0:0:0:
324,331,94587,1,8,0:0:0:0:
478,191,94741,1,2,0:0:0:0:
503,92,95060,6,0,B|518:127|518:127|507:209,1,105,6|0,0:0|0:0,0:0:0:0:
494,359,95372,1,2,0:0:0:0:
395,224,95529,2,0,B|343:208|343:208|269:223,1,105,8|2,0:0|0:0,0:0:0:0:
293,218,95763,1,0,0:0:0:0:
293,218,95842,1,2,0:0:0:0:
357,107,95998,1,2,0:0:0:0:
338,299,96155,1,8,0:0:0:0:
202,183,96311,6,0,L|142:174,2,52.5,2|0|2,0:0|0:0|0:0,0:0:0:0:
357,107,96624,2,0,L|417:98,2,52.5,2|0|8,0:0|0:0|0:0,0:0:0:0:
235,285,96937,1,2,0:0:0:0:
256,85,97093,1,8,0:0:0:0:
257,43,97171,1,8,0:0:0:0:
259,0,97250,2,0,B|205:-7|205:-7|129:13,1,105,8|0,0:0|0:0,0:0:0:0:
164,273,97563,5,6,0:0:0:0:
164,273,97730,1,0,0:0:0:0:
235,285,97898,5,0,0:0:0:0:
235,285,98066,1,0,0:0:0:0:
290,238,98234,1,0,0:0:0:0:
293,163,98401,1,0,0:0:0:0:
309,318,98737,5,0,0:0:0:0:
392,280,99240,5,0,0:0:0:0:
309,318,99408,1,0,0:0:0:0:
375,371,99576,2,0,P|404:377|434:374,2,36.749998878479,0|0|0,0:0|0:0|0:0,0:0:0:0:
309,318,99911,1,0,0:0:0:0:
486,320,100247,6,0,B|494:283|494:283|486:249,1,73.4999977569581,0|0,0:0|0:0,0:0:0:0:
456,181,100574,5,0,0:0:0:0:
456,181,100738,1,0,0:0:0:0:
376,165,100902,1,0,0:0:0:0:
306,206,101065,1,0,0:0:0:0:
431,99,101393,5,0,0:0:0:0:
389,264,101557,1,0,0:0:0:0:
328,100,101721,6,0,B|290:80|247:98|247:98|202:116|158:88,1,157.499995193482,0|0,0:0|0:0,0:0:0:0:
160,87,102218,1,0,0:0:0:0:
93,233,102384,2,0,L|90:134,1,94.499997116089,0|0,0:0|0:0,0:0:0:0:
89,120,102716,1,0,0:0:0:0:
168,271,102867,6,0,L|170:365,1,73.4999977569581,2|0,0:0|0:0,0:0:0:0:
240,220,103193,1,2,0:0:0:0:
164,187,103356,1,2,0:0:0:0:
93,233,103519,1,2,0:0:0:0:
88,256,103683,1,0,0:0:0:0:
89,120,103846,5,2,0:0:0:0:
88,256,104009,1,2,0:0:0:0:
146,61,104499,6,0,P|155:46|160:22,2,36.749998878479,0|0|2,0:0|0:0|0:0,0:0:0:0:
89,120,104825,1,0,0:0:0:0:
33,64,104988,2,0,P|26:46|25:28,1,36.749998878479,0|0,0:0|0:0,0:0:0:0:
13,142,105152,6,0,L|9:235,1,73.4999977569581,0|0,0:0|0:0,0:0:0:0:
0,299,105478,2,0,B|38:292|38:292|87:305,1,73.4999977569581,2|0,0:0|0:0,0:0:0:0:
130,344,105808,1,2,0:0:0:0:
194,379,105973,1,2,0:0:0:0:
266,371,106137,1,2,0:0:0:0:
313,314,106302,1,0,0:0:0:0:
310,287,106467,1,2,0:0:0:0:
447,344,106631,5,2,0:0:0:0:
310,287,106796,1,0,0:0:0:0:
421,214,106961,6,0,B|441:184|442:151|420:122|420:122|403:139|408:159,1,125.999996154785,0|2,0:0|0:0,0:0:0:0:
505,119,107455,1,2,0:0:0:0:
342,100,107619,5,2,0:0:0:0:
315,104,107784,1,2,0:0:0:0:
435,13,107949,5,0,0:0:0:0:
315,104,108113,1,0,0:0:0:0:
236,66,108278,6,0,P|227:107|246:160,1,84,6|2,0:0|0:0,0:0:0:0:
275,255,108608,2,0,P|243:226|187:216,1,84,2|2,0:0|0:0,0:0:0:0:
81,208,108938,6,0,P|76:251|77:301,2,84,8|0|2,0:0|0:0|0:0,0:0:0:0:
147,152,109433,1,0,0:0:0:0:
107,16,109598,6,0,P|75:7|23:20,1,84,2|0,0:0|0:0,0:0:0:0:
165,72,109928,2,0,P|197:81|249:68,1,84,2|0,0:0|0:0,0:0:0:0:
347,1,110258,1,8,0:0:0:0:
445,69,110423,2,0,P|465:75|493:74,2,42,2|0|0,0:0|0:0|0:0,0:0:0:0:
341,84,110753,6,0,P|336:122|351:172,1,84,2|0,0:0|0:0,0:0:0:0:
296,229,111083,2,0,P|326:252|377:264,1,84,2|2,0:0|0:0,0:0:0:0:
445,196,111413,1,2,0:0:0:0:
259,155,111578,6,0,P|215:150|173:155,1,84,8|0,0:0|0:0,0:0:0:0:
9,155,111908,2,0,P|53:150|95:155,1,84,2|0,0:0|0:0,0:0:0:0:
133,235,112238,1,2,0:0:0:0:
134,78,112403,1,2,0:0:0:0:
133,53,112568,1,2,0:0:0:0:
57,77,112733,1,0,0:0:0:0:
221,31,112898,6,0,P|262:26|307:44,1,84,8|2,0:0|0:0,0:0:0:0:
308,45,113145,1,0,0:0:0:0:
314,50,113228,1,0,0:0:0:0:
422,10,113393,1,2,0:0:0:0:
379,136,113558,1,0,0:0:0:0:
481,107,113723,1,2,0:0:0:0:
451,200,113888,6,0,P|448:242|454:290,1,84,2|2,0:0|0:0,0:0:0:0:
481,370,114218,2,0,P|443:357|394:368,1,84,8|0,0:0|0:0,0:0:0:0:
367,284,114548,2,0,P|327:291|290:325,1,84,2|0,0:0|0:0,0:0:0:0:
225,266,114878,1,2,0:0:0:0:
327,384,115043,1,0,0:0:0:0:
136,384,115208,2,0,P|135:337|146:276,1,84,2|0,0:0|0:0,0:0:0:0:
177,161,115538,1,8,0:0:0:0:
94,210,115703,2,0,P|68:214|40:209,2,42,2|0|0,0:0|0:0|0:0,0:0:0:0:
177,161,116033,6,0,P|172:116|145:81,1,84,2|0,0:0|0:0,0:0:0:0:
205,16,116363,2,0,P|246:34|290:28,1,84,2|2,0:0|0:0,0:0:0:0:
384,0,116693,1,2,0:0:0:0:
370,110,116858,1,8,0:0:0:0:
495,80,117023,1,2,0:0:0:0:
509,213,117188,1,2,0:0:0:0:
370,110,117353,1,2,0:0:0:0:
357,226,117518,6,0,P|353:267|362:324,1,84,2|2,0:0|0:0,0:0:0:0:
381,383,117848,1,2,0:0:0:0:
500,299,118013,1,2,0:0:0:0:
302,364,118178,2,0,P|253:367|210:360,1,84,8|2,0:0|0:0,0:0:0:0:
94,343,118509,1,2,0:0:0:0:
171,241,118674,5,2,0:0:0:0:
171,231,118756,1,0,0:0:0:0:
171,222,118839,2,0,P|173:175|169:127,2,84,0|2|2,0:0|0:0|0:0,0:0:0:0:
92,261,119334,1,2,0:0:0:0:
13,340,119499,6,0,P|52:351|93:342,1,84,8|0,0:0|0:0,0:0:0:0:
169,306,119829,2,0,P|209:296|249:308,1,84,2|0,0:0|0:0,0:0:0:0:
337,362,120159,1,2,0:0:0:0:
453,306,120324,2,0,P|460:323|464:350,2,42,0|0|2,0:0|0:0|0:0,0:0:0:0:
362,268,120654,1,0,0:0:0:0:
480,182,120819,6,0,P|442:169|395:179,1,84,8|2,0:0|0:0,0:0:0:0:
287,216,121149,1,2,0:0:0:0:
322,118,121314,2,0,P|326:70|322:29,2,84,2|0|2,0:0|0:0|0:0,0:0:0:0:
287,216,121809,2,0,P|244:228|191:211,1,84,2|2,0:0|0:0,0:0:0:0:
155,90,122139,2,0,P|197:73|251:86,1,84,8|0,0:0|0:0,0:0:0:0:
322,118,122469,2,0,P|373:122|423:114,1,84,2|0,0:0|0:0,0:0:0:0:
483,73,122799,6,0,P|495:110|481:169,1,84,2|0,0:0|0:0,0:0:0:0:
512,226,123129,2,0,P|485:254|427:272,1,84,2|0,0:0|0:0,0:0:0:0:
318,339,123459,2,0,P|313:363|316:387,2,42,8|0|2,0:0|0:0|0:0,0:0:0:0:
364,274,123789,1,2,0:0:0:0:
235,351,123954,2,0,P|188:355|131:344,1,84,2|0,0:0|0:0,0:0:0:0:
52,316,124284,1,2,0:0:0:0:
128,247,124449,1,2,0:0:0:0:
151,350,124614,1,2,0:0:0:0:
209,246,124779,6,0,P|204:215|169:176,1,84,8|0,0:0|0:0,0:0:0:0:
109,88,125109,2,0,P|138:99|189:88,1,84,2|0,0:0|0:0,0:0:0:0:
288,44,125439,1,2,0:0:0:0:
360,113,125604,2,0,P|364:138|362:166,2,42,0|0|2,0:0|0:0|0:0,0:0:0:0:
414,32,125934,1,0,0:0:0:0:
475,135,126099,6,0,P|481:178|458:228,1,84,8|2,0:0|0:0,0:0:0:0:
507,288,126429,2,0,P|472:314|417:319,1,84,0|2,0:0|0:0,0:0:0:0:
336,330,126759,1,0,0:0:0:0:
353,229,126924,1,2,0:0:0:0:
219,256,127089,5,2,0:0:0:0:
353,229,127254,1,2,0:0:0:0:
252,337,127419,1,8,0:0:0:0:
277,184,127584,1,2,0:0:0:0:
405,291,127749,1,2,0:0:0:0:
219,256,127914,1,2,0:0:0:0:
317,113,128079,6,0,P|282:103|232:115,1,84,2|2,0:0|0:0,0:0:0:0:
225,118,128327,1,0,0:0:0:0:
216,127,128410,1,2,0:0:0:0:
144,59,128575,1,2,0:0:0:0:
60,154,128740,5,8,0:0:0:0:
71,153,128822,1,0,0:0:0:0:
83,152,128905,1,2,0:0:0:0:
95,152,128987,1,0,0:0:0:0:
107,151,129070,1,2,0:0:0:0:
119,150,129152,1,0,0:0:0:0:
131,150,129235,1,6,0:0:0:0:
193,284,129402,6,0,L|195:346,2,62.9999980773926,0|0|8,0:0|0:0|0:0,0:0:0:0:
187,204,129913,1,0,0:0:0:0:
265,227,130083,1,8,0:0:0:0:
344,205,130253,1,0,0:0:0:0:
385,134,130424,1,8,0:0:0:0:
401,266,130594,1,8,0:0:0:0:
301,129,130764,5,8,0:0:0:0:
442,193,130935,1,0,0:0:0:0:
323,288,131105,2,0,L|321:330,2,31.4999990386963,8|0|0,0:0|0:0|0:0,0:0:0:0:
233,222,131446,5,8,0:0:0:0:
214,218,131531,1,0,0:0:0:0:
195,218,131616,1,0,0:0:0:0:
176,224,131701,1,0,0:0:0:0:
159,233,131787,1,8,0:0:0:0:
207,311,131957,1,8,0:0:0:0:
79,249,132127,6,0,P|75:227|80:197,3,31.4999990386963,8|0|0|0,0:0|0:0|0:0|0:0,0:0:0:0:
133,157,132468,2,0,P|150:142|178:131,3,31.4999990386963,8|0|0|0,0:0|0:0|0:0|0:0,0:0:0:0:
239,157,132809,2,0,P|260:164|283:183,3,31.4999990386963,8|0|0|0,0:0|0:0|0:0|0:0,0:0:0:0:
292,249,133149,2,0,P|296:271|291:301,3,31.4999990386963,8|8|8|8,0:0|0:0|0:0|0:0,0:0:0:0:
356,190,133490,6,0,L|400:182,3,31.4999990386963,8|0|0|0,0:0|0:0|0:0|0:0,0:0:0:0:
451,282,133831,2,0,L|481:287,3,31.4999990386963,8|0|0|0,0:0|0:0|0:0|0:0,0:0:0:0:
464,170,134172,5,8,0:0:0:0:
375,266,134342,1,8,0:0:0:0:
278,172,134512,1,8,0:0:0:0:
356,190,134683,1,8,0:0:0:0:
199,137,134853,5,8,0:0:0:0:
194,155,134938,1,0,0:0:0:0:
191,173,135023,1,0,0:0:0:0:
194,191,135108,1,0,0:0:0:0:
202,208,135194,5,8,0:0:0:0:
120,214,135364,1,0,0:0:0:0:
72,281,135534,1,8,0:0:0:0:
82,361,135705,1,0,0:0:0:0:
173,308,135875,5,8,0:0:0:0:
7,329,136045,1,8,0:0:0:0:
39,202,136216,5,8,0:0:0:0:
39,183,136301,1,0,0:0:0:0:
39,164,136386,1,0,0:0:0:0:
40,145,136471,1,0,0:0:0:0:
41,125,136557,1,8,0:0:0:0:
120,214,136727,1,0,0:0:0:0:
173,95,136897,1,8,0:0:0:0:
41,125,137068,5,0,0:0:0:0:
196,178,137238,1,8,0:0:0:0:
94,57,137408,1,8,0:0:0:0:
251,118,137579,6,0,P|271:108|282:94,3,31.4999990386963,8|0|8|0,0:0|0:0|0:0|0:0,0:0:0:0:
331,168,137919,2,0,P|343:149|345:131,3,31.4999990386963,8|0|8|0,0:0|0:0|0:0|0:0,0:0:0:0:
425,171,138260,2,0,P|426:148|419:132,3,31.4999990386963,8|0|8|0,0:0|0:0|0:0|0:0,0:0:0:0:
507,126,138601,2,0,P|497:105|483:94,3,31.4999990386963,8|0|8|0,0:0|0:0|0:0|0:0,0:0:0:0:
418,59,138942,6,0,L|421:14,3,31.4999990386963,8|0|8|0,0:0|0:0|0:0|0:0,0:0:0:0:
497,204,139282,2,0,L|500:249,3,31.4999990386963,8|0|8|8,0:0|0:0|0:0|0:0,0:0:0:0:
378,242,139623,1,8,0:0:0:0:
361,251,139708,1,0,0:0:0:0:
342,255,139793,1,8,0:0:0:0:
323,257,139879,1,0,0:0:0:0:
304,254,139964,2,0,P|273:241|251:217,1,62.9999980773926,8|8,0:0|0:0,0:0:0:0:
254,99,140304,6,0,B|215:88|215:88|157:98,1,73.4999977569581,8|0,0:0|0:0,0:0:0:0:
168,98,140560,1,0,0:0:0:0:
154,103,140645,1,8,0:0:0:0:
31,53,140815,2,0,L|28:7,2,36.749998878479,0|0|8,0:0|0:0|0:0,0:0:0:0:
31,67,141071,1,0,0:0:0:0:
32,81,141156,1,8,0:0:0:0:
25,184,141327,2,8,B|72:175|72:175|142:201,1,110.249996635437,8|0,0:0|0:0,0:0:0:0:
156,209,141667,6,8,L|158:289,1,73.4999977569581,8|0,0:0|0:0,0:0:0:0:
160,312,141923,1,0,0:0:0:0:
162,341,142008,1,8,0:0:0:0:
68,260,142178,1,0,0:0:0:0:
256,318,142349,6,0,P|281:320|309:313,1,36.749998878479,8|0,0:0|0:0,0:0:0:0:
367,339,142519,2,0,P|381:318|389:290,1,36.749998878479,8|0,0:0|0:0,0:0:0:0:
440,254,142689,1,8,0:0:0:0:
460,359,142860,1,0,0:0:0:0:
471,167,143030,6,0,B|435:158|435:158|379:170,1,73.4999977569581,8|8,0:0|0:0,0:0:0:0:
385,169,143286,1,0,0:0:0:0:
371,173,143371,1,8,0:0:0:0:
267,96,143541,2,0,L|265:54,2,36.749998878479,8|0|8,0:0|0:0|0:0,0:0:0:0:
268,110,143797,1,0,0:0:0:0:
269,124,143882,1,8,0:0:0:0:
162,217,144052,2,0,B|206:233|206:233|279:216,1,110.249996635437,8|0,0:0|0:0,0:0:0:0:
290,214,144393,6,0,L|288:297,1,73.4999977569581,8|8,0:0|0:0,0:0:0:0:
287,316,144649,1,0,0:0:0:0:
286,345,144734,1,8,0:0:0:0:
377,305,144904,1,8,0:0:0:0:
205,364,145074,6,0,P|180:362|157:348,1,36.749998878479,8|0,0:0|0:0,0:0:0:0:
89,349,145245,2,8,P|78:326|78:299,1,36.749998878479,8|0,0:0|0:0,0:0:0:0:
43,241,145415,1,8,0:0:0:0:
3,360,145585,1,8,0:0:0:0:
128,248,145756,5,8,0:0:0:0:
142,244,145841,1,0,0:0:0:0:
156,243,145926,1,0,0:0:0:0:
170,245,146011,1,0,0:0:0:0:
183,251,146097,1,8,0:0:0:0:
196,257,146182,1,0,0:0:0:0:
210,259,146267,1,0,0:0:0:0:
224,258,146352,1,0,0:0:0:0:
238,255,146437,6,0,L|241:198,1,36.749998878479,8|0,0:0|0:0,0:0:0:0:
244,128,146608,1,8,0:0:0:0:
339,184,146778,2,0,B|381:198|381:198|466:181,1,110.249996635437,8|0,0:0|0:0,0:0:0:0:
470,178,147119,2,0,L|466:92,1,73.4999977569581,8|0,0:0|0:0,0:0:0:0:
465,89,147374,1,0,0:0:0:0:
464,74,147459,1,8,0:0:0:0:
335,28,147630,1,0,0:0:0:0:
244,128,147800,5,8,0:0:0:0:
216,139,147885,1,0,0:0:0:0:
187,144,147970,1,8,0:0:0:0:
158,137,148056,1,0,0:0:0:0:
131,123,148141,1,8,0:0:0:0:
104,109,148226,1,0,0:0:0:0:
75,102,148311,1,0,0:0:0:0:
46,107,148396,1,0,0:0:0:0:
19,117,148482,6,0,L|16:187,3,42,8|0|0|0,0:0|0:0|0:0|0:0,0:0:0:0:
13,236,148822,2,0,L|10:306,3,42,8|0|0|0,0:0|0:0|0:0|0:0,0:0:0:0:
95,201,149163,2,0,L|98:271,3,42,8|0|8|0,0:0|0:0|0:0|0:0,0:0:0:0:
103,343,149504,2,0,L|106:413,3,42,8|0|0|0,0:0|0:0|0:0|0:0,0:0:0:0:
195,269,149844,5,8,0:0:0:0:
213,264,149930,1,0,0:0:0:0:
231,262,150015,1,0,0:0:0:0:
249,265,150100,1,0,0:0:0:0:
265,273,150185,1,8,0:0:0:0:
281,282,150270,1,8,0:0:0:0:
292,296,150356,1,8,0:0:0:0:
301,312,150441,1,8,0:0:0:0:
305,330,150526,5,8,0:0:0:0:
343,303,150611,1,8,0:0:0:0:
388,293,150696,1,8,0:0:0:0:
435,305,150781,1,8,0:0:0:0:
466,339,150867,1,8,0:0:0:0:
470,287,150952,1,8,0:0:0:0:
475,235,151037,1,8,0:0:0:0:
478,183,151122,1,8,0:0:0:0:
481,132,151207,6,0,L|485:72,1,57.7500017623902,8|8,0:0|0:0,0:0:0:0:
392,181,151378,5,6,0:0:0:0:
392,214,151548,1,6,0:0:0:0:
355,110,151718,6,0,L|359:50,1,57.7500017623902,8|8,0:0|0:0,0:0:0:0:
267,157,151889,5,6,0:0:0:0:
267,190,152059,1,6,0:0:0:0:
229,88,152229,6,0,L|233:28,1,57.7500017623902,8|8,0:0|0:0,0:0:0:0:
141,135,152400,5,6,0:0:0:0:
141,168,152570,1,6,0:0:0:0:
103,66,152741,6,0,L|107:6,1,57.7500017623902,8|8,0:0|0:0,0:0:0:0:
15,113,152911,5,6,0:0:0:0:
15,146,153081,1,6,0:0:0:0:
0,303,153252,5,8,0:0:0:0:
31,339,153337,1,8,0:0:0:0:
77,349,153422,1,8,0:0:0:0:
123,334,153507,1,8,0:0:0:0:
145,295,153592,1,8,0:3:0:0:
136,276,153677,1,8,0:3:0:0:
116,263,153763,1,2,0:3:0:0:
95,260,153848,1,2,0:3:0:0:
70,264,153933,6,0,L|74:201,1,57.7500017623902,8|8,0:0|0:0,0:0:0:0:
79,114,154103,5,6,0:0:0:0:
80,82,154274,1,6,0:0:0:0:
202,38,154444,6,0,L|198:101,1,57.7500017623902,8|8,0:0|0:0,0:0:0:0:
193,188,154614,5,6,0:0:0:0:
192,220,154785,1,6,0:0:0:0:
309,278,154955,6,0,L|311:214,1,57.7500017623902,8|8,0:0|0:0,0:0:0:0:
315,128,155126,5,6,0:0:0:0:
318,95,155296,1,6,0:0:0:0:
439,49,155466,6,0,L|435:106,1,57.7500017623902,8|8,0:0|0:0,0:0:0:0:
429,199,155637,5,6,0:0:0:0:
429,232,155807,1,6,0:0:0:0:
390,350,155977,5,8,0:0:0:0:
352,320,156062,1,8,0:0:0:0:
307,307,156148,1,8,0:0:0:0:
261,311,156233,1,8,0:0:0:0:
219,330,156318,1,8,0:3:0:0:
195,339,156403,1,8,0:3:0:0:
171,341,156488,1,2,0:3:0:0:
147,335,156574,1,2,0:3:0:0:
126,318,156659,6,0,P|110:292|106:262,1,57.7500017623902,8|8,0:0|0:0,0:0:0:0:
108,130,156829,5,6,0:0:0:0:
119,97,156999,1,6,0:0:0:0:
189,253,157170,6,0,P|205:227|209:197,1,57.7500017623902,8|8,0:0|0:0,0:0:0:0:
207,65,157340,5,6,0:0:0:0:
196,32,157511,1,6,0:0:0:0:
323,253,157681,6,0,P|307:227|303:197,1,57.7500017623902,8|8,0:0|0:0,0:0:0:0:
305,65,157851,5,6,0:0:0:0:
316,32,158022,1,6,0:0:0:0:
386,318,158192,6,0,P|402:292|406:262,1,57.7500017623902,8|8,0:0|0:0,0:0:0:0:
404,130,158362,5,6,0:0:0:0:
393,97,158533,1,6,0:0:0:0:
244,261,158703,5,8,0:0:0:0:
205,234,158788,1,8,0:0:0:0:
193,189,158873,1,8,0:0:0:0:
213,147,158959,1,8,0:0:0:0:
233,134,159044,1,8,0:3:0:0:
256,134,159129,1,8,0:3:0:0:
276,145,159214,1,2,0:3:0:0:
287,161,159299,1,2,0:3:0:0:
280,182,159384,6,0,L|362:185,1,57.7500017623902,8|8,0:0|0:0,0:0:0:0:
489,191,159555,5,6,0:0:0:0:
512,193,159725,1,6,0:0:0:0:
223,260,159896,6,0,L|305:263,1,57.7500017623902,8|8,0:0|0:0,0:0:0:0:
432,269,160066,5,6,0:0:0:0:
455,271,160236,1,6,0:0:0:0:
272,104,160407,6,0,L|354:101,1,57.7500017623902,8|8,0:0|0:0,0:0:0:0:
481,95,160577,5,6,0:0:0:0:
504,93,160747,1,6,0:0:0:0:
215,26,160918,6,0,L|297:23,1,57.7500017623902,8|8,0:0|0:0,0:0:0:0:
424,17,161088,5,6,0:0:0:0:
447,15,161258,1,6,0:0:0:0:
272,104,161429,5,8,0:0:0:0:
269,150,161514,1,8,0:0:0:0:
267,196,161599,1,8,0:0:0:0:
263,242,161684,1,8,0:0:0:0:
320,228,161769,5,8,0:3:0:0:
321,251,161855,1,8,0:3:0:0:
322,274,161940,1,2,0:3:0:0:
324,297,162025,1,2,0:3:0:0:
323,322,162110,6,0,P|286:333|260:329,1,57.7500017623902,8|8,0:0|0:0,0:0:0:0:
115,250,162281,5,6,0:0:0:0:
94,230,162451,1,6,0:0:0:0:
229,127,162621,6,0,P|192:116|166:120,1,57.7500017623902,8|8,0:0|0:0,0:0:0:0:
21,199,162792,5,6,0:0:0:0:
0,219,162962,1,6,0:0:0:0:
9,359,163132,6,0,P|-2:322|2:296,1,57.7500017623902,8|8,0:0|0:0,0:0:0:0:
81,151,163303,5,6,0:0:0:0:
101,130,163473,1,6,0:0:0:0:
22,22,163643,6,0,P|11:59|15:85,1,57.7500017623902,8|8,0:0|0:0,0:0:0:0:
94,230,163814,5,6,0:0:0:0:
114,251,163984,1,6,0:0:0:0:
229,127,164154,5,8,0:0:0:0:
265,98,164240,1,8,0:0:0:0:
310,91,164325,1,8,0:0:0:0:
352,109,164410,1,8,0:0:0:0:
381,144,164495,5,8,0:3:0:0:
383,166,164580,1,8,0:3:0:0:
384,189,164666,1,2,0:3:0:0:
385,212,164751,1,2,0:3:0:0:
385,235,164836,6,0,L|388:308,1,57.7500017623902,8|8,0:0|0:0,0:0:0:0:
472,131,165006,5,6,0:0:0:0:
471,101,165177,1,6,0:0:0:0:
298,184,165347,6,0,L|295:257,1,57.7500017623902,8|8,0:0|0:0,0:0:0:0:
211,80,165517,5,6,0:0:0:0:
212,50,165688,1,6,0:0:0:0:
126,237,165858,6,0,L|123:310,1,57.7500017623902,8|8,0:0|0:0,0:0:0:0:
39,133,166028,5,6,0:0:0:0:
40,103,166199,1,6,0:0:0:0:
213,186,166369,6,0,L|216:259,1,57.7500017623902,8|8,0:0|0:0,0:0:0:0:
300,82,166539,5,6,0:0:0:0:
299,52,166710,1,6,0:0:0:0:
394,262,166880,5,8,0:0:0:0:
438,272,166965,1,8,0:0:0:0:
481,254,167051,1,8,0:0:0:0:
512,216,167136,1,8,0:0:0:0:
507,171,167221,1,8,0:3:0:0:
489,160,167306,1,8,0:3:0:0:
465,161,167391,1,2,0:3:0:0:
446,171,167476,1,2,0:3:0:0:
426,186,167562,6,0,P|396:186|366:178,1,57.7500017623902,8|8,0:0|0:0,0:0:0:0:
207,88,167732,5,6,0:0:0:0:
185,62,167902,1,6,0:0:0:0:
382,93,168073,6,0,P|352:93|322:101,1,57.7500017623902,8|8,0:0|0:0,0:0:0:0:
163,191,168243,5,6,0:0:0:0:
141,217,168413,1,6,0:0:0:0:
382,289,168584,6,0,P|352:289|322:281,1,57.7500017623902,8|8,0:0|0:0,0:0:0:0:
163,191,168754,5,6,0:0:0:0:
141,165,168924,1,6,0:0:0:0:
338,196,169095,6,0,P|308:196|278:204,1,57.7500017623902,8|8,0:0|0:0,0:0:0:0:
119,294,169265,5,6,0:0:0:0:
97,320,169436,1,6,0:0:0:0:
212,294,169606,5,8,0:0:0:0:
254,277,169691,1,8,0:0:0:0:
300,276,169776,1,8,0:0:0:0:
342,292,169861,1,8,0:0:0:0:
371,328,169947,1,8,0:3:0:0:
392,336,170032,1,8,0:3:0:0:
415,337,170117,1,2,0:3:0:0:
436,329,170202,1,2,0:3:0:0:
458,312,170287,6,0,L|461:224,1,57.7500017623902,8|8,0:0|0:0,0:0:0:0:
467,66,170458,5,6,0:0:0:0:
468,34,170628,1,6,0:0:0:0:
342,292,170798,6,0,L|341:203,1,57.7500017623902,8|8,0:0|0:0,0:0:0:0:
344,46,170969,5,6,0:0:0:0:
343,14,171139,1,6,0:0:0:0:
170,292,171310,6,0,L|170:203,1,57.7500017623902,8|8,0:0|0:0,0:0:0:0:
168,46,171480,5,6,0:0:0:0:
169,14,171650,1,6,0:0:0:0:
54,312,171821,6,0,L|51:224,1,57.7500017623902,8|8,0:0|0:0,0:0:0:0:
45,66,171991,5,6,0:0:0:0:
44,34,172161,1,6,0:0:0:0:
231,241,172332,5,8,0:0:0:0:
284,241,172417,1,8,0:0:0:0:
324,207,172502,1,8,0:3:0:0:
333,155,172587,1,8,0:3:0:0:
307,110,172672,1,2,0:3:0:0:
269,92,172758,1,2,0:3:0:0:
228,97,172843,1,4,0:3:0:0:
195,122,172928,1,4,0:3:0:0:
183,161,173013,1,6,0:3:0:0:
236,231,175057,5,8,0:0:0:0:
278,231,175143,1,8,0:0:0:0:
310,204,175228,1,8,0:3:0:0:
317,162,175313,1,8,0:3:0:0:
296,126,175398,1,2,0:3:0:0:
266,112,175483,1,2,0:3:0:0:
233,116,175568,1,4,0:3:0:0:
207,136,175654,1,4,0:3:0:0:
197,167,175739,1,6,0:3:0:0:
240,223,177783,5,8,0:0:0:0:
273,223,177868,1,8,0:0:0:0:
299,201,177953,1,8,0:3:0:0:
305,168,178039,1,8,0:3:0:0:
288,139,178124,1,2,0:3:0:0:
264,128,178209,1,2,0:3:0:0:
238,131,178294,1,4,0:3:0:0:
216,147,178379,1,4,0:3:0:0:
209,172,178465,1,6,0:3:0:0:
243,217,180509,5,8,0:0:0:0:
270,217,180594,1,8,0:0:0:0:
290,199,180679,1,8,0:3:0:0:
295,173,180764,1,8,0:3:0:0:
282,150,180850,1,2,0:3:0:0:
262,140,180935,1,2,0:3:0:0:
241,143,181020,1,4,0:3:0:0:
224,156,181105,1,4,0:3:0:0:
218,176,181190,1,6,0:3:0:0:
256,192,183235,12,0,191241,0:0:0:0:
