osu file format v14

[General]
AudioFilename: audio.mp3
AudioLeadIn: 0
PreviewTime: 6923
Countdown: 0
SampleSet: Soft
StackLeniency: 0.4
Mode: 0
LetterboxInBreaks: 0
WidescreenStoryboard: 1

[Editor]
DistanceSpacing: 0.9
BeatDivisor: 4
GridSize: 8
TimelineZoom: 2.3

[Metadata]
Title:Tree Village
TitleUnicode:Tree Village
Artist:Dance Gavin Dance
ArtistUnicode:Dance Gavin Dance
Creator:Dilectus
Version:Minorsonek's Easy
Source:
Tags:happiness post hardcore progressive screamo minorsonek waku c00l cool rvmathew davided jenhideo osatia
BeatmapID:1688908
BeatmapSetID:703666

[Difficulty]
HPDrainRate:2
CircleSize:3
OverallDifficulty:2
ApproachRate:3
SliderMultiplier:0.799999999999999
SliderTickRate:1

[Events]
//Background and Video events
0,0,"bg.jpg",0,0
//Break Periods
2,97763,106838
2,129599,138864
//Storyboard Layer 0 (Background)
//Storyboard Layer 1 (Fail)
//Storyboard Layer 2 (Pass)
//Storyboard Layer 3 (Foreground)
//Storyboard Sound Samples

[TimingPoints]
9092,361.44578313253,3,2,5,60,1,0
9092,-100,4,2,5,60,0,0
26449,348.837209302326,3,2,1,80,1,0
26449,-103.092783505155,4,2,1,80,0,0
43193,-103.092783505155,4,2,1,70,0,0
60983,-103.092783505155,4,2,5,60,0,0
61681,-103.092783505155,4,2,1,70,0,0
62030,-103.092783505155,4,2,5,70,0,0
62728,-103.092783505155,4,2,1,70,0,0
63076,-103.092783505155,4,2,5,70,0,0
63774,-103.092783505155,4,2,1,70,0,0
64123,-103.092783505155,4,2,5,70,0,0
64472,-103.092783505155,4,2,1,70,0,0
65169,-103.092783505155,4,2,5,60,0,0
65867,-103.092783505155,4,2,1,70,0,0
66914,-103.092783505155,4,2,1,70,0,0
67262,-103.092783505155,4,2,5,70,0,0
67960,-103.092783505155,4,2,1,70,0,0
68309,-103.092783505155,4,2,5,70,0,0
68658,-103.092783505155,4,2,1,70,0,0
69355,-103.092783505155,4,2,5,70,0,0
70053,-103.092783505155,4,2,1,70,0,0
70402,-103.092783505155,4,2,5,70,0,0
71100,-103.092783505155,4,2,1,70,0,0
71449,-103.092783505155,4,2,5,70,0,0
72146,-103.092783505155,4,2,1,70,0,0
72495,-103.092783505155,4,2,5,70,0,0
72844,-103.092783505155,4,2,1,70,0,0
73542,-103.092783505155,4,2,5,60,0,0
74239,-103.092783505155,4,2,1,70,0,0
74588,352.941176470588,3,2,1,70,1,0
75293,-100,3,2,1,70,0,0
75646,-100,3,2,5,70,0,0
75999,313.971742543171,4,2,1,80,1,0
75999,-103.092783505155,4,2,1,80,0,0
77745,314.96062992126,4,2,1,80,1,0
78060,309.597523219814,4,2,1,80,1,0
78204,309.119010819165,4,2,1,80,1,0
78204,-103.092783505155,4,2,1,80,0,0
95060,312.880829015544,4,2,1,80,1,0
95060,-103.092783505155,4,2,1,80,0,0
97563,335.570469798658,4,2,1,80,1,0
100247,327.510917030568,4,2,1,80,1,0
101721,331.858407079646,4,2,1,60,1,0
102867,326.441784548422,4,2,1,60,1,0
105644,329.308452250274,4,2,1,60,1,0
108278,330.03300330033,4,2,1,70,1,0
129402,340.715502555366,4,2,1,60,1,0
129402,-103.092783505155,4,2,1,60,0,0
150526,-103.092783505155,4,2,1,70,0,0
150867,-103.092783505155,4,2,1,80,0,0
151207,-103.092783505155,4,2,1,90,0,1
173013,-103.092783505155,4,2,1,80,0,0
177783,-103.092783505155,4,2,1,70,0,0
180509,-103.092783505155,4,2,1,60,0,0

[Colours]
Combo1 : 122,126,105
Combo2 : 108,131,181
Combo3 : 189,187,201
Combo4 : 189,144,84

[HitObjects]
87,75,9092,6,0,B|144:104|203:75|203:75|260:45|318:75,1,240,10|2,0:0|0:0,0:0:0:0:
375,129,10537,2,0,L|367:216,1,79.9999999999999,0|2,0:0|0:0,0:0:0:0:
315,265,11260,1,2,0:0:0:0:
81,320,12345,6,0,P|51:243|90:171,1,160,2|2,0:0|0:0,0:0:0:0:
146,128,13429,1,10,0:0:0:0:
140,247,13971,1,2,0:0:0:0:
231,324,14513,2,0,L|244:164,1,160,2|2,0:0|0:0,0:0:0:0:
253,85,15598,1,2,0:0:0:0:
452,218,16682,6,0,P|460:293|403:351,1,160,2|2,0:0|0:0,0:0:0:0:
331,318,17766,2,0,L|171:331,1,160,2|0,0:0|0:0,0:0:0:0:
103,289,18851,2,0,P|73:212|112:140,1,160,2|0,0:0|0:0,0:0:0:0:
165,94,19935,1,2,0:0:0:0:
244,320,21019,6,0,P|321:350|393:311,1,160,2|2,0:0|0:0,0:0:0:0:
427,249,22104,1,10,0:0:0:0:
448,131,22646,1,2,0:0:0:0:
358,50,23188,2,0,L|198:63,1,160,2|0,0:0|0:0,0:0:0:0:
119,74,24272,1,2,0:0:0:0:
3,284,25357,5,4,0:0:0:0:
119,74,26449,6,0,L|211:82,1,77.6000018353271,6|8,0:0|0:0,0:0:0:0:
246,140,27146,1,8,0:0:0:0:
295,199,27495,2,0,L|372:205,2,77.6000018353271,2|8|8,0:0|0:0|0:0,0:0:0:0:
219,216,28542,6,0,L|212:293,1,77.6000018353271,2|8,0:0|0:0,0:0:0:0:
155,346,29239,1,8,0:0:0:0:
99,291,29588,2,0,L|92:213,2,77.6000018353271,2|8|8,0:0|0:0|0:0,0:0:0:0:
52,353,30635,6,0,P|31:328|22:284,1,77.6000018353271,2|8,0:0|0:0,0:0:0:0:
15,207,31332,1,8,0:0:0:0:
56,141,31681,2,0,P|81:120|125:111,2,77.6000018353271,2|8|8,0:0|0:0|0:0,0:0:0:0:
117,188,32728,6,0,P|141:217|177:232,1,77.6000018353271,2|8,0:0|0:0,0:0:0:0:
254,223,33425,1,8,0:0:0:0:
313,172,33774,1,2,0:0:0:0:
328,248,34123,1,8,0:0:0:0:
346,323,34472,1,8,0:0:0:0:
419,347,34821,6,0,L|425:269,1,77.6000018353271,2|8,0:0|0:0,0:0:0:0:
433,192,35518,1,8,0:0:0:0:
361,222,35867,2,0,L|354:144,1,77.6000018353271,2|8,0:0|0:0,0:0:0:0:
347,67,36565,1,8,0:0:0:0:
284,112,36914,6,0,L|206:118,1,77.6000018353271,2|8,0:0|0:0,0:0:0:0:
129,126,37611,1,8,0:0:0:0:
172,190,37960,2,0,L|249:196,1,77.6000018353271,2|8,0:0|0:0,0:0:0:0:
327,204,38658,1,8,0:0:0:0:
375,265,39007,6,0,P|396:240|405:196,2,77.6000018353271,2|8|8,0:0|0:0|0:0,0:0:0:0:
298,276,40053,2,0,L|220:282,1,77.6000018353271,2|8,0:0|0:0,0:0:0:0:
143,290,40751,1,8,0:0:0:0:
96,352,41100,6,0,P|75:327|66:283,2,77.6000018353271,2|8|8,0:0|0:0|0:0,0:0:0:0:
172,367,42146,1,2,0:0:0:0:
245,342,42495,1,8,0:0:0:0:
316,312,42844,1,8,0:0:0:0:
389,336,43193,6,0,P|457:253|395:157,1,232.800005505981,6|8,0:0|0:0,0:0:0:0:
332,117,44588,1,0,0:0:0:0:
260,86,44937,1,0,0:0:0:0:
186,59,45286,6,0,B|187:141|187:141|152:208|152:208|152:288,1,232.800005505981,6|8,0:0|0:0,0:0:0:0:
196,384,46855,1,0,0:0:0:0:
234,274,47379,6,0,B|291:245|350:274|350:274|407:304|465:274,1,232.800005505981,6|8,0:0|0:0,0:0:0:0:
496,211,48774,1,0,0:0:0:0:
457,143,49123,1,0,0:0:0:0:
392,100,49472,6,0,P|295:158|209:88,1,232.800005505981,6|8,0:0|0:0,0:0:0:0:
187,19,50867,2,0,L|91:10,1,77.6000018353271
45,56,51565,6,0,P|24:131|46:212,1,155.200003670654,6|8,0:0|0:0,0:0:0:0:
99,256,52611,2,0,P|173:238|247:259,1,155.200003670654,8|8,0:0|0:0,0:0:0:0:
311,303,53658,6,0,P|331:229|314:154,1,155.200003670654,6|8,0:0|0:0,0:0:0:0:
268,91,54704,2,0,P|194:70|119:87,1,155.200003670654,8|8,0:0|0:0,0:0:0:0:
65,144,55751,6,0,L|77:298,1,155.200003670654,6|8,0:0|0:0,0:0:0:0:
22,353,56797,2,0,P|93:376|149:328,1,155.200003670654,8|8,0:0|0:0,0:0:0:0:
180,256,57844,6,0,L|334:243,1,155.200003670654,6|8,0:0|0:0,0:0:0:0:
389,299,58890,2,0,P|412:228|362:170,1,155.200003670654,8|8,0:0|0:0,0:0:0:0:
289,149,59937,6,0,L|281:226,1,77.6000018353271,6|2,0:0|0:3,0:0:0:0:
230,284,60635,1,8,0:0:0:0:
175,229,60983,2,0,L|167:151,1,77.6000018353271,10|4,0:0|0:0,0:0:0:0:
125,86,61681,1,8,0:0:0:0:
68,139,62030,6,0,P|89:214|67:295,1,155.200003670654,2|8,0:0|0:0,0:0:0:0:
30,353,63076,2,0,P|105:374|186:352,1,155.200003670654,2|8,0:0|0:0,0:0:0:0:
234,302,64123,6,0,L|241:224,1,77.6000018353271,2|2,0:0|0:3,0:0:0:0:
293,167,64821,1,8,0:0:0:0:
348,222,65169,2,0,L|355:299,1,77.6000018353271,2|4,0:0|0:0,0:0:0:0:
398,365,65867,1,8,0:0:0:0:
441,300,66216,6,0,B|436:250|436:250|455:203|455:203|450:149,1,155.200003670654,0|8,2:0|2:0,2:0:0:0:
405,86,67262,2,0,P|330:107|249:85,1,155.200003670654,2|8,0:0|0:0,0:0:0:0:
196,39,68309,6,0,L|118:46,1,77.6000018353271,2|2,0:0|0:3,0:0:0:0:
61,98,69007,1,8,0:0:0:0:
113,155,69355,2,0,L|190:162,1,77.6000018353271,2|4,0:0|0:0,0:0:0:0:
248,214,70053,1,8,0:0:0:0:
321,188,70402,6,0,P|309:262|240:290,1,155.200003670654,2|8,0:0|0:0,0:0:0:0:
176,248,71449,2,0,P|102:239|56:297,1,155.200003670654,2|8,0:0|0:0,0:0:0:0:
87,368,72495,6,0,L|164:360,1,77.6000018353271,2|2,0:0|0:3,0:0:0:0:
230,318,73193,1,8,0:0:0:0:
300,349,73542,2,0,L|377:341,1,77.6000018353271,2|4,0:0|0:0,0:0:0:0:
443,299,74239,1,8,0:0:0:0:
486,233,74588,6,0,L|472:72,1,160,2|8,0:0|0:0,0:0:0:0:
405,28,75646,2,0,L|309:36,1,79.9999999999999,2|6,0:0|0:0,0:0:0:0:
187,56,76626,6,0,P|115:80|75:160,1,155.200003670654,6|6,0:0|0:0,0:0:0:0:
44,249,77745,1,6,0:0:0:0:
120,328,78204,6,0,L|274:315,1,155.200003670654,8|8,0:0|0:0,0:0:0:0:
329,371,79131,2,0,P|352:300|302:242,1,155.200003670654,2|8,0:0|0:0,0:0:0:0:
195,203,80213,1,6,0:0:0:0:
274,117,80676,6,0,L|428:130,1,155.200003670654,8|8,0:0|0:0,0:0:0:0:
483,74,81604,2,0,P|506:145|456:203,1,155.200003670654,2|8,0:0|0:0,0:0:0:0:
344,224,82686,1,6,0:0:0:0:
299,331,83149,6,0,P|224:310|143:332,1,155.200003670654,8|8,0:0|0:0,0:0:0:0:
89,375,84077,2,0,P|71:300|92:226,1,155.200003670654,2|8,0:0|0:0,0:0:0:0:
162,134,85159,1,6,0:0:0:0:
234,225,85622,6,0,P|307:245|382:227,1,155.200003670654,8|8,0:0|0:0,0:0:0:0:
439,174,86550,2,0,L|427:20,1,155.200003670654,2|8,0:0|0:0,0:0:0:0:
314,51,87632,1,6,0:0:0:0:
199,28,88095,6,0,B|204:82|204:82|185:129|185:129|190:179,1,155.200003670654,8|8,0:0|0:0,2:0:0:0:
202,255,89023,2,0,B|252:250|252:250|299:269|299:269|353:264,1,155.200003670654,2|8,0:0|0:0,0:0:0:0:
468,251,90105,1,6,0:0:0:0:
405,153,90568,6,0,B|351:158|351:158|304:139|304:139|254:144,1,155.200003670654,8|8,2:0|2:0,2:0:0:0:
177,154,91496,2,0,L|164:308,1,155.200003670654,2|8,0:0|0:0,0:0:0:0:
62,252,92578,1,6,0:0:0:0:
91,136,93041,6,0,P|134:78|218:78,1,155.200003670654,8|8,0:0|0:0,0:0:0:0:
271,125,93969,2,0,P|345:143|419:122,1,155.200003670654,2|8,0:0|0:0,0:0:0:0:
464,15,95060,1,6,0:0:0:0:
497,126,95529,6,0,P|517:199|499:274,1,155.200003670654,8|8,0:0|0:0,0:0:0:0:
450,333,96467,2,0,L|296:346,1,155.200003670654,2|8,0:0|0:0,0:0:0:0:
191,358,97563,1,6,0:0:0:0:
72,88,108278,6,0,L|151:81,1,79.9999999999999,6|2,0:0|0:0,0:0:0:0:
227,107,108938,2,0,L|306:113,1,79.9999999999999,8|2,0:0|0:0,0:0:0:0:
377,75,109598,6,0,B|396:114|377:154|377:154|356:193|377:233,2,160,2|8|2,0:0|0:0|0:0,0:0:0:0:
288,208,111578,2,0,L|208:214,1,79.9999999999999,8|2,0:0|0:0,0:0:0:0:
129,228,112238,6,0,P|112:150|134:74,2,160,2|8|2,0:0|0:0|0:0,0:0:0:0:
240,342,114218,6,0,L|319:348,1,79.9999999999999,8|2,0:0|0:0,0:0:0:0:
394,375,114878,2,0,P|397:335|376:294,1,79.9999999999999,2|2,0:0|0:0,0:0:0:0:
340,230,115538,2,0,P|337:190|358:149,1,79.9999999999999,8|0,0:0|0:0,0:0:0:0:
394,85,116198,2,0,B|354:65|314:85|314:85|275:105|235:85,1,160,2|8,0:0|0:0,0:0:0:0:
98,12,117518,6,0,P|76:88|93:165,2,160,2|8|2,0:0|0:0|0:0,0:0:0:0:
189,143,119499,6,0,L|269:149,1,79.9999999999999,8|2,0:0|0:0,0:0:0:0:
340,185,120159,2,0,L|420:179,1,79.9999999999999,2|2,0:0|0:0,0:0:0:0:
482,129,120819,2,0,P|498:165|495:204,1,79.9999999999999,8|0,0:0|0:0,0:0:0:0:
446,268,121479,2,0,L|284:281,1,160,2|8,0:0|0:0,0:0:0:0:
146,358,122799,6,0,P|128:280|150:204,2,160,2|8|2,0:0|0:0|0:0,0:0:0:0:
235,225,124779,6,0,P|273:234|317:221,1,79.9999999999999,8|2,0:0|0:0,0:0:0:0:
370,170,125439,2,0,P|408:160|446:170,1,79.9999999999999,2|2,0:0|0:0,0:0:0:0:
408,240,126099,2,0,L|402:320,1,79.9999999999999,8|0,0:0|0:0,0:0:0:0:
327,348,126759,2,0,P|249:365|173:343,1,160,2|8,0:0|0:0,0:0:0:0:
63,227,128079,6,0,B|57:175|57:175|77:126|77:126|72:70,2,160,2|8|6,2:0|2:0|2:0,2:0:0:0:
256,232,140304,5,2,0:0:0:0:
256,192,140475,12,0,142689,0:0:0:0:
256,192,143030,12,0,145415,0:0:0:0:
256,192,145756,12,0,148482,0:0:0:0:
16,242,149844,5,8,0:0:0:0:
105,114,150526,1,8,0:0:0:0:
151,179,150867,1,8,0:0:0:0:
202,236,151207,6,0,P|277:220|356:240,1,155.200003670654,6|8,0:0|0:0,0:0:0:0:
408,291,152229,2,0,L|414:371,1,77.6000018353271,8|8,0:0|0:0,0:0:0:0:
264,337,153252,2,0,P|189:318|113:334,1,155.200003670654,8|6,0:0|0:0,0:0:0:0:
48,377,154274,6,0,L|36:223,1,155.200003670654,8|8,0:0|0:0,0:0:0:0:
29,144,155296,1,8,0:0:0:0:
149,46,155977,2,0,P|224:25|305:47,1,155.200003670654,8|6,0:0|0:0,0:0:0:0:
350,99,156999,6,0,L|356:179,1,77.6000018353271,8|8,0:0|0:0,0:0:0:0:
392,244,157681,2,0,L|386:324,1,77.6000018353271,8|8,0:0|0:0,0:0:0:0:
237,358,158703,2,0,B|187:363|187:363|140:344|140:344|86:349,1,155.200003670654,8|6,2:0|2:0,2:0:0:0:
23,303,159725,6,0,P|35:229|104:201,1,155.200003670654,8|8,0:0|0:0,0:0:0:0:
178,221,160747,1,8,0:0:0:0:
237,358,161429,2,0,P|311:367|357:309,1,155.200003670654,8|6,0:0|0:0,0:0:0:0:
363,231,162451,6,0,L|357:151,1,77.6000018353271,8|8,0:0|0:0,0:0:0:0:
356,75,163132,1,8,0:0:0:0:
289,116,163473,2,0,P|177:164|167:17,1,310.400007341308,8|6,0:0|0:0,0:0:0:0:
236,39,165177,6,0,L|316:33,1,77.6000018353271,8|8,0:0|0:0,0:0:0:0:
390,23,165858,1,8,0:0:0:0:
455,64,166199,2,0,P|495:210|459:361,1,310.400007341308,8|6,0:0|0:0,0:0:0:0:
385,338,167902,6,0,L|305:332,1,77.6000018353271,8|8,0:0|0:0,0:0:0:0:
229,326,168584,1,8,0:0:0:0:
163,367,168924,2,0,B|125:290|163:212|163:212|204:136|163:57,1,310.400007341308,8|6,0:0|0:0,0:0:0:0:
91,53,170628,6,0,L|85:133,1,77.6000018353271,8|8,0:0|0:0,0:0:0:0:
79,209,171310,1,8,0:0:0:0:
132,264,171650,2,0,L|286:252,1,155.200003670654,8|8,0:0|0:0,0:0:0:0:
364,245,172672,1,2,0:3:0:0:
423,194,173013,5,6,0:3:0:0:
91,53,175057,2,0,L|85:133,1,77.6000018353271,8|8,0:0|0:3,0:0:0:0:
79,209,175739,5,6,0:3:0:0:
410,196,177783,2,0,L|416:276,1,77.6000018353271,8|8,0:0|0:3,0:0:0:0:
422,352,178465,5,6,0:3:0:0:
220,129,180509,2,0,L|214:209,1,77.6000018353271,8|8,0:0|0:3,0:0:0:0:
208,285,181190,5,6,0:3:0:0:
