osu file format v14

[General]
AudioFilename: audio.mp3
AudioLeadIn: 0
PreviewTime: 61696
Countdown: 0
SampleSet: Normal
StackLeniency: 0.2
Mode: 0
LetterboxInBreaks: 0
WidescreenStoryboard: 1

[Editor]
DistanceSpacing: 1.4
BeatDivisor: 4
GridSize: 4
TimelineZoom: 2.1

[Metadata]
Title:The Backwards Pumpkin Song
TitleUnicode:The Backwards Pumpkin Song
Artist:Dance Gavin Dance
ArtistUnicode:Dance Gavin Dance
Creator:Roberto
Version:For a Good Note
Source:
Tags:Downtown Battle Mountain
BeatmapID:1739146
BeatmapSetID:830034

[Difficulty]
HPDrainRate:6
CircleSize:4
OverallDifficulty:8
ApproachRate:9.3
SliderMultiplier:2
SliderTickRate:1

[Events]
//Background and Video events
0,0,"dgd-dbm-cover.jpg",0,0
//Break Periods
//Storyboard Layer 0 (Background)
//Storyboard Layer 1 (Fail)
//Storyboard Layer 2 (Pass)
//Storyboard Layer 3 (Foreground)
//Storyboard Sound Samples

[TimingPoints]
182,384.615384615385,4,1,0,100,1,0
2489,-71.4285714285714,4,1,0,100,0,0
3258,-125,4,1,0,100,0,0
6335,-100,4,1,0,100,0,0
8643,-71.4285714285714,4,1,0,100,0,0
9412,-125,4,1,0,100,0,0
10951,-71.4285714285714,4,1,0,100,0,0
12489,-100,4,1,0,100,0,0
14797,-71.4285714285714,4,1,0,100,0,0
15566,-125,4,1,0,100,0,0
17105,-71.4285714285714,4,1,0,100,0,0
18643,-100,4,1,0,100,0,0
20182,-71.4285714285714,4,1,0,100,0,0
21720,-125,4,1,0,100,0,0
37105,-125,4,1,0,100,0,0
40182,-166.666666666667,4,1,0,100,0,0
41720,-250.000000000001,4,1,0,100,0,0
43258,-125,4,1,0,100,0,0
46335,-166.666666666667,4,1,0,100,0,0
48643,-200,4,1,0,100,0,0
55566,-153.846153846154,4,1,0,100,0,0
57105,-125,4,1,0,100,0,0
58643,-105.263157894737,4,1,0,100,0,0
60182,-80.0000000000001,4,1,0,100,0,0
64028,-54.054054054054,4,1,0,100,0,0
64797,-64.5161290322581,4,1,0,100,0,0
64989,-64.5161290322581,4,1,0,5,0,0
65085,-74.0740740740741,4,1,0,100,0,0
65278,-74.0740740740741,4,1,0,5,0,0
65374,-44.4444444444445,4,1,0,100,0,0
65518,-54.054054054054,4,1,0,5,0,0
65566,-55.5555555555556,4,1,0,100,0,0
66335,-51.2820512820513,4,1,0,100,0,0
66528,-51.2820512820513,4,1,0,5,0,0
66624,-57.1428571428571,4,1,0,100,0,0
66816,-57.1428571428571,4,1,0,5,0,0
66912,-64.5161290322581,4,1,0,100,0,0
67057,-64.5161290322581,4,1,0,5,0,0
67105,-64.5161290322581,4,1,0,100,0,0
70182,-54.054054054054,4,1,0,100,0,0
70951,-64.5161290322581,4,1,0,100,0,0
71143,-64.5161290322581,4,1,0,5,0,0
71239,-74.0740740740741,4,1,0,100,0,0
71432,-74.0740740740741,4,1,0,5,0,0
71528,-44.4444444444445,4,1,0,100,0,0
71672,-60.6060606060606,4,1,0,5,0,0
71720,-60.6060606060606,4,1,0,100,0,0
72489,-51.2820512820513,4,1,0,100,0,0
72682,-51.2820512820513,4,1,0,5,0,0
72778,-57.1428571428571,4,1,0,100,0,0
72970,-57.1428571428571,4,1,0,5,0,0
73066,-64.5161290322581,4,1,0,100,0,0
73210,-64.5161290322581,4,1,0,5,0,0
73258,-64.5161290322581,4,1,0,100,0,0
77105,-60.6060606060606,4,1,0,100,0,0
77297,-54.054054054054,4,1,0,5,0,0
77393,-57.1428571428571,4,1,0,100,0,0
77585,-57.1428571428571,4,1,0,5,0,0
77682,-48.780487804878,4,1,0,100,0,0
77826,-48.780487804878,4,1,0,5,0,0
77874,-68.9655172413793,4,1,0,100,0,0
78643,-48.780487804878,4,1,0,100,0,0
78835,-48.780487804878,4,1,0,5,0,0
78932,-54.054054054054,4,1,0,100,0,0
79124,-54.054054054054,4,1,0,5,0,0
79220,-57.1428571428571,4,1,0,100,0,0
79364,-57.1428571428571,4,1,0,5,0,0
79412,-57.1428571428571,4,1,0,100,0,0

[Colours]
Combo1 : 224,224,224
Combo2 : 192,192,192
Combo3 : 120,104,71
Combo4 : 158,141,84

[HitObjects]
73,297,182,5,0,3:0:0:0:
101,256,278,1,0,3:0:0:0:
139,223,374,1,0,3:0:0:0:
187,210,470,1,0,3:0:0:0:
236,214,566,1,0,3:0:0:0:
286,212,662,1,0,3:0:0:0:
329,187,758,1,0,3:0:0:0:
360,148,855,1,0,3:0:0:0:
361,98,950,5,8,0:0:0:0:
361,98,1047,1,8,0:0:0:0:
236,113,1335,1,8,0:0:0:0:
236,113,1432,1,8,0:0:0:0:
136,95,1720,6,0,P|180:36|252:22,2,150,0|0|0,0:2|0:2|0:2,0:2:0:0:
184,170,2489,2,8,P|148:179|79:187,1,69.9999978637696,8|8,3:0|3:0,3:0:0:0:
250,247,2682,2,8,P|284:241|318:232,1,69.9999978637696,8|8,3:0|3:0,3:0:0:0:
152,324,2874,2,0,P|109:316|164:181,1,209.999993591309,8|0,3:0|3:0,3:0:0:0:
193,123,3258,6,0,L|177:-5,2,120,0|0|0,0:2|0:2|0:2,0:2:0:0:
173,223,4028,2,0,P|218:304|242:214,1,240,8|0,0:0|0:0,0:0:0:0:
322,133,4797,5,8,0:0:0:0:
390,146,4893,1,8,0:0:0:0:
445,187,4989,1,4,0:3:0:0:
348,242,5182,1,4,0:3:0:0:
445,187,5374,1,8,0:0:0:0:
390,146,5470,1,8,0:0:0:0:
322,133,5566,1,4,0:3:0:0:
348,242,5758,1,4,0:3:0:0:
207,172,5951,2,0,L|211:249,1,40,2|0,0:2|0:0,0:0:0:0:
108,130,6143,2,0,L|104:207,1,40,2|0,0:2|0:0,0:0:0:0:
220,61,6335,5,0,3:0:0:0:
268,51,6431,1,0,3:0:0:0:
318,57,6527,1,0,3:0:0:0:
364,77,6623,1,0,3:0:0:0:
401,109,6719,1,0,3:0:0:0:
428,151,6815,1,0,3:0:0:0:
441,199,6911,1,0,3:0:0:0:
439,249,7008,1,0,3:0:0:0:
423,296,7105,5,8,0:0:0:0:
423,296,7202,1,8,0:0:0:0:
298,311,7490,1,8,0:0:0:0:
298,311,7585,1,8,0:0:0:0:
177,313,7874,5,0,0:2:0:0:
79,174,8066,1,0,0:2:0:0:
59,293,8259,1,0,0:2:0:0:
198,195,8451,1,0,0:2:0:0:
177,313,8643,2,8,P|170:347|162:381,1,69.9999978637696,8|8,3:3|3:3,3:3:0:0:
79,174,8835,2,8,P|84:139|94:105,1,69.9999978637696,8|8,3:3|3:3,3:3:0:0:
239,208,9028,2,8,P|210:132|71:117,1,209.999993591309,8|0,3:3|3:3,3:3:0:0:
127,202,9412,6,0,L|8:188,2,120,0|0|0,0:2|0:2|0:2,0:2:0:0:
218,217,10182,2,0,P|256:224|287:250,1,80,8|0,0:0|0:0,0:0:0:0:
363,314,10470,2,0,P|397:271|402:195,1,120
389,97,10951,5,8,0:0:0:0:
319,91,11047,1,8,0:0:0:0:
249,86,11143,1,4,0:3:0:0:
308,231,11335,1,4,0:3:0:0:
307,87,11528,1,8,0:0:0:0:
237,80,11624,1,8,0:0:0:0:
167,76,11720,1,4,0:3:0:0:
308,231,11912,1,4,0:3:0:0:
97,70,12105,2,2,P|61:80|0:135,1,69.9999978637696,2|2,0:2|0:2,0:2:0:0:
102,173,12297,2,2,P|92:209|109:289,1,69.9999978637696,2|2,0:2|0:2,0:2:0:0:
202,186,12489,5,0,3:0:0:0:
249,200,12585,1,0,3:0:0:0:
294,183,12681,1,0,3:0:0:0:
334,153,12777,1,0,3:0:0:0:
382,141,12873,1,0,3:0:0:0:
429,158,12969,1,0,3:0:0:0:
467,191,13066,1,0,3:0:0:0:
477,239,13162,1,0,3:0:0:0:
456,283,13258,5,8,0:0:0:0:
456,283,13355,1,8,0:0:0:0:
304,266,13643,1,8,0:0:0:0:
304,266,13740,1,8,0:0:0:0:
174,283,14028,6,0,P|133:306|20:296,2,150,0|0|0,0:2|0:2|0:2,0:2:0:0:
255,231,14797,2,8,P|260:196|264:161,1,69.9999978637696,8|8,3:3|3:3,3:3:0:0:
361,68,14989,2,8,P|357:102|351:137,1,69.9999978637696,8|8,3:3|3:3,3:3:0:0:
466,230,15182,2,0,P|469:164|343:144,1,209.999993591309,8|0,3:3|3:3,3:3:0:0:
289,239,15566,6,0,L|296:364,2,120,0|0|0,0:2|0:2|0:2,0:2:0:0:
317,144,16335,2,0,P|312:97|246:175,1,240,8|0,0:0|0:0,0:0:0:0:
49,281,17105,5,8,0:0:0:0:
118,282,17201,1,8,0:0:0:0:
188,284,17297,1,4,0:3:0:0:
100,143,17489,1,4,0:3:0:0:
188,284,17682,1,8,0:0:0:0:
118,282,17778,1,8,0:0:0:0:
49,281,17874,1,4,0:3:0:0:
143,143,18066,1,4,0:3:0:0:
288,74,18258,2,2,P|361:127|378:152,1,69.9999978637696,2|2,0:2|0:2,0:2:0:0:
449,94,18451,2,2,P|439:183|426:210,1,69.9999978637696,2|2,0:2|0:2,0:2:0:0:
392,327,18643,5,0,3:0:0:0:
342,333,18739,1,0,3:0:0:0:
293,327,18835,1,0,3:0:0:0:
247,308,18931,1,0,3:0:0:0:
205,279,19028,1,0,3:0:0:0:
193,231,19124,1,0,3:0:0:0:
218,189,19220,1,0,3:0:0:0:
266,177,19316,1,0,3:0:0:0:
308,202,19412,5,8,0:0:0:0:
308,202,19508,1,8,0:0:0:0:
158,190,19797,1,8,0:0:0:0:
158,190,19893,1,8,0:0:0:0:
288,320,20182,5,0,0:2:0:0:
406,341,20374,1,0,0:2:0:0:
308,202,20567,1,0,0:2:0:0:
427,222,20758,1,0,0:2:0:0:
288,319,20951,2,8,P|253:311|219:303,1,69.9999978637696,8|8,3:3|3:3,3:3:0:0:
189,182,21143,2,8,P|155:172|120:167,1,69.9999978637696,8|8,3:3|3:3,3:3:0:0:
22,315,21335,2,0,P|96:285|112:150,1,209.999993591309,8|0,3:0|3:0,3:0:0:0:
194,79,21720,6,0,L|351:71,2,120
69,95,22489,2,0,P|81:147|114:176,1,80,8|0,0:0|0:0,0:0:0:0:
139,249,22778,2,0,P|81:260|30:230,1,120
13,325,23258,5,8,0:0:0:0:
83,331,23354,1,8,0:0:0:0:
153,336,23450,1,4,0:3:0:0:
94,191,23642,1,4,0:3:0:0:
95,335,23835,1,8,0:0:0:0:
165,342,23931,1,8,0:0:0:0:
235,346,24027,1,4,0:3:0:0:
94,191,24219,1,4,0:3:0:0:
328,224,24412,2,0,L|326:273,1,40
430,168,24605,2,0,L|431:207,1,40
310,48,24797,5,0,3:0:0:0:
233,26,24989,1,0,3:0:0:0:
152,26,25182,1,0,3:0:0:0:
75,48,25374,1,0,3:0:0:0:
45,179,25566,5,8,0:0:0:0:
64,244,25662,1,8,0:0:0:0:
123,279,25758,1,8,0:0:0:0:
180,237,25855,1,8,0:0:0:0:
198,303,25951,1,8,0:0:0:0:
259,332,26047,1,8,0:0:0:0:
324,308,26143,1,8,0:0:0:0:
364,250,26239,1,8,0:0:0:0:
322,156,26528,5,8,0:0:0:0:
322,86,26624,1,8,0:0:0:0:
382,121,26720,1,0,0:0:0:0:
205,148,26912,5,8,0:0:0:0:
163,75,27008,1,8,0:0:0:0:
246,75,27104,1,0,0:0:0:0:
88,107,27297,5,8,3:0:0:0:
1,144,27393,1,8,3:0:0:0:
69,199,27489,1,8,0:0:0:0:
55,288,27586,1,8,0:0:0:0:
131,335,27682,1,8,0:0:0:0:
204,285,27778,1,8,0:0:0:0:
287,292,27874,5,0,0:0:0:0:
306,284,28066,1,0,0:0:0:0:
306,357,28258,1,0,0:0:0:0:
386,288,28451,1,0,0:0:0:0:
303,138,28643,5,8,0:0:0:0:
300,249,28835,1,0,0:0:0:0:
257,144,29028,1,0,0:0:0:0:
262,255,29220,1,0,0:0:0:0:
160,122,29412,5,0,0:0:0:0:
52,90,29605,1,0,0:0:0:0:
125,50,29797,1,0,0:0:0:0:
150,38,29989,1,0,0:0:0:0:
203,207,30182,5,8,0:0:0:0:
196,276,30278,1,8,0:0:0:0:
189,346,30374,1,8,0:0:0:0:
302,133,30566,5,8,0:0:0:0:
309,202,30662,1,8,0:0:0:0:
316,272,30758,1,8,0:0:0:0:
469,316,30951,5,0,0:0:0:0:
404,362,31143,1,0,0:0:0:0:
326,382,31335,1,0,0:0:0:0:
246,374,31528,1,0,0:0:0:0:
72,324,31720,5,8,1:0:0:0:
132,289,31816,1,8,1:0:0:0:
198,310,31912,1,8,1:0:0:0:
240,254,32008,1,8,1:0:0:0:
309,240,32105,1,8,1:0:0:0:
363,283,32201,1,8,1:0:0:0:
422,245,32297,1,8,1:0:0:0:
412,175,32393,1,8,1:0:0:0:
351,139,32489,1,0,1:0:0:0:
170,49,32682,5,8,0:0:0:0:
169,118,32778,1,8,0:0:0:0:
123,171,32874,1,0,0:0:0:0:
216,45,33066,5,8,0:0:0:0:
193,124,33162,1,8,0:0:0:0:
123,171,33258,1,0,0:0:0:0:
246,74,33451,5,0,0:0:0:0:
246,74,33643,1,8,0:0:0:0:
203,144,33739,1,8,0:0:0:0:
123,171,33835,1,8,0:0:0:0:
67,234,33932,1,8,0:0:0:0:
113,303,34028,1,0,0:0:0:0:
128,318,34220,1,0,0:0:0:0:
202,274,34412,1,0,0:0:0:0:
178,383,34605,1,0,0:0:0:0:
432,290,34797,5,8,0:0:0:0:
408,181,34990,1,0,0:0:0:0:
356,292,35182,1,0,0:0:0:0:
361,180,35375,1,0,0:0:0:0:
183,144,35566,5,0,0:0:0:0:
177,128,35758,1,0,0:0:0:0:
140,57,35950,1,0,0:0:0:0:
249,81,36143,1,0,0:0:0:0:
215,279,36335,5,8,0:0:0:0:
145,276,36431,1,8,0:0:0:0:
75,273,36527,1,8,0:0:0:0:
323,169,36720,5,8,0:0:0:0:
253,171,36816,1,8,0:0:0:0:
183,174,36912,1,8,0:0:0:0:
396,266,37105,6,0,B|300:287|260:238|252:178|292:155|335:118|476:164|471:283|471:283|600:165|445:74|325:47|214:141,1,880,4|0,0:0|0:0,0:0:0:0:
113,9,39412,2,0,B|227:63|84:143|216:216,1,240
303,234,40182,2,0,B|406:183|488:229|449:353|387:381|277:321|213:292,1,419.999987182618,0|0,0:1|0:0,0:0:0:0:
210,384,41720,2,0,P|129:307|230:203,1,280
339,98,43258,6,0,B|385:166|385:166|315:204|315:204|377:303|377:303|272:301|272:301|247:359|247:359|328:361|328:361|271:264|271:264|182:262|182:262|150:198|150:198|249:198,1,880,4|0,0:0|0:0,0:0:0:0:
175,92,45566,2,0,B|150:35|150:35|94:35|94:35|51:72|51:72|80:138,1,240
148,228,46335,2,0,B|232:228|232:228|213:292|213:292|291:291|291:291|311:229|311:229|381:229|381:229|407:151,1,419.999987182618
377,74,47874,5,8,0:0:0:0:
310,69,48002,1,8,0:0:0:0:
243,64,48130,1,8,0:0:0:0:
133,135,48258,1,8,0:3:0:0:
200,140,48386,1,8,0:3:0:0:
267,145,48514,1,8,0:3:0:0:
440,236,48643,2,0,L|290:225,1,150,4|0,0:3|0:0,0:0:0:0:
49,255,49412,6,0,L|51:315,1,50
136,226,49797,2,0,L|134:275,1,50
71,122,50182,2,0,L|73:172,1,50,8|0,0:0|0:0,0:0:0:0:
158,93,50567,2,0,L|157:143,1,50
305,98,50951,6,0,L|366:103,1,50
493,191,51335,2,0,L|443:186,1,50
226,223,51720,2,0,L|298:235,1,50,8|0,0:0|0:0,0:0:0:0:
442,354,52104,2,0,L|378:337,1,50
340,115,52489,6,0,L|338:164,1,50
253,86,52874,2,0,L|254:135,1,50
80,164,53259,2,0,L|81:213,1,50,8|0,0:0|0:0,0:0:0:0:
167,135,53644,2,0,L|165:184,1,50
421,254,54027,6,0,L|403:180,1,50
335,242,54412,2,0,L|282:186,1,50
255,275,54796,2,0,L|181:253,1,50,8|0,0:0|0:0,0:0:0:0:
203,344,55181,2,0,L|129:362,1,50
92,130,55566,6,0,L|169:133,1,64.9999970245363
303,209,55951,2,0,L|238:206,1,64.9999970245363
238,67,56335,2,0,L|235:131,1,64.9999970245363,8|0,0:0|0:0,0:0:0:0:
159,278,56720,2,0,L|161:213,1,64.9999970245363
448,68,57105,6,0,L|439:168,1,80
348,297,57489,2,0,L|355:217,1,80
351,36,57874,2,0,L|340:147,1,80,8|0,0:0|0:0,0:0:0:0:
231,310,58258,2,0,L|239:215,1,80
88,114,58643,6,0,L|91:222,1,94.9999974632264
185,302,59028,2,0,L|188:208,1,94.9999974632264
198,105,59412,2,0,L|292:102,1,94.9999974632264,8|0,0:0|0:0,0:0:0:0:
385,200,59797,2,0,L|291:198,1,94.9999974632264
44,292,60182,5,8,0:0:0:0:
82,339,60278,1,0,0:0:0:0:
142,349,60374,1,0,0:0:0:0:
194,316,60470,1,0,0:0:0:0:
237,271,60566,2,0,P|259:250|327:232,1,62.5
429,195,60758,5,8,0:0:0:0:
451,137,60854,1,0,0:0:0:0:
429,80,60950,1,0,0:0:0:0:
368,65,61046,1,0,0:0:0:0:
307,73,61143,2,0,P|282:91|251:99,1,62.5
104,83,61335,37,8,0:0:0:0:
104,207,61720,5,8,0:0:0:0:
122,204,61816,1,0,0:0:0:0:
172,274,61912,1,4,0:3:0:0:
190,271,62008,1,0,0:0:0:0:
213,188,62105,1,8,0:0:0:0:
231,185,62201,1,0,0:0:0:0:
281,255,62297,1,4,0:3:0:0:
299,252,62393,1,0,0:0:0:0:
451,297,62489,37,8,0:0:0:0:
445,260,62585,1,0,0:0:0:0:
439,222,62682,1,0,0:3:0:0:
412,137,62778,5,8,0:0:0:0:
374,141,62874,1,0,0:0:0:0:
340,158,62970,1,0,0:3:0:0:
264,125,63066,1,8,0:0:0:0:
261,107,63162,1,0,0:3:0:0:
165,56,63258,37,8,0:0:0:0:
147,59,63354,1,0,0:0:0:0:
66,117,63450,1,4,0:3:0:0:
69,135,63546,1,0,0:0:0:0:
191,170,63643,1,8,0:0:0:0:
173,173,63739,1,0,0:0:0:0:
92,231,63835,1,4,0:3:0:0:
95,249,63931,1,0,0:0:0:0:
189,323,64028,6,8,P|283:338|412:324,1,184.999999294281,8|4,0:0|0:3,0:3:0:0:
471,265,64316,2,0,P|380:181|378:237,1,277.499998941422,8|4,0:0|0:3,0:0:0:0:
217,91,64797,22,0,B|245:46|245:46|348:85,1,155.000001182556,4|0,0:3|0:0,0:0:0:0:
161,180,65085,2,0,B|106:140|106:140|36:160,1,135.000000514984,4|0,0:3|0:0,0:0:0:0:
236,254,65374,2,0,B|195:328|195:328|167:249,1,168.750006437302,4|0,0:3|0:0,0:0:0:0:
161,180,65566,2,8,B|217:91|217:91|238:265,2,269.999991760254,8|8|8,0:2|0:2|0:2,0:2:0:0:
444,49,66335,38,0,B|362:68|362:68|406:232,1,195.000000743866,4|0,0:3|0:0,0:0:0:0:
338,347,66624,2,0,B|381:293|381:293|299:220,1,175.00000166893,4|0,0:3|0:0,0:0:0:0:
140,166,66912,2,0,B|185:124|185:124|255:155,1,116.250000886917,4|0,0:3|0:0,0:0:0:0:
390,175,67105,5,8,0:2:0:0:
301,222,67297,1,8,0:2:0:0:
301,222,67361,1,8,0:2:0:0:
390,175,67489,1,8,0:2:0:0:
235,146,67682,1,4,0:3:0:0:
101,293,67874,5,8,0:0:0:0:
104,275,67970,1,0,0:0:0:0:
34,225,68066,1,4,0:3:0:0:
37,207,68162,1,0,0:0:0:0:
120,184,68258,1,8,0:0:0:0:
123,166,68354,1,0,0:0:0:0:
53,116,68451,1,4,0:3:0:0:
56,98,68547,1,0,0:0:0:0:
148,47,68643,5,8,0:0:0:0:
185,49,68739,1,0,0:0:0:0:
220,64,68835,1,0,0:0:0:0:
278,123,68932,37,8,0:0:0:0:
284,161,69029,1,0,0:0:0:0:
290,198,69125,1,0,0:0:0:0:
329,278,69220,1,8,0:0:0:0:
311,281,69316,1,0,0:0:0:0:
210,231,69412,5,8,0:0:0:0:
207,249,69508,1,0,0:0:0:0:
149,330,69604,1,4,0:3:0:0:
131,327,69700,1,0,0:0:0:0:
96,254,69797,1,8,0:0:0:0:
99,235,69893,1,0,0:0:0:0:
49,153,69989,1,0,0:0:0:0:
67,156,70085,1,4,0:3:0:0:
161,107,70182,6,8,P|248:85|345:114,1,184.999999294281,8|4,0:0|0:3,0:0:0:0:
408,179,70470,2,8,P|510:212|459:117,1,277.499998941422,8|4,0:0|0:3,0:0:0:0:
208,203,70951,6,0,B|143:170|143:170|56:209,1,155.000001182556,4|0,0:3|0:0,0:0:0:0:
290,267,71239,2,0,B|335:240|335:240|368:144,1,135.000000514984,4|0,0:3|0:0,0:0:0:0:
151,297,71528,2,0,B|123:376|123:376|197:336,1,168.750006437302,4|0,0:3|0:0,0:0:0:0:
208,203,71720,2,8,B|291:268|291:268|134:301,2,247.500002360344,8|8|8,0:2|0:2|0:2,0:2:0:0:
154,133,72489,38,0,B|99:54|99:54|18:221,1,195.000000743866,4|0,0:3|0:0,0:0:0:0:
0,202,72778,2,0,B|47:254|47:254|169:221,1,175.00000166893,4|0,0:3|0:0,0:0:0:0:
237,86,73066,2,0,B|259:122|259:122|229:209,1,116.250000886917,4|0,0:3|0:0,0:0:0:0:
148,226,73258,5,8,0:2:0:0:
235,191,73451,1,8,0:2:0:0:
235,191,73515,1,8,0:2:0:0:
148,226,73643,1,8,0:2:0:0:
55,142,73835,1,4,0:3:0:0:
66,350,74028,5,8,0:0:0:0:
74,320,74124,1,8,0:3:0:0:
187,215,74220,1,8,0:0:0:0:
179,245,74316,1,8,0:3:0:0:
161,384,74412,1,8,0:0:0:0:
169,354,74508,1,8,0:3:0:0:
299,181,74605,1,8,0:0:0:0:
291,211,74700,1,8,0:3:0:0:
327,361,74797,5,8,0:0:0:0:
369,341,74893,1,0,0:0:0:0:
397,304,74989,1,0,0:0:0:0:
434,215,75085,37,8,0:0:0:0:
395,189,75181,1,0,0:0:0:0:
349,183,75277,1,0,0:0:0:0:
241,115,75374,5,8,0:0:0:0:
272,120,75470,1,0,0:0:0:0:
115,103,75566,37,8,0:0:0:0:
113,133,75661,1,8,0:3:0:0:
176,341,75758,1,8,0:0:0:0:
178,310,75854,1,8,0:3:0:0:
24,248,75951,1,8,0:0:0:0:
55,250,76047,1,8,0:3:0:0:
231,201,76144,1,8,0:0:0:0:
261,203,76239,1,8,0:3:0:0:
358,290,76335,6,0,P|370:125|355:109,1,155.000001182556,8|4,0:0|0:3,0:0:0:0:
317,60,76624,2,0,P|225:80|311:141,1,232.500001773834,8|4,0:0|0:3,0:0:0:0:
185,260,77105,6,0,B|91:298|91:298|16:248,1,165.000001573563,4|0,0:3|0:0,0:0:0:0:
166,151,77393,2,0,B|121:107|121:107|97:232,1,175.00000166893,4|0,0:3|0:0,0:0:0:0:
291,272,77682,2,0,B|306:199|306:199|212:114,1,153.750002346039,4|0,0:3|0:0,0:0:0:0:
166,151,77874,2,8,B|186:261|186:261|295:273,2,217.500006637573,8|8|8,0:2|0:2|0:2,0:2:0:0:
464,134,78643,6,0,B|368:111|368:111|275:190,1,205.000003128052,4|0,0:3|0:0,0:0:0:0:
196,249,78932,2,0,B|281:277|281:277|371:245,1,184.999999294281,4|0,0:3|0:3,0:3:0:0:
485,320,79220,2,0,B|505:254|505:254|453:199,1,131.250001251698,4|0,0:3|0:0,0:0:0:0:
371,245,79412,37,8,0:2:0:0:
462,208,79605,1,8,0:2:0:0:
462,208,79669,1,8,0:2:0:0:
371,245,79797,1,8,0:2:0:0:
286,179,79989,1,4,0:3:0:0:
116,65,80182,21,8,0:0:0:0:
116,99,80279,1,8,0:3:0:0:
252,229,80374,1,8,0:0:0:0:
252,263,80471,1,8,0:3:0:0:
270,76,80566,1,8,0:0:0:0:
264,109,80663,1,8,0:3:0:0:
107,213,80758,1,8,0:0:0:0:
101,247,80855,1,8,0:3:0:0:
175,349,80951,5,8,0:0:0:0:
226,360,81047,1,0,0:0:0:0:
278,356,81143,1,0,0:0:0:0:
379,359,81239,37,8,0:0:0:0:
368,307,81335,1,0,0:0:0:0:
340,261,81432,1,0,0:0:0:0:
410,179,81528,5,8,0:0:0:0:
410,213,81624,1,0,0:0:0:0:
394,67,81720,37,8,0:0:0:0:
359,66,81816,1,8,0:3:0:0:
303,163,81912,1,8,0:0:0:0:
268,162,82008,1,8,0:3:0:0:
208,39,82105,1,8,0:0:0:0:
173,38,82201,1,8,0:3:0:0:
102,178,82297,1,8,0:0:0:0:
67,177,82393,1,8,0:3:0:0:
0,249,82489,6,0,P|89:295|206:231,1,175.00000166893,8|4,0:0|0:3,0:0:0:0:
233,224,82778,2,0,P|299:299|230:265,1,262.500002503395,8|4,0:0|0:3,0:0:0:0:
