osu file format v14

[General]
AudioFilename: Son of Robot.mp3
AudioLeadIn: 2
PreviewTime: 94203
Countdown: 0
SampleSet: Soft
StackLeniency: 0.7
Mode: 3
LetterboxInBreaks: 0
SpecialStyle: 0
WidescreenStoryboard: 0

[Editor]
Bookmarks: 26497,41359,54570,67781,80992,94203,107414,122276,135487,148698,161909,175120,188331
DistanceSpacing: 0.8
BeatDivisor: 4
GridSize: 8
TimelineZoom: 2.999998

[Metadata]
Title:Son of Robot
TitleUnicode:Son of Robot
Artist:Dance Gavin Dance
ArtistUnicode:Dance Gavin Dance
Creator:Synoxa
Version:Release // Ultra
Source:
Tags:dense chordjacks Artificial Selection RISE 420-2 Rise Records Inc. Post-Hardcore Math Rock William Joseph Swan Kris Crummett Erik Ron Tilian Pearson Jon Mess Dryw Owens Ted Jensen Matthew Mingus Tim Feerick Jessica Esposito english darkcloud_8
BeatmapID:3875852
BeatmapSetID:1882566

[Difficulty]
HPDrainRate:8.1
CircleSize:4
OverallDifficulty:9.1
ApproachRate:10
SliderMultiplier:1.4
SliderTickRate:1

[Events]
//Background and Video events
0,0,"dgd.jpg",0,0
//Break Periods
//Storyboard Layer 0 (Background)
//Storyboard Layer 1 (Fail)
//Storyboard Layer 2 (Pass)
//Storyboard Layer 3 (Foreground)
//Storyboard Layer 4 (Overlay)
//Storyboard Sound Samples

[TimingPoints]
25,275.229357798165,3,2,1,20,1,0
26447,-100,3,2,1,69,0,0
41584,-100,3,2,1,25,0,0
54520,-100,3,2,1,69,0,0
67869,-100,3,2,1,42,0,0
72685,-100,3,2,1,69,0,0
74474,-100,3,2,1,42,0,0
79291,-100,3,2,1,69,0,0
94153,-100,3,2,1,50,0,1
107089,-100,3,2,1,50,0,0
122295,-100,3,2,1,25,0,0
135437,-100,3,2,1,69,0,0
148786,-100,3,2,1,42,0,0
153602,-100,3,2,1,69,0,0
155391,-100,3,2,1,42,0,0
160208,-100,3,2,1,69,0,0
175070,-100,3,2,1,50,0,1
188006,-100,3,2,1,50,0,0

[HitObjects]
64,192,25,5,0,0:0:0:0:
448,192,42,1,0,0:0:0:0:
320,192,575,1,0,0:0:0:0:
448,192,850,1,0,0:0:0:0:
192,192,1401,1,0,0:0:0:0:
320,192,1676,1,0,0:0:0:0:
64,192,2226,1,0,0:0:0:0:
192,192,2502,1,0,0:0:0:0:
448,192,3052,1,0,0:0:0:0:
320,192,3327,1,0,0:0:0:0:
64,192,3344,1,0,0:0:0:0:
192,192,3878,1,0,0:0:0:0:
64,192,4153,1,0,0:0:0:0:
320,192,4703,1,0,0:0:0:0:
448,192,4979,1,0,0:0:0:0:
192,192,5529,1,0,0:0:0:0:
320,192,5804,1,0,0:0:0:0:
64,192,6355,1,0,0:0:0:0:
192,192,6630,1,0,0:0:0:0:
448,192,6647,1,0,0:0:0:0:
64,192,7180,1,0,0:0:0:0:
448,192,7456,1,0,0:0:0:0:
192,192,8006,1,0,0:0:0:0:
320,192,8281,1,0,0:0:0:0:
192,192,8832,1,0,0:0:0:0:
448,192,9107,1,0,0:0:0:0:
64,192,9658,1,0,0:0:0:0:
320,192,9933,1,0,0:0:0:0:
192,192,9950,1,0,0:0:0:0:
192,192,10483,1,0,0:0:0:0:
320,192,10758,1,0,0:0:0:0:
64,192,11309,1,0,0:0:0:0:
320,192,11584,1,0,0:0:0:0:
64,192,12135,1,0,0:0:0:0:
448,192,12410,1,0,0:0:0:0:
192,192,12960,1,0,0:0:0:0:
64,192,13236,1,0,0:0:0:0:
448,192,13253,1,0,0:0:0:0:
320,192,13786,1,0,0:0:0:0:
448,192,14061,1,0,0:0:0:0:
192,192,14612,1,0,0:0:0:0:
320,192,14887,1,0,0:0:0:0:
64,192,15437,1,0,0:0:0:0:
192,192,15713,1,0,0:0:0:0:
448,192,16263,1,0,0:0:0:0:
320,192,16538,1,0,0:0:0:0:
64,192,16555,1,0,0:0:0:0:
192,192,17089,1,0,0:0:0:0:
64,192,17364,1,0,0:0:0:0:
320,192,17914,1,0,0:0:0:0:
448,192,18190,1,0,0:0:0:0:
192,192,18740,1,0,0:0:0:0:
320,192,19015,1,0,0:0:0:0:
64,192,19566,1,0,0:0:0:0:
192,192,19841,1,0,0:0:0:0:
448,192,19858,1,0,0:0:0:0:
64,192,20391,1,0,0:0:0:0:
448,192,20667,1,0,0:0:0:0:
192,192,21217,1,0,0:0:0:0:
320,192,21492,1,0,0:0:0:0:
192,192,22043,1,0,0:0:0:0:
448,192,22318,1,0,0:0:0:0:
64,192,22869,1,0,0:0:0:0:
320,192,23144,1,0,0:0:0:0:
192,192,23161,1,0,0:0:0:0:
192,192,23694,1,0,0:0:0:0:
320,192,23969,1,0,0:0:0:0:
64,192,24520,1,0,0:0:0:0:
320,192,24795,1,0,0:0:0:0:
64,192,25346,1,0,0:0:0:0:
448,192,25621,1,0,0:0:0:0:
192,192,26171,1,0,0:0:0:0:
64,192,26447,5,0,0:0:0:0:
320,192,26447,1,4,0:0:0:0:
448,192,26447,1,2,0:0:0:92:
192,192,26515,1,2,0:0:0:92:
320,192,26584,1,0,0:0:0:0:
448,192,26584,1,2,0:0:0:92:
64,192,26653,1,2,0:0:0:92:
448,192,26722,1,0,0:0:0:0:
192,192,26722,1,0,0:0:0:0:
320,192,26722,1,8,0:0:0:92:
320,192,26859,1,0,0:0:0:0:
64,192,26859,1,2,0:0:0:92:
192,192,26997,1,0,0:0:0:0:
320,192,26997,1,0,0:0:0:0:
448,192,26997,1,8,0:0:0:92:
320,192,27135,1,0,0:0:0:0:
64,192,27135,1,0,0:0:0:0:
192,192,27135,1,2,0:0:0:92:
448,0,27272,128,0,27410:0:0:0:0:
192,192,27272,1,0,0:0:0:0:
64,0,27272,128,2,27410:0:0:0:92:
448,192,27547,1,0,0:0:0:0:
64,192,27547,1,0,0:0:0:0:
320,192,27547,1,2,0:0:0:92:
192,192,27616,1,2,0:0:0:92:
64,192,27685,1,0,0:0:0:0:
448,192,27685,1,2,0:0:0:92:
320,192,27754,1,2,0:0:0:92:
64,192,27823,1,0,0:0:0:0:
192,192,27823,1,0,0:0:0:0:
448,192,27823,1,8,0:0:0:92:
192,192,27960,1,0,0:0:0:0:
448,192,28098,1,0,0:0:0:0:
192,192,28098,1,0,0:0:0:0:
320,192,28098,1,2,0:0:0:92:
64,192,28167,1,2,0:0:0:92:
192,192,28236,1,0,0:0:0:0:
448,192,28236,1,2,0:0:0:92:
320,192,28304,1,2,0:0:0:92:
192,192,28373,1,0,0:0:0:0:
448,192,28373,1,0,0:0:0:0:
64,192,28373,1,8,0:0:0:92:
64,192,28511,1,0,0:0:0:0:
320,192,28511,1,2,0:0:0:92:
192,192,28648,1,0,0:0:0:0:
320,192,28648,1,0,0:0:0:0:
448,192,28648,1,8,0:0:0:92:
64,192,28786,1,0,0:0:0:0:
192,192,28786,1,0,0:0:0:0:
448,192,28786,1,2,0:0:0:92:
320,192,28924,1,0,0:0:0:0:
64,0,28924,128,0,29061:0:0:0:0:
448,0,28924,128,2,29061:0:0:0:92:
64,192,29199,1,0,0:0:0:0:
192,192,29199,1,0,0:0:0:0:
320,192,29199,1,2,0:0:0:92:
448,192,29268,1,2,0:0:0:92:
64,192,29336,1,0,0:0:0:0:
320,192,29336,1,2,0:0:0:92:
192,192,29405,1,2,0:0:0:92:
64,192,29474,1,0,0:0:0:0:
320,192,29474,1,0,0:0:0:0:
448,192,29474,1,8,0:0:0:92:
320,192,29612,1,0,0:0:0:0:
192,192,29749,1,0,0:0:0:0:
448,192,29749,1,0,0:0:0:0:
64,192,29749,1,2,0:0:0:92:
320,192,29818,1,2,0:0:0:92:
64,192,29887,1,0,0:0:0:0:
192,192,29887,1,2,0:0:0:92:
448,192,29956,1,2,0:0:0:92:
64,192,30024,1,0,0:0:0:0:
192,192,30024,1,0,0:0:0:0:
320,192,30024,1,8,0:0:0:92:
192,192,30162,1,0,0:0:0:0:
448,192,30162,1,2,0:0:0:92:
64,192,30300,1,0,0:0:0:0:
320,192,30300,1,0,0:0:0:0:
448,192,30300,1,8,0:0:0:92:
64,192,30437,1,0,0:0:0:0:
192,192,30437,1,0,0:0:0:0:
320,192,30437,1,2,0:0:0:92:
320,0,30575,128,0,30713:0:0:0:0:
448,0,30575,128,0,30713:0:0:0:0:
192,192,30575,1,2,0:0:0:92:
64,192,30850,1,0,0:0:0:0:
448,192,30850,1,0,0:0:0:0:
192,192,30850,1,2,0:0:0:92:
320,192,30919,1,2,0:0:0:92:
64,192,30988,1,0,0:0:0:0:
448,192,30988,1,2,0:0:0:92:
192,192,31057,1,2,0:0:0:92:
64,192,31125,1,0,0:0:0:0:
320,192,31125,1,0,0:0:0:0:
448,192,31125,1,8,0:0:0:92:
448,192,31263,1,0,0:0:0:0:
320,192,31401,1,0,0:0:0:0:
192,192,31401,1,0,0:0:0:0:
64,192,31401,1,2,0:0:0:92:
448,192,31469,1,2,0:0:0:92:
320,192,31538,1,0,0:0:0:0:
192,192,31538,1,2,0:0:0:92:
64,192,31607,1,2,0:0:0:92:
320,192,31676,1,0,0:0:0:0:
192,192,31676,1,0,0:0:0:0:
448,192,31676,1,8,0:0:0:92:
320,192,31813,1,0,0:0:0:0:
64,192,31813,1,2,0:0:0:92:
320,192,31951,1,0,0:0:0:0:
448,192,31951,1,0,0:0:0:0:
192,192,31951,1,8,0:0:0:92:
64,192,32089,1,0,0:0:0:0:
448,192,32089,1,0,0:0:0:0:
192,192,32089,1,2,0:0:0:92:
64,192,32226,1,0,0:0:0:0:
320,192,32226,1,0,0:0:0:0:
448,192,32226,1,8,0:0:0:92:
192,192,32295,1,8,0:0:0:92:
448,192,32364,1,0,0:0:0:0:
64,192,32364,1,8,0:0:0:92:
320,192,32433,1,8,0:0:0:92:
64,192,32502,1,0,0:0:0:0:
192,192,32502,1,0,0:0:0:0:
448,192,32502,1,8,0:0:0:92:
64,192,32639,1,0,0:0:0:0:
192,192,32639,1,0,0:0:0:0:
320,192,32639,1,0,0:0:0:92:Mid Tom.wav
192,192,32777,1,0,0:0:0:0:
448,192,32777,1,0,0:0:0:0:
64,192,32777,1,0,0:0:0:92:Low Tom.wav
320,192,32914,1,0,0:0:0:0:
192,192,32914,1,0,0:0:0:0:
448,192,32914,1,8,0:0:0:92:
64,192,33052,1,0,0:0:0:0:
192,192,33052,1,4,0:0:0:0:
320,192,33052,1,2,0:0:0:92:
448,192,33121,1,2,0:0:0:92:
64,192,33190,1,0,0:0:0:0:
192,192,33190,1,2,0:0:0:92:
320,192,33258,1,2,0:0:0:92:
192,192,33327,1,0,0:0:0:0:
448,192,33327,1,0,0:0:0:0:
64,192,33327,1,8,0:0:0:92:
448,192,33465,1,0,0:0:0:0:
64,192,33465,1,2,0:0:0:92:
192,192,33602,1,0,0:0:0:0:
320,192,33602,1,0,0:0:0:0:
448,192,33602,1,8,0:0:0:92:
64,192,33740,1,0,0:0:0:0:
192,192,33740,1,0,0:0:0:0:
320,192,33740,1,2,0:0:0:92:
448,0,33878,128,0,34015:0:0:0:0:
320,192,33878,1,0,0:0:0:0:
64,0,33878,128,2,34015:0:0:0:92:
448,192,34153,1,0,0:0:0:0:
64,192,34153,1,0,0:0:0:0:
192,192,34153,1,2,0:0:0:92:
320,192,34222,1,2,0:0:0:92:
192,192,34291,1,0,0:0:0:0:
448,192,34291,1,2,0:0:0:92:
64,192,34359,1,2,0:0:0:92:
448,192,34428,1,0,0:0:0:0:
320,192,34428,1,0,0:0:0:0:
192,192,34428,1,8,0:0:0:92:
448,192,34566,1,0,0:0:0:0:
320,192,34703,1,0,0:0:0:0:
192,192,34703,1,0,0:0:0:0:
64,192,34703,1,2,0:0:0:92:
448,192,34772,1,2,0:0:0:92:
64,192,34841,1,0,0:0:0:0:
320,192,34841,1,2,0:0:0:92:
192,192,34910,1,2,0:0:0:92:
320,192,34979,1,0,0:0:0:0:
64,192,34979,1,0,0:0:0:0:
448,192,34979,1,8,0:0:0:92:
192,192,35116,1,0,0:0:0:0:
448,192,35116,1,2,0:0:0:92:
448,192,35254,1,0,0:0:0:0:
64,192,35254,1,0,0:0:0:0:
320,192,35254,1,8,0:0:0:92:
64,192,35391,1,0,0:0:0:0:
192,192,35391,1,0,0:0:0:0:
320,192,35391,1,2,0:0:0:92:
192,192,35529,1,0,0:0:0:0:
64,0,35529,128,0,35667:0:0:0:0:
448,0,35529,128,2,35667:0:0:0:92:
64,192,35804,1,0,0:0:0:0:
320,192,35804,1,0,0:0:0:0:
192,192,35804,1,2,0:0:0:92:
448,192,35873,1,2,0:0:0:92:
64,192,35942,1,0,0:0:0:0:
192,192,35942,1,2,0:0:0:92:
448,192,36011,1,2,0:0:0:92:
320,192,36080,1,0,0:0:0:0:
192,0,36080,128,0,36217:0:0:0:0:
64,0,36080,128,8,36217:0:0:0:92:
192,192,36355,1,0,0:0:0:0:
448,192,36355,1,0,0:0:0:0:
320,192,36355,1,2,0:0:0:92:
64,192,36424,1,2,0:0:0:92:
192,192,36492,1,0,0:0:0:0:
320,192,36492,1,2,0:0:0:92:
448,192,36561,1,2,0:0:0:92:
64,192,36630,1,0,0:0:0:0:
192,192,36630,1,0,0:0:0:0:
320,192,36630,1,8,0:0:0:92:
448,192,36768,1,0,0:0:0:0:
64,192,36768,1,2,0:0:0:92:
320,192,36905,1,0,0:0:0:0:
448,192,36905,1,0,0:0:0:0:
192,192,36905,1,8,0:0:0:92:
64,192,37043,1,0,0:0:0:0:
192,192,37043,1,0,0:0:0:0:
320,192,37043,1,2,0:0:0:92:
320,0,37180,128,0,37318:0:0:0:0:
448,0,37180,128,0,37318:0:0:0:0:
192,192,37180,1,2,0:0:0:92:
320,192,37456,1,0,0:0:0:0:
192,192,37456,1,0,0:0:0:0:
64,192,37456,1,2,0:0:0:92:
448,192,37524,1,2,0:0:0:92:
320,192,37593,1,0,0:0:0:0:
64,192,37593,1,2,0:0:0:92:
192,192,37662,1,2,0:0:0:92:
64,192,37731,1,0,0:0:0:0:
320,192,37731,1,0,0:0:0:0:
448,192,37731,1,8,0:0:0:92:
192,192,37869,1,0,0:0:0:0:
448,192,38006,1,0,0:0:0:0:
320,192,38006,1,0,0:0:0:0:
64,192,38006,1,8,0:0:0:92:
192,192,38075,1,8,0:0:0:92:
448,192,38144,1,0,0:0:0:0:
64,192,38144,1,0,0:0:0:0:
320,192,38144,1,8,0:0:0:92:
192,192,38213,1,8,0:0:0:92:
64,192,38281,1,0,0:0:0:0:
320,192,38281,1,0,0:0:0:0:
448,192,38281,1,8,0:0:0:92:
64,192,38419,1,0,0:0:0:0:
448,192,38419,1,0,0:0:0:0:
192,192,38419,1,0,0:0:0:92:Mid Tom.wav
448,192,38557,1,0,0:0:0:0:
320,192,38557,1,0,0:0:0:0:
192,192,38557,1,8,0:0:0:92:
64,192,38694,1,0,0:0:0:0:
192,192,38694,1,0,0:0:0:0:
320,192,38694,1,8,0:0:0:92:
64,192,38832,1,0,0:0:0:0:
320,192,38832,1,0,0:0:0:0:
448,192,38832,1,8,0:0:0:92:
320,192,38969,1,0,0:0:0:0:
64,192,38969,1,0,0:0:0:0:
192,192,38969,1,2,0:0:0:92:
448,192,39107,1,0,0:0:0:0:
192,192,39107,1,0,0:0:0:0:
320,192,39107,1,0,0:0:0:92:Mid Tom.wav
64,192,39245,1,0,0:0:0:0:
320,192,39245,1,0,0:0:0:0:
448,192,39245,1,2,0:0:0:92:
448,192,39382,1,0,0:0:0:0:
192,192,39382,1,8,0:0:0:92:
64,192,39417,1,0,0:0:0:0:
320,192,39417,1,8,0:0:0:92:
320,192,39658,1,0,0:0:0:0:
192,192,39658,1,4,0:0:0:46:
64,192,39658,1,2,0:0:0:46:
64,192,39795,1,0,0:0:0:0:
192,192,39795,1,2,0:0:0:92:
320,192,39933,1,0,0:0:0:0:
448,192,39933,1,8,0:0:0:92:
64,192,40002,1,0,0:0:0:0:
192,192,40002,1,8,0:0:0:92:
448,192,40070,1,0,0:0:0:0:
320,192,40070,1,2,0:0:0:92:
448,192,40208,1,0,0:0:0:0:
64,192,40208,1,8,0:0:0:92:
192,192,40277,1,0,0:0:0:0:
320,192,40277,1,8,0:0:0:92:
64,192,40346,1,0,0:0:0:0:
448,192,40346,1,8,0:0:0:92:
192,192,40414,1,0,0:0:0:0:
320,192,40414,1,8,0:0:0:92:
448,192,40483,1,4,0:0:0:46:
64,192,40483,1,2,0:0:0:46:
320,192,40621,1,0,0:0:0:0:
192,192,40621,1,2,0:0:0:92:
320,192,40758,1,0,0:0:0:0:
64,192,40758,1,8,0:0:0:92:
448,192,40827,1,0,0:0:0:0:
192,192,40827,1,8,0:0:0:92:
64,192,40896,1,0,0:0:0:0:
320,192,40896,1,2,0:0:0:92:
320,192,41034,1,0,0:0:0:0:
448,192,41034,1,8,0:0:0:92:
192,192,41102,1,0,0:0:0:0:
64,192,41102,1,8,0:0:0:92:
320,192,41171,1,0,0:0:0:0:
448,192,41171,1,8,0:0:0:92:
64,192,41240,1,0,0:0:0:0:
192,192,41240,1,8,0:0:0:92:
320,192,41309,1,4,0:0:0:46:
448,0,41309,128,2,41378:0:0:0:46:
192,192,41584,1,0,0:0:0:0:
64,0,41584,128,0,41653:0:0:0:0:
320,192,41722,1,0,0:0:0:0:
192,0,41859,128,0,41928:0:0:0:0:
448,192,41859,1,0,0:0:0:0:
64,192,42135,1,0,0:0:0:0:
320,0,42135,128,0,42203:0:0:0:0:
448,192,42410,1,0,0:0:0:0:
320,0,42410,128,0,42479:0:0:0:0:
192,192,42547,1,0,0:0:0:0:
448,0,42685,128,0,42754:0:0:0:0:
192,192,42960,1,0,0:0:0:0:
64,0,42960,128,0,43029:0:0:0:0:
320,192,43098,1,0,0:0:0:0:
448,192,43373,1,0,0:0:0:0:
320,192,43648,1,0,0:0:0:0:
64,192,43786,1,0,0:0:0:0:
192,0,43786,128,0,43855:0:0:0:0:
320,192,43924,1,0,0:0:0:0:
64,192,44199,1,0,0:0:0:0:
192,192,44612,1,0,0:0:0:0:
64,192,44749,1,0,0:0:0:0:
192,192,44887,1,0,0:0:0:0:
448,192,45024,1,0,0:0:0:0:
320,192,45300,1,0,0:0:0:0:
192,0,45437,128,0,45506:0:0:0:0:
448,192,45437,1,0,0:0:0:0:
320,192,45713,1,0,0:0:0:0:
448,0,45713,128,0,45781:0:0:0:0:
64,192,45850,1,0,0:0:0:0:
320,0,45988,128,0,46057:0:0:0:0:
192,192,46125,1,0,0:0:0:0:
448,192,46263,1,0,0:0:0:0:
64,0,46263,128,0,46332:0:0:0:0:
448,192,46676,1,0,0:0:0:0:
320,0,46676,128,0,46745:0:0:0:0:
192,0,47089,128,0,47158:0:0:0:0:
320,192,47089,1,0,0:0:0:0:
192,192,47502,1,0,0:0:0:0:
64,0,47502,128,0,47570:0:0:0:0:
192,192,47914,1,0,0:0:0:0:
448,0,47914,128,0,47983:0:0:0:0:
64,192,48190,1,0,0:0:0:0:
320,192,48327,1,0,0:0:0:0:
448,192,48465,1,0,0:0:0:0:
64,192,48740,1,0,0:0:0:0:
192,0,48740,128,0,48809:0:0:0:0:
448,192,49015,1,0,0:0:0:0:
320,0,49015,128,0,49084:0:0:0:0:
64,192,49153,1,0,0:0:0:0:
192,0,49291,128,0,49359:0:0:0:0:
192,192,49566,1,0,0:0:0:0:
448,0,49566,128,0,49635:0:0:0:0:
320,192,49703,1,0,0:0:0:0:
448,192,49979,1,0,0:0:0:0:
320,0,50116,128,0,50185:0:0:0:0:
192,192,50254,1,0,0:0:0:0:
64,192,50391,1,0,0:0:0:0:
320,192,50529,1,0,0:0:0:0:
64,192,50804,1,0,0:0:0:0:
192,192,51217,1,0,0:0:0:0:
64,192,51355,1,0,0:0:0:0:
192,192,51492,1,0,0:0:0:0:
448,192,51630,1,0,0:0:0:0:
192,192,51905,1,0,0:0:0:0:
320,192,52043,1,0,0:0:0:0:
448,192,52318,1,0,0:0:0:0:
192,192,52456,1,0,0:0:0:0:
320,192,52731,1,0,0:0:0:0:
448,0,52869,128,0,52960:0:0:0:0:
64,192,52869,1,0,0:0:0:0:
192,0,53052,128,0,53144:0:0:0:0:
448,192,53281,1,0,0:0:0:0:
320,0,53281,128,0,53373:0:0:0:0:
64,0,53419,128,0,53511:0:0:0:0:
448,0,53694,128,0,53786:0:0:0:0:
192,192,53694,1,0,0:0:0:0:
320,0,53878,128,0,53969:0:0:0:0:
192,192,54107,1,0,0:0:0:0:
64,0,54107,128,0,54199:0:0:0:0:
320,0,54382,128,0,54474:0:0:0:0:
64,192,54520,1,0,0:0:0:0:
192,192,54520,1,4,0:0:0:0:
448,192,54520,1,8,0:0:0:92:
64,192,54658,1,0,0:0:0:0:
320,192,54658,1,2,0:0:0:92:
448,192,54795,1,0,0:0:0:0:
192,192,54795,1,2,0:0:0:92:
320,192,54933,1,0,0:0:0:0:
448,192,54933,1,0,0:0:0:0:
64,192,54933,1,8,0:0:0:92:
192,192,55070,1,0,0:0:0:0:
64,192,55070,1,2,0:0:0:92:
320,192,55208,1,0,0:0:0:0:
448,192,55208,1,2,0:0:0:92:
64,192,55346,1,0,0:0:0:0:
448,192,55346,1,0,0:0:0:0:
192,192,55346,1,8,0:0:0:92:
192,192,55483,1,0,0:0:0:0:
320,192,55483,1,2,0:0:0:92:
64,192,55621,1,0,0:0:0:0:
448,192,55621,1,8,0:0:0:92:
192,192,55655,1,8,0:0:0:92:
320,192,55758,1,0,0:0:0:0:
448,192,55758,1,2,0:0:0:92:
64,192,55896,1,0,0:0:0:0:
192,192,55896,1,0,0:0:0:0:
448,192,55896,1,8,0:0:0:92:
64,192,56034,1,0,0:0:0:0:
320,192,56034,1,2,0:0:0:92:
320,192,56171,1,0,0:0:0:0:
192,192,56171,1,0,0:0:0:0:
448,192,56171,1,8,0:0:0:92:
320,192,56309,1,0,0:0:0:0:
64,192,56309,1,2,0:0:0:92:
64,192,56447,1,0,0:0:0:0:
448,192,56447,1,2,0:0:0:92:
192,192,56584,1,0,0:0:0:0:
320,192,56584,1,0,0:0:0:0:
448,192,56584,1,8,0:0:0:92:
320,192,56722,1,0,0:0:0:0:
64,192,56722,1,2,0:0:0:92:
448,192,56859,1,0,0:0:0:0:
192,192,56859,1,2,0:0:0:92:
64,192,56997,1,0,0:0:0:0:
192,192,56997,1,0,0:0:0:0:
320,192,56997,1,8,0:0:0:92:
192,192,57135,1,0,0:0:0:0:
448,192,57135,1,2,0:0:0:92:
448,192,57272,1,0,0:0:0:0:
64,192,57272,1,8,0:0:0:92:
320,192,57307,1,8,0:0:0:92:
64,192,57410,1,0,0:0:0:0:
192,192,57410,1,2,0:0:0:92:
320,192,57547,1,0,0:0:0:0:
448,192,57547,1,0,0:0:0:0:
192,192,57547,1,8,0:0:0:92:
64,192,57685,1,0,0:0:0:0:
320,192,57685,1,2,0:0:0:92:
64,192,57823,1,0,0:0:0:0:
192,192,57823,1,0,0:0:0:0:
448,192,57823,1,8,0:0:0:92:
320,192,57960,1,0,0:0:0:0:
192,192,57960,1,2,0:0:0:92:
320,192,58098,1,0,0:0:0:0:
448,192,58098,1,2,0:0:0:92:
448,192,58236,1,0,0:0:0:0:
64,192,58236,1,0,0:0:0:0:
192,192,58236,1,8,0:0:0:92:
64,192,58373,1,0,0:0:0:0:
320,192,58373,1,2,0:0:0:92:
192,192,58511,1,0,0:0:0:0:
448,192,58511,1,2,0:0:0:92:
320,192,58648,1,0,0:0:0:0:
448,192,58648,1,0,0:0:0:0:
64,192,58648,1,8,0:0:0:92:
320,192,58786,1,0,0:0:0:0:
192,192,58786,1,2,0:0:0:92:
192,192,58924,1,0,0:0:0:0:
64,192,58924,1,0,0:0:0:0:
448,192,58924,1,8,0:0:0:92:
320,192,59061,1,0,0:0:0:0:
448,192,59061,1,2,0:0:0:92:
320,192,59199,1,0,0:0:0:0:
192,192,59199,1,8,0:0:0:92:
64,192,59245,1,0,0:0:0:0:
192,192,59336,1,0,0:0:0:0:
320,192,59336,1,2,0:0:0:92:
64,192,59474,1,0,0:0:0:0:
320,192,59474,1,0,0:0:0:0:
448,192,59474,1,8,0:0:0:92:
192,192,59612,1,0,0:0:0:0:
64,192,59612,1,2,0:0:0:92:
192,192,59749,1,0,0:0:0:0:
448,192,59749,1,2,0:0:0:92:
320,192,59887,1,0,0:0:0:0:
64,192,59887,1,0,0:0:0:0:
448,192,59887,1,8,0:0:0:92:
320,192,60024,1,0,0:0:0:0:
192,192,60024,1,2,0:0:0:92:
64,192,60162,1,0,0:0:0:0:
448,192,60162,1,2,0:0:0:92:
64,192,60300,1,0,0:0:0:0:
320,192,60300,1,0,0:0:0:0:
192,192,60300,1,0,0:0:0:92:Mid Tom.wav
192,192,60437,1,0,0:0:0:0:
448,192,60437,1,2,0:0:0:92:
320,192,60529,1,0,0:0:0:0:
192,192,60575,1,0,0:0:0:0:
64,192,60575,1,8,0:0:0:92:
64,192,60713,1,0,0:0:0:0:
448,192,60713,1,2,0:0:0:92:
448,192,60850,1,0,0:0:0:0:
192,192,60850,1,0,0:0:0:0:
320,192,60850,1,8,0:0:0:92:
320,192,60988,1,0,0:0:0:0:
64,192,60988,1,0,0:0:0:0:
192,192,60988,1,2,0:0:0:92:
448,192,61125,1,0,0:0:0:0:
320,192,61125,1,0,0:0:0:0:
64,192,61125,1,8,0:0:0:92:
64,192,61263,1,0,0:0:0:0:
192,192,61263,1,2,0:0:0:92:
192,192,61401,1,0,0:0:0:0:
448,192,61401,1,2,0:0:0:92:
320,192,61538,1,0,0:0:0:0:
448,192,61538,1,0,0:0:0:0:
64,192,61538,1,8,0:0:0:92:
64,192,61676,1,0,0:0:0:0:
192,192,61676,1,2,0:0:0:92:
448,192,61813,1,0,0:0:0:0:
320,192,61813,1,2,0:0:0:92:
448,192,61951,1,0,0:0:0:0:
192,192,61951,1,0,0:0:0:0:
320,192,61951,1,8,0:0:0:92:
64,192,62089,1,0,0:0:0:0:
320,192,62089,1,2,0:0:0:92:
448,192,62226,1,0,0:0:0:0:
320,192,62226,1,8,0:0:0:92:
192,192,62261,1,8,0:0:0:92:
448,192,62364,1,0,0:0:0:0:
64,192,62364,1,2,0:0:0:92:
192,192,62502,1,0,0:0:0:0:
320,192,62502,1,0,0:0:0:0:
64,192,62502,1,8,0:0:0:92:
320,192,62639,1,0,0:0:0:0:
448,192,62639,1,2,0:0:0:92:
64,192,62777,1,0,0:0:0:0:
192,192,62777,1,0,0:0:0:0:
448,192,62777,1,8,0:0:0:92:
320,192,62914,1,0,0:0:0:0:
64,192,62914,1,2,0:0:0:92:
192,192,63052,1,0,0:0:0:0:
448,192,63052,1,2,0:0:0:92:
448,192,63190,1,0,0:0:0:0:
320,192,63190,1,0,0:0:0:0:
64,192,63190,1,8,0:0:0:92:
192,192,63327,1,0,0:0:0:0:
320,192,63327,1,2,0:0:0:92:
192,192,63465,1,0,0:0:0:0:
64,192,63465,1,2,0:0:0:92:
448,192,63602,1,0,0:0:0:0:
320,192,63602,1,0,0:0:0:0:
192,192,63602,1,8,0:0:0:92:
64,192,63740,1,0,0:0:0:0:
320,192,63740,1,2,0:0:0:92:
192,192,63878,1,0,0:0:0:0:
64,192,63878,1,8,0:0:0:92:
448,192,63912,1,8,0:0:0:92:
192,192,64015,1,0,0:0:0:0:
320,192,64015,1,2,0:0:0:92:
320,192,64153,1,0,0:0:0:0:
448,192,64153,1,0,0:0:0:0:
64,192,64153,1,8,0:0:0:92:
64,192,64291,1,0,0:0:0:0:
192,192,64291,1,2,0:0:0:92:
448,192,64428,1,0,0:0:0:0:
320,192,64428,1,0,0:0:0:0:
64,192,64428,1,8,0:0:0:92:
192,192,64566,1,0,0:0:0:0:
320,192,64566,1,2,0:0:0:92:
448,192,64703,1,0,0:0:0:0:
192,192,64703,1,2,0:0:0:92:
320,192,64841,1,0,0:0:0:0:
448,192,64841,1,0,0:0:0:0:
64,192,64841,1,8,0:0:0:92:
192,192,64979,1,0,0:0:0:0:
448,192,64979,1,2,0:0:0:92:
192,192,65116,1,0,0:0:0:0:
64,192,65116,1,2,0:0:0:92:
64,192,65254,1,0,0:0:0:0:
192,192,65254,1,0,0:0:0:0:
320,192,65254,1,8,0:0:0:92:
320,192,65391,1,0,0:0:0:0:
448,192,65391,1,2,0:0:0:92:
448,192,65529,1,0,0:0:0:0:
192,192,65529,1,0,0:0:0:0:
64,192,65529,1,8,0:0:0:92:
448,192,65667,1,0,0:0:0:0:
320,192,65667,1,0,0:0:0:0:
192,192,65667,1,8,0:0:0:92:
64,192,65804,1,0,0:0:0:0:
320,192,65804,1,0,0:0:0:0:
448,192,65804,1,8,0:0:0:92:
64,192,65942,1,0,0:0:0:0:
320,192,65942,1,0,0:0:0:0:
192,192,65942,1,0,0:0:0:92:Mid Tom.wav
448,192,66080,1,0,0:0:0:0:
64,192,66080,1,0,0:0:0:0:
192,192,66080,1,8,0:0:0:92:
448,192,66217,1,0,0:0:0:0:
192,192,66217,1,0,0:0:0:0:
320,192,66217,1,8,0:0:0:92:
64,192,66355,1,0,0:0:0:0:
320,192,66355,1,0,0:0:0:0:
448,192,66355,1,8,0:0:0:92:
192,192,66492,1,0,0:0:0:0:
64,192,66492,1,0,0:0:0:0:
448,192,66492,1,8,0:0:0:92:
192,192,66630,1,0,0:0:0:0:
448,192,66630,1,0,0:0:0:92:Mid Tom.wav
320,192,66768,1,0,0:0:0:0:
192,192,66768,1,0,0:0:0:92:Mid Tom.wav
192,192,66905,1,0,0:0:0:0:
320,192,66905,1,0,0:0:0:0:
64,192,66905,1,8,0:0:0:92:
192,192,67043,1,0,0:0:0:0:
448,192,67043,1,0,0:0:0:0:
64,192,67043,1,8,0:0:0:92:
448,192,67180,1,0,0:0:0:0:
64,192,67180,1,0,0:0:0:92:Mid Tom.wav
320,192,67318,1,0,0:0:0:0:
64,192,67318,1,0,0:0:0:92:Mid Tom.wav
64,192,67456,1,0,0:0:0:0:
192,192,67456,1,0,0:0:0:92:Low Tom.wav
192,192,67593,1,0,0:0:0:0:
320,192,67593,1,0,0:0:0:92:Low Tom.wav
64,192,67731,1,0,0:0:0:0:
192,192,67731,1,0,0:0:0:0:
320,192,67731,1,4,0:0:0:0:
448,192,67731,1,2,0:0:0:92:
448,192,67869,1,0,0:0:0:0:
320,192,68006,1,0,0:0:0:0:
192,192,68144,1,0,0:0:0:0:
320,192,68419,1,0,0:0:0:0:
64,192,68557,1,0,0:0:0:0:
448,0,68557,128,0,68625:0:0:0:0:
192,192,68832,1,0,0:0:0:0:
320,0,68832,128,0,68901:0:0:0:0:
64,192,69107,1,0,0:0:0:0:
448,0,69107,128,0,69176:0:0:0:0:
320,0,69382,128,0,69451:0:0:0:0:
64,192,69382,1,0,0:0:0:0:
64,0,69520,128,0,69589:0:0:0:0:
192,192,69795,1,0,0:0:0:0:
448,0,69933,128,0,70002:0:0:0:0:
64,192,69933,1,0,0:0:0:0:
320,192,70070,1,0,0:0:0:0:
448,192,70208,1,0,0:0:0:0:
192,0,70208,128,0,70277:0:0:0:0:
64,192,70483,1,0,0:0:0:0:
448,0,70483,128,0,70552:0:0:0:0:
320,0,70758,128,0,70827:0:0:0:0:
192,192,70758,1,0,0:0:0:0:
64,192,71034,1,0,0:0:0:0:
320,0,71034,128,0,71102:0:0:0:0:
192,192,71171,1,0,0:0:0:0:
320,192,71309,1,0,0:0:0:0:
448,192,71447,1,0,0:0:0:0:
192,0,71584,128,0,71653:0:0:0:0:
64,0,71859,128,0,71928:0:0:0:0:
448,192,71859,1,0,0:0:0:0:
320,192,71997,1,0,0:0:0:0:
192,0,72135,128,0,72203:0:0:0:0:
448,192,72135,1,0,0:0:0:0:
64,192,72272,1,0,0:0:0:0:
320,0,72410,128,0,72479:0:0:0:0:
64,192,72685,1,0,0:0:0:0:
192,192,72685,1,4,0:0:0:0:
448,192,72685,1,8,0:0:0:92:
320,192,72823,1,0,0:0:0:0:
192,192,72823,1,2,0:0:0:92:
64,192,72960,1,0,0:0:0:0:
320,192,72960,1,2,0:0:0:92:
192,192,73098,1,0,0:0:0:0:
448,192,73098,1,0,0:0:0:0:
64,192,73098,1,8,0:0:0:92:
320,192,73236,1,0,0:0:0:0:
448,192,73236,1,2,0:0:0:92:
64,192,73373,1,0,0:0:0:0:
320,192,73373,1,2,0:0:0:92:
448,192,73511,1,0,0:0:0:0:
64,192,73511,1,0,0:0:0:0:
192,192,73511,1,8,0:0:0:92:
320,192,73648,1,0,0:0:0:0:
192,192,73648,1,2,0:0:0:92:
448,192,73786,1,0,0:0:0:0:
64,192,73786,1,0,0:0:0:0:
320,192,73786,1,0,0:0:0:92:Mid Tom.wav
64,192,73924,1,0,0:0:0:0:
192,192,73924,1,2,0:0:0:92:
448,192,74061,1,0,0:0:0:0:
320,192,74061,1,8,0:0:0:92:
192,192,74096,1,8,0:0:0:92:
320,192,74336,1,0,0:0:0:70:HiHat.wav
64,192,74336,1,4,0:0:0:0:
192,192,74336,1,2,0:0:0:0:
448,192,74474,1,0,0:0:0:0:
64,192,74612,1,0,0:0:0:0:
320,192,74612,1,0,0:0:0:70:HiHat.wav
192,192,74749,1,0,0:0:0:0:
448,192,74887,1,0,0:0:0:70:HiHat.wav
320,192,75024,1,0,0:0:0:0:
448,0,75162,128,0,75231:0:0:0:0:
64,192,75162,1,8,0:0:0:0:
192,192,75162,1,0,0:0:0:70:HiHat.wav
192,192,75437,1,0,0:0:0:0:
320,0,75437,128,0,75506:0:0:0:70:HiHat.wav
64,192,75713,1,0,0:0:0:0:
448,0,75713,128,0,75781:0:0:0:70:HiHat.wav
320,0,75988,128,2,76057:0:0:0:0:
192,192,75988,1,0,0:0:0:70:HiHat.wav
64,0,76263,128,0,76332:0:0:0:70:HiHat.wav
192,192,76401,1,0,0:0:0:0:
448,192,76538,1,0,0:0:0:0:
320,192,76538,1,0,0:0:0:70:HiHat.wav
64,192,76676,1,0,0:0:0:0:
192,192,76813,1,0,0:0:0:0:
448,192,76813,1,8,0:0:0:0:
320,0,76813,128,0,76882:0:0:0:70:HiHat.wav
448,0,77089,128,0,77158:0:0:0:0:
64,192,77089,1,0,0:0:0:70:HiHat.wav
320,192,77364,1,0,0:0:0:0:
192,0,77364,128,0,77433:0:0:0:70:HiHat.wav
448,192,77639,1,2,0:0:0:0:
64,0,77639,128,0,77708:0:0:0:70:HiHat.wav
192,192,77777,1,0,0:0:0:0:
64,192,77914,1,0,0:0:0:0:
320,0,77914,128,0,77983:0:0:0:70:HiHat.wav
448,0,78052,128,0,78121:0:0:0:0:
320,192,78052,1,0,0:0:0:0:
192,0,78190,128,0,78327:0:0:0:0:
448,192,78190,1,0,0:0:0:70:HiHat.wav
64,192,78465,1,0,0:0:0:0:
192,192,78465,1,8,0:0:0:0:
448,0,78465,128,0,78534:0:0:0:70:HiHat.wav
320,192,78602,1,0,0:0:0:0:
192,192,78740,1,0,0:0:0:0:
64,0,78740,128,0,78809:0:0:0:70:HiHat.wav
448,192,78878,1,0,0:0:0:0:
320,192,79015,1,0,0:0:0:70:HiHat.wav
448,192,79291,1,0,0:0:0:0:
192,192,79291,1,4,0:0:0:0:
64,192,79291,1,8,0:0:0:92:
64,192,79428,1,0,0:0:0:0:
320,192,79428,1,2,0:0:0:92:
448,192,79566,1,0,0:0:0:0:
192,192,79566,1,2,0:0:0:92:
448,192,79703,1,0,0:0:0:0:
64,192,79703,1,0,0:0:0:0:
320,192,79703,1,8,0:0:0:92:
64,192,79841,1,0,0:0:0:0:
192,192,79841,1,2,0:0:0:92:
448,192,79979,1,0,0:0:0:0:
320,192,79979,1,2,0:0:0:92:
64,192,80116,1,0,0:0:0:0:
192,192,80116,1,8,0:0:0:92:
448,192,80116,1,4,0:0:0:0:
320,192,80254,1,0,0:0:0:0:
64,192,80254,1,2,0:0:0:92:
192,192,80391,1,0,0:0:0:0:
320,192,80391,1,0,0:0:0:0:
448,192,80391,1,0,0:0:0:92:Mid Tom.wav
64,192,80529,1,0,0:0:0:0:
192,192,80529,1,2,0:0:0:92:
448,192,80667,1,0,0:0:0:0:
64,192,80667,1,0,0:0:0:0:
320,192,80667,1,8,0:0:0:92:
192,192,80701,1,8,0:0:0:92:
448,192,80942,1,0,0:0:0:0:
320,192,80942,1,0,0:0:0:0:
64,192,80942,1,4,0:0:0:0:
192,192,80942,1,2,0:0:0:92:
320,192,81080,1,0,0:0:0:0:
64,192,81080,1,0,0:0:0:0:
192,192,81080,1,2,0:0:0:92:
448,192,81217,1,0,0:0:0:0:
64,192,81217,1,0,0:0:0:0:
320,192,81217,1,2,0:0:0:92:
320,192,81355,1,0,0:0:0:0:
64,192,81355,1,0,0:0:0:0:
192,192,81355,1,2,0:0:0:92:
448,192,81492,1,0,0:0:0:0:
192,192,81492,1,0,0:0:0:0:
320,192,81492,1,2,0:0:0:92:
320,192,81630,1,0,0:0:0:0:
64,192,81630,1,0,0:0:0:0:
448,192,81630,1,2,0:0:0:92:
320,192,81768,1,0,0:0:0:0:
64,192,81768,1,0,0:0:0:0:
192,192,81768,1,2,0:0:0:92:
448,192,81768,1,8,0:0:0:92:
64,192,81905,1,0,0:0:0:0:
320,192,81905,1,0,0:0:0:0:
192,192,81905,1,2,0:0:0:92:
320,192,82043,1,0,0:0:0:0:
448,192,82043,1,0,0:0:0:0:
192,192,82043,1,2,0:0:0:92:
448,192,82180,1,0,0:0:0:0:
64,192,82180,1,0,0:0:0:0:
320,192,82180,1,2,0:0:0:92:
192,192,82318,1,0,0:0:0:0:
320,192,82318,1,0,0:0:0:0:
64,192,82318,1,2,0:0:0:92:
448,192,82387,1,2,0:0:0:92:
64,192,82456,1,0,0:0:0:0:
192,192,82456,1,0,0:0:0:0:
320,192,82456,1,2,0:0:0:92:
448,192,82524,1,2,0:0:0:92:
192,192,82593,1,0,0:0:0:0:
320,192,82593,1,0,0:0:0:0:
64,192,82593,1,2,0:0:0:92:
320,192,82731,1,0,0:0:0:0:
448,192,82731,1,0,0:0:0:0:
192,192,82731,1,2,0:0:0:92:
448,192,82869,1,0,0:0:0:0:
64,192,82869,1,0,0:0:0:0:
192,192,82869,1,2,0:0:0:92:
192,192,83006,1,0,0:0:0:0:
320,192,83006,1,0,0:0:0:0:
64,192,83006,1,2,0:0:0:92:
320,192,83144,1,0,0:0:0:0:
192,192,83144,1,0,0:0:0:0:
448,192,83144,1,2,0:0:0:92:
448,192,83281,1,0,0:0:0:0:
64,192,83281,1,0,0:0:0:0:
320,192,83281,1,2,0:0:0:92:
64,192,83419,1,0,0:0:0:0:
448,192,83419,1,0,0:0:0:0:
320,192,83419,1,2,0:0:0:92:
192,192,83419,1,8,0:0:0:92:
320,192,83557,1,0,0:0:0:0:
448,192,83557,1,0,0:0:0:0:
192,192,83557,1,2,0:0:0:92:
320,192,83694,1,0,0:0:0:0:
448,192,83694,1,0,0:0:0:0:
64,192,83694,1,2,0:0:0:92:
320,192,83832,1,0,0:0:0:0:
64,192,83832,1,0,0:0:0:0:
192,192,83832,1,2,0:0:0:92:
448,192,83969,1,0,0:0:0:0:
320,192,83969,1,0,0:0:0:0:
192,192,83969,1,2,0:0:0:92:
64,192,84038,1,2,0:0:0:92:
192,192,84107,1,0,0:0:0:0:
320,192,84107,1,0,0:0:0:0:
448,192,84107,1,2,0:0:0:92:
64,192,84176,1,2,0:0:0:92:
448,192,84245,1,0,0:0:0:0:
320,192,84245,1,0,0:0:0:0:
192,192,84245,1,2,0:0:0:92:
448,192,84382,1,0,0:0:0:0:
64,192,84382,1,0,0:0:0:0:
192,192,84382,1,2,0:0:0:92:
64,192,84520,1,0,0:0:0:0:
320,192,84520,1,0,0:0:0:0:
448,192,84520,1,2,0:0:0:92:
320,192,84658,1,0,0:0:0:0:
64,192,84658,1,0,0:0:0:0:
192,192,84658,1,2,0:0:0:92:
192,192,84795,1,0,0:0:0:0:
448,192,84795,1,0,0:0:0:0:
320,192,84795,1,2,0:0:0:92:
64,192,84933,1,0,0:0:0:0:
192,192,84933,1,0,0:0:0:0:
448,192,84933,1,2,0:0:0:92:
64,192,85070,1,0,0:0:0:0:
192,192,85070,1,0,0:0:0:0:
320,192,85070,1,2,0:0:0:92:
448,192,85070,1,8,0:0:0:92:
192,192,85208,1,0,0:0:0:0:
320,192,85208,1,0,0:0:0:0:
448,192,85208,1,2,0:0:0:92:
64,192,85346,1,0,0:0:0:0:
320,192,85346,1,0,0:0:0:0:
448,192,85346,1,2,0:0:0:92:
320,192,85483,1,0,0:0:0:0:
64,192,85483,1,0,0:0:0:0:
192,192,85483,1,2,0:0:0:92:
192,192,85621,1,0,0:0:0:0:
448,192,85621,1,0,0:0:0:0:
64,192,85621,1,2,0:0:0:92:
320,192,85690,1,2,0:0:0:92:
448,192,85758,1,0,0:0:0:0:
64,192,85758,1,0,0:0:0:0:
192,192,85758,1,2,0:0:0:92:
320,192,85827,1,2,0:0:0:92:
64,192,85896,1,0,0:0:0:0:
192,192,85896,1,0,0:0:0:0:
448,192,85896,1,2,0:0:0:92:
64,192,86034,1,0,0:0:0:0:
320,192,86034,1,0,0:0:0:0:
448,192,86034,1,2,0:0:0:92:
320,192,86171,1,0,0:0:0:0:
448,192,86171,1,0,0:0:0:0:
192,192,86171,1,2,0:0:0:92:
320,192,86309,1,0,0:0:0:0:
192,192,86309,1,0,0:0:0:0:
64,192,86309,1,2,0:0:0:92:
64,192,86447,1,0,0:0:0:0:
192,192,86447,1,0,0:0:0:0:
448,192,86447,1,2,0:0:0:92:
448,192,86584,1,0,0:0:0:0:
192,192,86584,1,0,0:0:0:0:
320,192,86584,1,2,0:0:0:92:
320,192,86722,1,0,0:0:0:0:
448,192,86722,1,2,0:0:0:92:
64,192,86722,1,8,0:0:0:92:
192,192,86791,1,2,0:0:0:92:
64,192,86859,1,0,0:0:0:0:
448,192,86859,1,2,0:0:0:92:
320,192,86928,1,2,0:0:0:92:
64,192,86997,1,0,0:0:0:0:
192,192,86997,1,0,0:0:0:0:
448,192,86997,1,2,0:0:0:92:
320,192,87066,1,2,0:0:0:92:
192,192,87135,1,0,0:0:0:0:
448,192,87135,1,2,0:0:0:92:
64,192,87203,1,2,0:0:0:92:
448,192,87272,1,0,0:0:0:0:
192,192,87272,1,0,0:0:0:0:
320,192,87272,1,2,0:0:0:92:
64,192,87341,1,2,0:0:0:92:
192,192,87410,1,0,0:0:0:0:
320,192,87410,1,2,0:0:0:92:
448,192,87479,1,2,0:0:0:92:
192,192,87547,1,0,0:0:0:0:
320,192,87547,1,0,0:0:0:0:
64,192,87547,1,2,0:0:0:92:
64,192,87685,1,0,0:0:0:0:
448,192,87685,1,0,0:0:0:0:
192,192,87685,1,2,0:0:0:92:
64,192,87823,1,0,0:0:0:0:
320,192,87823,1,0,0:0:0:0:
448,192,87823,1,2,0:0:0:92:
192,192,87960,1,0,0:0:0:0:
320,192,87960,1,0,0:0:0:0:
448,192,87960,1,2,0:0:0:92:
64,192,88098,1,0,0:0:0:0:
192,192,88098,1,0,0:0:0:0:
320,192,88098,1,2,0:0:0:92:
320,192,88236,1,0,0:0:0:0:
448,192,88236,1,0,0:0:0:0:
192,192,88236,1,2,0:0:0:92:
64,192,88373,1,0,0:0:0:0:
192,192,88373,1,0,0:0:0:0:
320,192,88373,1,2,0:0:0:92:
448,192,88373,1,8,0:0:0:92:
192,192,88511,1,0,0:0:0:0:
448,192,88511,1,0,0:0:0:0:
64,192,88511,1,2,0:0:0:92:
192,192,88648,1,0,0:0:0:0:
448,192,88648,1,0,0:0:0:0:
320,192,88648,1,2,0:0:0:92:
64,192,88786,1,0,0:0:0:0:
192,192,88786,1,0,0:0:0:0:
320,192,88786,1,2,0:0:0:92:
64,192,88924,1,0,0:0:0:0:
320,192,88924,1,0,0:0:0:0:
448,192,88924,1,2,0:0:0:92:
192,192,88992,1,2,0:0:0:92:
448,192,89061,1,0,0:0:0:0:
320,192,89061,1,0,0:0:0:0:
64,192,89061,1,2,0:0:0:92:
192,192,89130,1,2,0:0:0:92:
64,192,89199,1,0,0:0:0:0:
320,192,89199,1,0,0:0:0:0:
448,192,89199,1,2,0:0:0:92:
192,192,89336,1,0,0:0:0:0:
320,192,89336,1,0,0:0:0:0:
64,192,89336,1,2,0:0:0:92:
192,192,89474,1,0,0:0:0:0:
64,192,89474,1,0,0:0:0:0:
448,192,89474,1,2,0:0:0:92:
448,192,89612,1,0,0:0:0:0:
192,192,89612,1,0,0:0:0:0:
320,192,89612,1,2,0:0:0:92:
64,192,89749,1,0,0:0:0:0:
192,192,89749,1,0,0:0:0:0:
320,192,89749,1,2,0:0:0:92:
64,192,89887,1,0,0:0:0:0:
192,192,89887,1,0,0:0:0:0:
448,192,89887,1,2,0:0:0:92:
192,192,90024,1,0,0:0:0:0:
64,192,90024,1,0,0:0:0:0:
320,192,90024,1,8,0:0:0:92:
448,192,90024,1,2,0:0:0:92:
192,192,90162,1,0,0:0:0:0:
320,192,90162,1,0,0:0:0:0:
448,192,90162,1,2,0:0:0:92:
320,192,90300,1,0,0:0:0:0:
64,192,90300,1,0,0:0:0:0:
192,192,90300,1,2,0:0:0:92:
192,192,90437,1,0,0:0:0:0:
448,192,90437,1,0,0:0:0:0:
64,192,90437,1,2,0:0:0:92:
320,192,90575,1,0,0:0:0:0:
64,192,90575,1,0,0:0:0:0:
192,192,90575,1,2,0:0:0:92:
448,192,90644,1,2,0:0:0:92:
64,192,90713,1,0,0:0:0:0:
192,192,90713,1,0,0:0:0:0:
320,192,90713,1,2,0:0:0:92:
448,192,90781,1,2,0:0:0:92:
64,192,90850,1,0,0:0:0:0:
192,192,90850,1,0,0:0:0:0:
320,192,90850,1,2,0:0:0:92:
192,192,90988,1,0,0:0:0:0:
320,192,90988,1,0,0:0:0:0:
448,192,90988,1,2,0:0:0:92:
320,192,91125,1,0,0:0:0:0:
448,192,91125,1,0,0:0:0:0:
64,192,91125,1,2,0:0:0:92:
320,192,91263,1,0,0:0:0:0:
64,192,91263,1,0,0:0:0:0:
192,192,91263,1,2,0:0:0:92:
320,192,91401,1,0,0:0:0:0:
192,192,91401,1,0,0:0:0:0:
448,192,91401,1,2,0:0:0:92:
448,192,91538,1,0,0:0:0:0:
320,192,91538,1,0,0:0:0:0:
64,192,91538,1,2,0:0:0:92:
64,192,91676,1,0,0:0:0:0:
192,192,91676,1,0,0:0:0:0:
320,192,91676,1,2,0:0:0:92:
448,192,91676,1,8,0:0:0:92:
320,192,91813,1,0,0:0:0:0:
192,192,91813,1,0,0:0:0:0:
64,192,91813,1,2,0:0:0:92:
448,192,91951,1,0,0:0:0:0:
320,192,91951,1,0,0:0:0:0:
192,192,91951,1,2,0:0:0:92:
64,192,92089,1,0,0:0:0:0:
320,192,92089,1,0,0:0:0:0:
448,192,92089,1,2,0:0:0:92:
192,192,92226,1,0,0:0:0:0:
320,192,92226,1,0,0:0:0:0:
448,192,92226,1,2,0:0:0:92:
64,192,92295,1,2,0:0:0:92:
320,192,92364,1,0,0:0:0:0:
448,192,92364,1,0,0:0:0:0:
192,192,92364,1,2,0:0:0:92:
64,192,92433,1,2,0:0:0:92:
192,192,92502,1,0,0:0:0:0:
320,192,92502,1,0,0:0:0:0:
448,192,92502,1,2,0:0:0:92:
192,192,92639,1,0,0:0:0:0:
320,192,92639,1,0,0:0:0:0:
64,192,92639,1,2,0:0:0:92:
448,192,92777,1,0,0:0:0:0:
64,192,92777,1,0,0:0:0:0:
192,192,92777,1,2,0:0:0:92:
192,192,92914,1,0,0:0:0:0:
320,192,92914,1,0,0:0:0:0:
448,192,92914,1,2,0:0:0:92:
192,192,93052,1,0,0:0:0:0:
320,192,93052,1,0,0:0:0:0:
64,192,93052,1,2,0:0:0:92:
448,192,93190,1,0,0:0:0:0:
64,192,93190,1,0,0:0:0:0:
192,192,93190,1,2,0:0:0:92:
192,192,93327,1,0,0:0:0:0:
64,192,93327,1,0,0:0:0:0:
448,192,93327,1,0,0:0:0:0:
320,192,93327,1,8,0:0:0:92:
64,192,93465,1,0,0:0:0:0:
192,192,93465,1,0,0:0:0:0:
320,192,93465,1,2,0:0:0:92:
192,192,93602,1,0,0:0:0:0:
320,192,93602,1,0,0:0:0:0:
448,192,93602,1,0,0:0:0:92:Mid Tom.wav
448,192,93740,1,0,0:0:0:0:
192,192,93740,1,0,0:0:0:0:
64,192,93740,1,2,0:0:0:92:
448,192,93878,1,0,0:0:0:0:
320,192,93878,1,8,0:0:0:92:
64,192,93912,1,0,0:0:0:0:
192,192,93912,1,8,0:0:0:92:
64,192,94153,1,0,0:0:0:0:
192,192,94153,1,0,0:0:0:0:
320,192,94153,1,2,0:0:0:66:
448,192,94153,1,4,0:0:0:0:
320,192,94291,1,0,0:0:0:0:
192,192,94291,1,0,0:0:0:0:
64,192,94291,1,2,0:0:0:66:
448,192,94428,1,0,0:0:0:0:
64,192,94428,1,0,0:0:0:0:
192,192,94428,1,2,0:0:0:66:
64,192,94566,1,0,0:0:0:0:
320,192,94566,1,0,0:0:0:0:
448,192,94566,1,2,0:0:0:66:
192,192,94703,1,0,0:0:0:0:
320,192,94703,1,0,0:0:0:0:
448,192,94703,1,2,0:0:0:66:
64,192,94841,1,0,0:0:0:0:
320,192,94841,1,0,0:0:0:0:
192,192,94841,1,2,0:0:0:66:
448,192,94979,1,0,0:0:0:0:
320,192,94979,1,0,0:0:0:0:
64,192,94979,1,2,0:0:0:66:
192,192,94979,1,8,0:0:0:0:
192,192,95116,1,0,0:0:0:0:
320,192,95116,1,0,0:0:0:0:
64,192,95116,1,2,0:0:0:66:
192,192,95254,1,0,0:0:0:0:
64,192,95254,1,0,0:0:0:0:
448,192,95254,1,2,0:0:0:66:
320,192,95391,1,0,0:0:0:0:
448,192,95391,1,0,0:0:0:0:
64,192,95391,1,8,0:0:0:0:
192,192,95391,1,2,0:0:0:66:
64,192,95529,1,0,0:0:0:0:
192,192,95529,1,0,0:0:0:0:
320,192,95529,1,8,0:0:0:0:
448,192,95529,1,2,0:0:0:66:
448,192,95667,1,0,0:0:0:0:
192,192,95667,1,0,0:0:0:0:
320,192,95667,1,2,0:0:0:66:
448,192,95804,1,0,0:0:0:0:
320,192,95804,1,0,0:0:0:0:
64,192,95804,1,4,0:0:0:0:
192,192,95804,1,2,0:0:0:66:
320,192,95942,1,0,0:0:0:0:
64,192,95942,1,0,0:0:0:0:
192,192,95942,1,2,0:0:0:66:
64,192,96080,1,0,0:0:0:0:
448,192,96080,1,0,0:0:0:0:
192,192,96080,1,2,0:0:0:66:
320,192,96217,1,0,0:0:0:0:
448,192,96217,1,0,0:0:0:0:
192,192,96217,1,2,0:0:0:66:
64,192,96355,1,0,0:0:0:0:
192,192,96355,1,0,0:0:0:0:
320,192,96355,1,2,0:0:0:66:
192,192,96492,1,0,0:0:0:0:
320,192,96492,1,0,0:0:0:0:
448,192,96492,1,2,0:0:0:66:
192,192,96630,1,0,0:0:0:0:
64,192,96630,1,0,0:0:0:0:
320,192,96630,1,8,0:0:0:0:
448,192,96630,1,2,0:0:0:66:
64,192,96768,1,0,0:0:0:0:
192,192,96768,1,0,0:0:0:0:
320,192,96768,1,2,0:0:0:66:
448,192,96905,1,0,0:0:0:0:
64,192,96905,1,0,0:0:0:0:
192,192,96905,1,2,0:0:0:66:
64,192,97043,1,0,0:0:0:0:
192,192,97043,1,0,0:0:0:0:
320,192,97043,1,2,0:0:0:66:
448,192,97043,1,8,0:0:0:0:
320,192,97180,1,0,0:0:0:0:
448,192,97180,1,0,0:0:0:0:
64,192,97180,1,8,0:0:0:0:
192,192,97180,1,2,0:0:0:66:
64,192,97318,1,0,0:0:0:0:
192,192,97318,1,0,0:0:0:0:
448,192,97318,1,2,0:0:0:66:
448,192,97456,1,0,0:0:0:0:
320,192,97456,1,0,0:0:0:0:
192,192,97456,1,4,0:0:0:0:
64,192,97456,1,2,0:0:0:66:
320,192,97593,1,0,0:0:0:0:
448,192,97593,1,0,0:0:0:0:
192,192,97593,1,2,0:0:0:66:
320,192,97731,1,0,0:0:0:0:
448,192,97731,1,0,0:0:0:0:
64,192,97731,1,2,0:0:0:66:
320,192,97869,1,0,0:0:0:0:
448,192,97869,1,0,0:0:0:0:
64,192,97869,1,2,0:0:0:66:
192,192,97869,1,8,0:0:0:0:
192,192,98006,1,0,0:0:0:0:
448,192,98006,1,0,0:0:0:0:
64,192,98006,1,2,0:0:0:66:
448,192,98144,1,0,0:0:0:0:
320,192,98144,1,0,0:0:0:0:
192,192,98144,1,2,0:0:0:66:
448,192,98281,1,0,0:0:0:0:
64,192,98281,1,0,0:0:0:0:
192,192,98281,1,8,0:0:0:0:
320,192,98281,1,2,0:0:0:66:
320,192,98419,1,0,0:0:0:0:
192,192,98419,1,0,0:0:0:0:
64,192,98419,1,2,0:0:0:66:
192,192,98557,1,0,0:0:0:0:
64,192,98557,1,0,0:0:0:0:
448,192,98557,1,2,0:0:0:66:
448,192,98694,1,0,0:0:0:0:
320,192,98694,1,0,0:0:0:0:
64,192,98694,1,2,0:0:0:66:
192,192,98694,1,8,0:0:0:0:
64,192,98832,1,0,0:0:0:0:
320,192,98832,1,0,0:0:0:0:
448,192,98832,1,2,0:0:0:66:
192,192,98832,1,8,0:0:0:0:
320,192,98969,1,0,0:0:0:0:
448,192,98969,1,0,0:0:0:0:
192,192,98969,1,2,0:0:0:66:
448,192,99107,1,0,0:0:0:0:
320,192,99107,1,0,0:0:0:0:
192,192,99107,1,4,0:0:0:0:
64,192,99107,1,2,0:0:0:66:
320,192,99245,1,0,0:0:0:0:
448,192,99245,1,0,0:0:0:0:
64,192,99245,1,2,0:0:0:66:
64,192,99382,1,0,0:0:0:0:
192,192,99382,1,0,0:0:0:0:
448,192,99382,1,2,0:0:0:66:
448,192,99520,1,0,0:0:0:0:
320,192,99520,1,0,0:0:0:0:
192,192,99520,1,8,0:0:0:0:
64,192,99520,1,2,0:0:0:66:
64,192,99658,1,0,0:0:0:0:
192,192,99658,1,0,0:0:0:0:
320,192,99658,1,2,0:0:0:66:
448,192,99795,1,0,0:0:0:0:
64,192,99795,1,0,0:0:0:0:
192,192,99795,1,2,0:0:0:66:
320,192,99933,1,0,0:0:0:0:
448,192,99933,1,0,0:0:0:0:
64,192,99933,1,8,0:0:0:0:
192,192,99933,1,2,0:0:0:66:
64,192,100070,1,0,0:0:0:0:
320,192,100070,1,0,0:0:0:0:
448,192,100070,1,2,0:0:0:66:
192,192,100139,1,2,0:0:0:66:
64,192,100208,1,0,0:0:0:0:
320,192,100208,1,0,0:0:0:0:
448,192,100208,1,8,0:0:0:66:
192,192,100346,1,0,0:0:0:0:
320,192,100346,1,0,0:0:0:0:
64,192,100346,1,2,0:0:0:66:
448,192,100414,1,2,0:0:0:66:
192,192,100483,1,0,0:0:0:0:
64,192,100483,1,0,0:0:0:0:
320,192,100483,1,8,0:0:0:66:
448,192,100758,1,0,0:0:0:0:
320,192,100758,1,0,0:0:0:0:
192,192,100758,1,4,0:0:0:0:
64,192,100758,1,2,0:0:0:66:
320,192,100896,1,0,0:0:0:0:
64,192,100896,1,0,0:0:0:0:
192,192,100896,1,2,0:0:0:66:
448,192,101034,1,0,0:0:0:0:
192,192,101034,1,0,0:0:0:0:
64,192,101034,1,2,0:0:0:66:
192,192,101171,1,0,0:0:0:0:
320,192,101171,1,0,0:0:0:0:
448,192,101171,1,2,0:0:0:66:
320,192,101309,1,0,0:0:0:0:
64,192,101309,1,0,0:0:0:0:
192,192,101309,1,2,0:0:0:66:
192,192,101447,1,0,0:0:0:0:
320,192,101447,1,0,0:0:0:0:
448,192,101447,1,2,0:0:0:66:
320,192,101584,1,0,0:0:0:0:
192,192,101584,1,0,0:0:0:0:
448,192,101584,1,2,0:0:0:66:
64,192,101584,1,8,0:0:0:0:
448,192,101722,1,0,0:0:0:0:
64,192,101722,1,0,0:0:0:0:
192,192,101722,1,2,0:0:0:66:
320,192,101859,1,0,0:0:0:0:
64,192,101859,1,0,0:0:0:0:
192,192,101859,1,2,0:0:0:66:
448,192,101997,1,0,0:0:0:0:
192,192,101997,1,0,0:0:0:0:
64,192,101997,1,2,0:0:0:66:
448,192,102135,1,0,0:0:0:0:
192,192,102135,1,0,0:0:0:0:
320,192,102135,1,2,0:0:0:66:
64,192,102203,1,2,0:0:0:66:
192,192,102272,1,0,0:0:0:0:
320,192,102272,1,0,0:0:0:0:
448,192,102272,1,2,0:0:0:66:
64,192,102341,1,2,0:0:0:66:
192,192,102410,1,0,0:0:0:0:
448,192,102410,1,0,0:0:0:0:
320,192,102410,1,2,0:0:0:66:
192,192,102547,1,0,0:0:0:0:
320,192,102547,1,0,0:0:0:0:
64,192,102547,1,2,0:0:0:66:
64,192,102685,1,0,0:0:0:0:
192,192,102685,1,0,0:0:0:0:
448,192,102685,1,2,0:0:0:66:
192,192,102823,1,0,0:0:0:0:
320,192,102823,1,0,0:0:0:0:
448,192,102823,1,2,0:0:0:66:
448,192,102960,1,0,0:0:0:0:
320,192,102960,1,0,0:0:0:0:
192,192,102960,1,2,0:0:0:66:
320,192,103098,1,0,0:0:0:0:
64,192,103098,1,0,0:0:0:0:
192,192,103098,1,2,0:0:0:66:
64,192,103236,1,0,0:0:0:0:
192,192,103236,1,0,0:0:0:0:
320,192,103236,1,8,0:0:0:0:
448,192,103236,1,2,0:0:0:66:
192,192,103373,1,0,0:0:0:0:
320,192,103373,1,0,0:0:0:0:
64,192,103373,1,2,0:0:0:66:
448,192,103511,1,0,0:0:0:0:
320,192,103511,1,0,0:0:0:0:
192,192,103511,1,2,0:0:0:66:
64,192,103648,1,0,0:0:0:0:
320,192,103648,1,0,0:0:0:0:
448,192,103648,1,2,0:0:0:66:
64,192,103786,1,0,0:0:0:0:
192,192,103786,1,0,0:0:0:0:
448,192,103786,1,2,0:0:0:66:
320,192,103855,1,2,0:0:0:66:
64,192,103924,1,0,0:0:0:0:
192,192,103924,1,0,0:0:0:0:
448,192,103924,1,2,0:0:0:66:
320,192,103992,1,2,0:0:0:66:
64,192,104061,1,0,0:0:0:0:
192,192,104061,1,0,0:0:0:0:
448,192,104061,1,2,0:0:0:66:
192,192,104199,1,0,0:0:0:0:
320,192,104199,1,0,0:0:0:0:
448,192,104199,1,2,0:0:0:66:
320,192,104336,1,0,0:0:0:0:
64,192,104336,1,0,0:0:0:0:
192,192,104336,1,2,0:0:0:66:
448,192,104474,1,0,0:0:0:0:
192,192,104474,1,0,0:0:0:0:
64,192,104474,1,2,0:0:0:66:
192,192,104612,1,0,0:0:0:0:
320,192,104612,1,0,0:0:0:0:
448,192,104612,1,2,0:0:0:66:
64,192,104749,1,0,0:0:0:0:
192,192,104749,1,0,0:0:0:0:
320,192,104749,1,2,0:0:0:66:
192,192,104887,1,0,0:0:0:0:
64,192,104887,1,0,0:0:0:0:
448,192,104887,1,8,0:0:0:0:
320,192,104887,1,2,0:0:0:66:
64,192,105024,1,0,0:0:0:0:
192,192,105024,1,0,0:0:0:0:
448,192,105024,1,2,0:0:0:66:
192,192,105162,1,0,0:0:0:0:
320,192,105162,1,0,0:0:0:0:
448,192,105162,1,2,0:0:0:66:
320,192,105300,1,0,0:0:0:0:
64,192,105300,1,0,0:0:0:0:
192,192,105300,1,2,0:0:0:66:
64,192,105437,1,0,0:0:0:0:
448,192,105437,1,0,0:0:0:0:
320,192,105437,1,2,0:0:0:66:
192,192,105506,1,2,0:0:0:66:
64,192,105575,1,0,0:0:0:0:
320,192,105575,1,0,0:0:0:0:
448,192,105575,1,2,0:0:0:66:
192,192,105644,1,2,0:0:0:66:
448,192,105713,1,0,0:0:0:0:
64,192,105713,1,0,0:0:0:0:
320,192,105713,1,2,0:0:0:66:
192,192,105850,1,0,0:0:0:0:
448,192,105850,1,0,0:0:0:0:
320,192,105850,1,2,0:0:0:66:
64,192,105988,1,0,0:0:0:0:
192,192,105988,1,0,0:0:0:0:
320,192,105988,1,2,0:0:0:66:
64,192,106125,1,0,0:0:0:0:
192,192,106125,1,0,0:0:0:0:
448,192,106125,1,2,0:0:0:66:
448,192,106263,1,0,0:0:0:0:
320,192,106263,1,0,0:0:0:0:
192,192,106263,1,2,0:0:0:66:
320,192,106401,1,0,0:0:0:0:
64,192,106401,1,0,0:0:0:0:
192,192,106401,1,2,0:0:0:66:
64,192,106538,1,0,0:0:0:0:
192,192,106538,1,0,0:0:0:0:
320,192,106538,1,0,0:0:0:0:
448,192,106538,1,8,0:0:0:0:
192,192,106676,1,0,0:0:0:0:
64,192,106676,1,0,0:0:0:0:
320,192,106676,1,2,0:0:0:66:
448,192,106745,1,2,0:0:0:66:
192,192,106813,1,0,0:0:0:0:
64,192,106813,1,0,0:0:0:0:
320,192,106813,1,0,0:0:0:92:Mid Tom.wav
192,192,106951,1,0,0:0:0:0:
320,192,106951,1,0,0:0:0:0:
448,192,106951,1,2,0:0:0:66:
64,192,107020,1,2,0:0:0:66:
192,192,107089,1,0,0:0:0:0:
320,192,107089,1,8,0:0:0:66:
448,192,107123,1,8,0:0:0:66:
64,192,107364,1,0,0:0:0:0:
192,192,107364,1,4,0:0:0:0:
448,192,107364,1,2,0:0:0:92:
320,192,107433,1,2,0:0:0:92:
64,192,107502,1,0,0:0:0:0:
192,192,107502,1,2,0:0:0:92:
448,192,107570,1,2,0:0:0:92:
64,192,107639,1,0,0:0:0:0:
192,192,107639,1,0,0:0:0:0:
320,192,107639,1,8,0:0:0:92:
448,192,107777,1,0,0:0:0:0:
192,192,107777,1,2,0:0:0:92:
320,192,107914,1,0,0:0:0:0:
192,192,107914,1,0,0:0:0:0:
64,192,107914,1,8,0:0:0:92:
320,192,108052,1,0,0:0:0:0:
448,192,108052,1,0,0:0:0:0:
192,192,108052,1,2,0:0:0:92:
64,0,108190,128,0,108327:0:0:0:0:
448,0,108190,128,0,108327:0:0:0:0:
320,192,108190,1,2,0:0:0:92:
192,192,108465,1,0,0:0:0:0:
448,192,108465,1,0,0:0:0:0:
64,192,108465,1,2,0:0:0:92:
320,192,108534,1,2,0:0:0:92:
64,192,108602,1,0,0:0:0:0:
448,192,108602,1,2,0:0:0:92:
192,192,108671,1,2,0:0:0:92:
64,192,108740,1,0,0:0:0:0:
320,192,108740,1,0,0:0:0:0:
448,192,108740,1,8,0:0:0:92:
320,192,108878,1,0,0:0:0:0:
64,192,109015,1,0,0:0:0:0:
192,192,109015,1,0,0:0:0:0:
320,192,109015,1,2,0:0:0:92:
448,192,109084,1,2,0:0:0:92:
64,192,109153,1,0,0:0:0:0:
320,192,109153,1,2,0:0:0:92:
192,192,109222,1,2,0:0:0:92:
64,192,109291,1,0,0:0:0:0:
320,192,109291,1,0,0:0:0:0:
448,192,109291,1,8,0:0:0:92:
192,192,109428,1,0,0:0:0:0:
448,192,109428,1,2,0:0:0:92:
320,192,109566,1,0,0:0:0:0:
64,192,109566,1,0,0:0:0:0:
192,192,109566,1,8,0:0:0:92:
64,192,109703,1,0,0:0:0:0:
448,192,109703,1,0,0:0:0:0:
320,192,109703,1,2,0:0:0:92:
192,192,109841,1,0,0:0:0:0:
64,0,109841,128,0,109979:0:0:0:0:
448,0,109841,128,2,109979:0:0:0:92:
192,192,110116,1,0,0:0:0:0:
320,192,110116,1,0,0:0:0:0:
448,192,110116,1,2,0:0:0:92:
64,192,110185,1,2,0:0:0:92:
192,192,110254,1,0,0:0:0:0:
448,192,110254,1,2,0:0:0:92:
320,192,110323,1,2,0:0:0:92:
64,192,110391,1,0,0:0:0:0:
192,192,110391,1,0,0:0:0:0:
448,192,110391,1,8,0:0:0:92:
192,192,110529,1,0,0:0:0:0:
64,192,110667,1,0,0:0:0:0:
320,192,110667,1,0,0:0:0:0:
448,192,110667,1,2,0:0:0:92:
192,192,110736,1,2,0:0:0:92:
448,192,110804,1,0,0:0:0:0:
320,192,110804,1,2,0:0:0:92:
64,192,110873,1,2,0:0:0:92:
192,192,110942,1,0,0:0:0:0:
320,192,110942,1,0,0:0:0:0:
448,192,110942,1,8,0:0:0:92:
64,192,111080,1,0,0:0:0:0:
320,192,111080,1,2,0:0:0:92:
448,192,111217,1,0,0:0:0:0:
64,192,111217,1,0,0:0:0:0:
192,192,111217,1,8,0:0:0:92:
448,192,111355,1,0,0:0:0:0:
192,192,111355,1,0,0:0:0:0:
320,192,111355,1,2,0:0:0:92:
192,0,111492,128,0,111630:0:0:0:0:
320,192,111492,1,0,0:0:0:0:
64,0,111492,128,2,111630:0:0:0:92:
64,192,111768,1,0,0:0:0:0:
320,192,111768,1,0,0:0:0:0:
448,192,111768,1,2,0:0:0:92:
192,192,111836,1,2,0:0:0:92:
64,192,111905,1,0,0:0:0:0:
448,192,111905,1,2,0:0:0:92:
320,192,111974,1,2,0:0:0:92:
448,192,112043,1,0,0:0:0:0:
64,192,112043,1,0,0:0:0:0:
192,192,112043,1,8,0:0:0:92:
64,192,112180,1,0,0:0:0:0:
192,192,112318,1,0,0:0:0:0:
320,192,112318,1,0,0:0:0:0:
448,192,112318,1,2,0:0:0:92:
64,192,112387,1,2,0:0:0:92:
192,192,112456,1,0,0:0:0:0:
320,192,112456,1,2,0:0:0:92:
448,192,112524,1,2,0:0:0:92:
320,192,112593,1,0,0:0:0:0:
64,192,112593,1,0,0:0:0:0:
192,192,112593,1,8,0:0:0:92:
448,192,112731,1,0,0:0:0:0:
192,192,112731,1,2,0:0:0:92:
192,192,112869,1,0,0:0:0:0:
64,192,112869,1,0,0:0:0:0:
320,192,112869,1,8,0:0:0:92:
448,192,113006,1,0,0:0:0:0:
64,192,113006,1,0,0:0:0:0:
320,192,113006,1,2,0:0:0:92:
192,192,113144,1,0,0:0:0:0:
448,192,113144,1,0,0:0:0:0:
64,192,113144,1,8,0:0:0:92:
320,192,113213,1,8,0:0:0:92:
448,192,113281,1,0,0:0:0:0:
64,192,113281,1,8,0:0:0:92:
192,192,113350,1,8,0:0:0:92:
64,192,113419,1,0,0:0:0:0:
320,192,113419,1,0,0:0:0:0:
448,192,113419,1,8,0:0:0:92:
320,192,113557,1,0,0:0:0:0:
448,192,113557,1,0,0:0:0:0:
192,192,113557,1,0,0:0:0:92:Mid Tom.wav
448,192,113694,1,0,0:0:0:0:
320,192,113694,1,0,0:0:0:0:
64,192,113694,1,0,0:0:0:92:Low Tom.wav
64,192,113832,1,0,0:0:0:0:
192,192,113832,1,0,0:0:0:0:
320,192,113832,1,8,0:0:0:92:
192,192,113969,1,0,0:0:0:0:
320,192,113969,1,4,0:0:0:0:
448,192,113969,1,2,0:0:0:92:
64,192,114038,1,2,0:0:0:92:
448,192,114107,1,0,0:0:0:0:
320,192,114107,1,2,0:0:0:92:
192,192,114176,1,2,0:0:0:92:
64,192,114245,1,0,0:0:0:0:
320,192,114245,1,0,0:0:0:0:
448,192,114245,1,8,0:0:0:92:
64,192,114382,1,0,0:0:0:0:
448,192,114382,1,2,0:0:0:92:
64,192,114520,1,0,0:0:0:0:
192,192,114520,1,0,0:0:0:0:
320,192,114520,1,8,0:0:0:92:
320,192,114658,1,0,0:0:0:0:
192,192,114658,1,0,0:0:0:0:
448,192,114658,1,2,0:0:0:92:
192,192,114795,1,0,0:0:0:0:
64,0,114795,128,0,114933:0:0:0:0:
448,0,114795,128,2,114933:0:0:0:92:
64,192,115070,1,0,0:0:0:0:
320,192,115070,1,0,0:0:0:0:
448,192,115070,1,2,0:0:0:92:
192,192,115139,1,2,0:0:0:92:
320,192,115208,1,0,0:0:0:0:
64,192,115208,1,2,0:0:0:92:
448,192,115277,1,2,0:0:0:92:
64,192,115346,1,0,0:0:0:0:
192,192,115346,1,0,0:0:0:0:
320,192,115346,1,8,0:0:0:92:
64,192,115483,1,0,0:0:0:0:
192,192,115621,1,0,0:0:0:0:
320,192,115621,1,0,0:0:0:0:
448,192,115621,1,2,0:0:0:92:
64,192,115690,1,2,0:0:0:92:
448,192,115758,1,0,0:0:0:0:
192,192,115758,1,2,0:0:0:92:
320,192,115827,1,2,0:0:0:92:
448,192,115896,1,0,0:0:0:0:
64,192,115896,1,0,0:0:0:0:
192,192,115896,1,8,0:0:0:92:
64,192,116034,1,0,0:0:0:0:
320,192,116034,1,2,0:0:0:92:
448,192,116171,1,0,0:0:0:0:
64,192,116171,1,0,0:0:0:0:
192,192,116171,1,8,0:0:0:92:
448,192,116309,1,0,0:0:0:0:
320,192,116309,1,0,0:0:0:0:
192,192,116309,1,2,0:0:0:92:
448,0,116447,128,0,116584:0:0:0:0:
320,192,116447,1,0,0:0:0:0:
64,0,116447,128,2,116584:0:0:0:92:
192,192,116722,1,0,0:0:0:0:
320,192,116722,1,0,0:0:0:0:
448,192,116722,1,2,0:0:0:92:
64,192,116791,1,2,0:0:0:92:
448,192,116859,1,0,0:0:0:0:
320,192,116859,1,2,0:0:0:92:
64,192,116928,1,2,0:0:0:92:
320,0,116997,128,0,117135:0:0:0:0:
448,0,116997,128,0,117135:0:0:0:0:
192,192,116997,1,8,0:0:0:92:
64,192,117272,1,0,0:0:0:0:
192,192,117272,1,0,0:0:0:0:
320,192,117272,1,2,0:0:0:92:
448,192,117341,1,2,0:0:0:92:
192,192,117410,1,0,0:0:0:0:
320,192,117410,1,2,0:0:0:92:
64,192,117479,1,2,0:0:0:92:
320,192,117547,1,0,0:0:0:0:
448,192,117547,1,0,0:0:0:0:
192,192,117547,1,8,0:0:0:92:
448,192,117685,1,0,0:0:0:0:
64,192,117685,1,2,0:0:0:92:
64,192,117823,1,0,0:0:0:0:
192,192,117823,1,0,0:0:0:0:
320,192,117823,1,8,0:0:0:92:
192,192,117960,1,0,0:0:0:0:
320,192,117960,1,0,0:0:0:0:
448,192,117960,1,2,0:0:0:92:
320,192,118098,1,0,0:0:0:0:
64,0,118098,128,0,118236:0:0:0:0:
192,0,118098,128,2,118236:0:0:0:92:
448,192,118373,1,0,0:0:0:0:
320,192,118373,1,0,0:0:0:0:
192,192,118373,1,2,0:0:0:92:
64,192,118442,1,2,0:0:0:92:
192,192,118511,1,0,0:0:0:0:
448,192,118511,1,2,0:0:0:92:
320,192,118580,1,2,0:0:0:92:
448,192,118648,1,0,0:0:0:0:
192,192,118648,1,0,0:0:0:0:
64,192,118648,1,8,0:0:0:92:
192,192,118786,1,0,0:0:0:0:
448,192,118924,1,0,0:0:0:0:
64,192,118924,1,0,0:0:0:0:
320,192,118924,1,8,0:0:0:92:
64,192,119061,1,0,0:0:0:0:
320,192,119061,1,0,0:0:0:0:
448,192,119061,1,8,0:0:0:92:
64,192,119199,1,0,0:0:0:0:
192,192,119199,1,0,0:0:0:0:
448,192,119199,1,0,0:0:0:92:Mid Tom.wav
320,192,119336,1,0,0:0:0:0:
64,192,119336,1,0,0:0:0:0:
192,192,119336,1,0,0:0:0:92:Low Tom.wav
192,192,119474,1,0,0:0:0:0:
320,192,119474,1,0,0:0:0:0:
448,192,119474,1,8,0:0:0:92:
448,192,119612,1,0,0:0:0:0:
192,192,119612,1,0,0:0:0:0:
320,192,119612,1,8,0:0:0:92:
448,192,119749,1,0,0:0:0:0:
192,192,119749,1,0,0:0:0:0:
64,192,119749,1,8,0:0:0:92:
320,192,119818,1,8,0:0:0:92:
64,192,119887,1,0,0:0:0:0:
448,192,119887,1,8,0:0:0:92:
192,192,119956,1,8,0:0:0:92:
320,192,120024,1,0,0:0:0:0:
448,192,120024,1,0,0:0:0:0:
64,192,120024,1,0,0:0:0:92:Mid Tom.wav
192,192,120093,1,0,0:0:0:92:Mid Tom.wav
448,192,120162,1,0,0:0:0:0:
64,192,120162,1,0,0:0:0:92:Mid Tom.wav
320,192,120231,1,0,0:0:0:92:Mid Tom.wav
192,192,120300,1,0,0:0:0:0:
64,192,120300,1,0,0:0:0:0:
448,192,120300,1,0,0:0:0:92:Low Tom.wav
320,192,120369,1,0,0:0:0:92:Low Tom.wav
64,192,120437,1,0,0:0:0:0:
192,192,120437,1,0,0:0:0:92:Low Tom.wav
448,192,120506,1,0,0:0:0:92:Low Tom.wav
64,192,120575,1,0,0:0:0:0:
320,192,120575,1,4,0:0:0:46:
192,192,120575,1,2,0:0:0:46:
320,192,120713,1,0,0:0:0:0:
448,192,120713,1,2,0:0:0:92:
64,192,120850,1,0,0:0:0:0:
192,192,120850,1,8,0:0:0:92:
320,192,120919,1,0,0:0:0:0:
448,192,120919,1,8,0:0:0:92:
64,192,120988,1,0,0:0:0:0:
192,192,120988,1,2,0:0:0:92:
64,192,121125,1,0,0:0:0:0:
448,192,121125,1,8,0:0:0:92:
192,192,121194,1,0,0:0:0:0:
320,192,121194,1,8,0:0:0:92:
448,192,121263,1,0,0:0:0:0:
64,192,121263,1,8,0:0:0:92:
192,192,121332,1,0,0:0:0:0:
320,192,121332,1,8,0:0:0:92:
64,192,121401,1,4,0:0:0:46:
448,192,121401,1,2,0:0:0:46:
320,192,121538,1,0,0:0:0:0:
192,192,121538,1,2,0:0:0:92:
448,192,121676,1,0,0:0:0:0:
192,192,121676,1,8,0:0:0:92:
64,192,121745,1,0,0:0:0:0:
320,192,121745,1,8,0:0:0:92:
448,192,121813,1,0,0:0:0:0:
192,192,121813,1,2,0:0:0:92:
448,192,121951,1,0,0:0:0:0:
320,192,121951,1,8,0:0:0:92:
64,192,122020,1,0,0:0:0:0:
192,192,122020,1,8,0:0:0:92:
320,192,122089,1,0,0:0:0:0:
448,192,122089,1,8,0:0:0:92:
192,192,122158,1,0,0:0:0:0:
64,192,122158,1,8,0:0:0:92:
448,0,122226,128,4,123052:0:0:0:46:
320,192,122226,1,2,0:0:0:46:
320,0,123052,128,0,123878:0:0:0:0:
192,0,123878,128,0,124428:0:0:0:0:
448,0,124566,128,0,124703:0:0:0:0:
64,0,124703,128,0,125254:0:0:0:0:
448,0,126355,128,0,126630:0:0:0:0:
320,0,126630,128,0,126905:0:0:0:0:
192,0,126905,128,0,127180:0:0:0:0:
320,0,127180,128,0,127456:0:0:0:0:
64,0,127593,128,0,127869:0:0:0:0:
448,0,128006,128,0,128281:0:0:0:0:
192,0,128419,128,0,128694:0:0:0:0:
64,0,129933,128,0,130208:0:0:0:0:
192,0,130208,128,0,130483:0:0:0:0:
448,0,130483,128,0,130896:0:0:0:0:
320,0,131034,128,0,131859:0:0:0:0:
64,0,131859,128,0,132135:0:0:0:0:
192,0,132135,128,0,132272:0:0:0:0:
320,0,132272,128,0,132410:0:0:0:0:
320,0,132547,128,0,133236:0:0:0:0:
448,0,133511,128,0,133648:0:0:0:0:
448,0,133786,128,0,133924:0:0:0:0:
192,0,134061,128,0,134199:0:0:0:0:
64,0,134336,128,0,134474:0:0:0:0:
320,0,134612,128,0,135024:0:0:0:0:
192,0,135024,128,0,135300:0:0:0:0:
64,192,135437,1,0,0:0:0:0:
192,192,135437,1,4,0:0:0:0:
448,192,135437,1,8,0:0:0:92:
64,192,135575,1,0,0:0:0:0:
320,192,135575,1,2,0:0:0:92:
448,192,135713,1,0,0:0:0:0:
192,192,135713,1,2,0:0:0:92:
448,192,135850,1,0,0:0:0:0:
320,192,135850,1,0,0:0:0:0:
64,192,135850,1,8,0:0:0:92:
64,192,135988,1,0,0:0:0:0:
192,192,135988,1,2,0:0:0:92:
320,192,136125,1,0,0:0:0:0:
448,192,136125,1,2,0:0:0:92:
192,192,136263,1,0,0:0:0:0:
448,192,136263,1,0,0:0:0:0:
64,192,136263,1,8,0:0:0:92:
192,192,136401,1,0,0:0:0:0:
320,192,136401,1,2,0:0:0:92:
448,192,136538,1,0,0:0:0:0:
64,192,136538,1,8,0:0:0:92:
192,192,136573,1,8,0:0:0:92:
448,192,136676,1,0,0:0:0:0:
320,192,136676,1,2,0:0:0:92:
64,192,136813,1,0,0:0:0:0:
192,192,136813,1,0,0:0:0:0:
448,192,136813,1,8,0:0:0:92:
320,192,136951,1,0,0:0:0:0:
64,192,136951,1,2,0:0:0:92:
192,192,137089,1,0,0:0:0:0:
320,192,137089,1,0,0:0:0:0:
448,192,137089,1,8,0:0:0:92:
320,192,137226,1,0,0:0:0:0:
64,192,137226,1,2,0:0:0:92:
64,192,137364,1,0,0:0:0:0:
448,192,137364,1,2,0:0:0:92:
320,192,137502,1,0,0:0:0:0:
448,192,137502,1,0,0:0:0:0:
192,192,137502,1,8,0:0:0:92:
64,192,137639,1,0,0:0:0:0:
320,192,137639,1,2,0:0:0:92:
448,192,137777,1,0,0:0:0:0:
192,192,137777,1,2,0:0:0:92:
320,192,137914,1,0,0:0:0:0:
192,192,137914,1,0,0:0:0:0:
64,192,137914,1,8,0:0:0:92:
192,192,138052,1,0,0:0:0:0:
448,192,138052,1,2,0:0:0:92:
64,192,138190,1,0,0:0:0:0:
448,192,138190,1,8,0:0:0:92:
320,192,138224,1,8,0:0:0:92:
64,192,138327,1,0,0:0:0:0:
192,192,138327,1,2,0:0:0:92:
320,192,138465,1,0,0:0:0:0:
448,192,138465,1,0,0:0:0:0:
192,192,138465,1,8,0:0:0:92:
64,192,138602,1,0,0:0:0:0:
320,192,138602,1,2,0:0:0:92:
192,192,138740,1,0,0:0:0:0:
448,192,138740,1,0,0:0:0:0:
64,192,138740,1,8,0:0:0:92:
192,192,138878,1,0,0:0:0:0:
320,192,138878,1,2,0:0:0:92:
448,192,139015,1,0,0:0:0:0:
320,192,139015,1,2,0:0:0:92:
192,192,139153,1,0,0:0:0:0:
448,192,139153,1,0,0:0:0:0:
64,192,139153,1,8,0:0:0:92:
64,192,139291,1,0,0:0:0:0:
320,192,139291,1,2,0:0:0:92:
448,192,139428,1,0,0:0:0:0:
192,192,139428,1,2,0:0:0:92:
64,192,139566,1,0,0:0:0:0:
320,192,139566,1,0,0:0:0:0:
448,192,139566,1,8,0:0:0:92:
64,192,139703,1,0,0:0:0:0:
192,192,139703,1,2,0:0:0:92:
448,192,139841,1,0,0:0:0:0:
64,192,139841,1,8,0:0:0:92:
320,192,139875,1,8,0:0:0:92:
448,192,139979,1,0,0:0:0:0:
192,192,139979,1,2,0:0:0:92:
64,192,140116,1,0,0:0:0:0:
320,192,140116,1,0,0:0:0:0:
448,192,140116,1,8,0:0:0:92:
64,192,140254,1,0,0:0:0:0:
192,192,140254,1,2,0:0:0:92:
448,192,140391,1,0,0:0:0:0:
192,192,140391,1,0,0:0:0:0:
320,192,140391,1,8,0:0:0:92:
64,192,140529,1,0,0:0:0:0:
320,192,140529,1,2,0:0:0:92:
448,192,140667,1,0,0:0:0:0:
192,192,140667,1,2,0:0:0:92:
64,192,140804,1,0,0:0:0:0:
320,192,140804,1,0,0:0:0:0:
448,192,140804,1,8,0:0:0:92:
192,192,140942,1,0,0:0:0:0:
64,192,140942,1,2,0:0:0:92:
192,192,141080,1,0,0:0:0:0:
448,192,141080,1,2,0:0:0:92:
320,192,141217,1,0,0:0:0:0:
448,192,141217,1,0,0:0:0:0:
64,192,141217,1,0,0:0:0:92:Mid Tom.wav
64,192,141355,1,0,0:0:0:0:
192,192,141355,1,2,0:0:0:92:
320,192,141492,1,0,0:0:0:0:
192,192,141492,1,0,0:0:0:0:
448,192,141492,1,8,0:0:0:92:
192,192,141630,1,0,0:0:0:0:
64,192,141630,1,2,0:0:0:92:
448,192,141768,1,0,0:0:0:0:
64,192,141768,1,0,0:0:0:0:
320,192,141768,1,8,0:0:0:92:
192,192,141905,1,0,0:0:0:0:
320,192,141905,1,2,0:0:0:92:
64,192,142043,1,0,0:0:0:0:
320,192,142043,1,0,0:0:0:0:
448,192,142043,1,8,0:0:0:92:
64,192,142180,1,0,0:0:0:0:
192,192,142180,1,2,0:0:0:92:
192,192,142318,1,0,0:0:0:0:
448,192,142318,1,2,0:0:0:92:
64,192,142456,1,0,0:0:0:0:
448,192,142456,1,0,0:0:0:0:
320,192,142456,1,8,0:0:0:92:
64,192,142593,1,0,0:0:0:0:
192,192,142593,1,2,0:0:0:92:
320,192,142731,1,0,0:0:0:0:
448,192,142731,1,2,0:0:0:92:
192,192,142869,1,0,0:0:0:0:
320,192,142869,1,0,0:0:0:0:
448,192,142869,1,8,0:0:0:92:
64,192,143006,1,0,0:0:0:0:
320,192,143006,1,2,0:0:0:92:
320,192,143144,1,0,0:0:0:0:
448,192,143144,1,8,0:0:0:92:
192,192,143178,1,8,0:0:0:92:
448,192,143281,1,0,0:0:0:0:
64,192,143281,1,2,0:0:0:92:
64,192,143419,1,0,0:0:0:0:
192,192,143419,1,0,0:0:0:0:
320,192,143419,1,8,0:0:0:92:
320,192,143557,1,0,0:0:0:0:
448,192,143557,1,2,0:0:0:92:
192,192,143694,1,0,0:0:0:0:
448,192,143694,1,0,0:0:0:0:
64,192,143694,1,8,0:0:0:92:
320,192,143832,1,0,0:0:0:0:
64,192,143832,1,2,0:0:0:92:
192,192,143969,1,0,0:0:0:0:
448,192,143969,1,2,0:0:0:92:
64,192,144107,1,0,0:0:0:0:
320,192,144107,1,0,0:0:0:0:
448,192,144107,1,8,0:0:0:92:
320,192,144245,1,0,0:0:0:0:
192,192,144245,1,2,0:0:0:92:
64,192,144382,1,0,0:0:0:0:
192,192,144382,1,2,0:0:0:92:
448,192,144520,1,0,0:0:0:0:
320,192,144520,1,0,0:0:0:0:
192,192,144520,1,8,0:0:0:92:
64,192,144658,1,0,0:0:0:0:
320,192,144658,1,2,0:0:0:92:
64,192,144795,1,0,0:0:0:0:
192,192,144795,1,8,0:0:0:92:
448,192,144830,1,8,0:0:0:92:
320,192,144933,1,0,0:0:0:0:
192,192,144933,1,2,0:0:0:92:
320,192,145070,1,0,0:0:0:0:
448,192,145070,1,0,0:0:0:0:
64,192,145070,1,8,0:0:0:92:
64,192,145208,1,0,0:0:0:0:
192,192,145208,1,2,0:0:0:92:
64,192,145346,1,0,0:0:0:0:
320,192,145346,1,0,0:0:0:0:
448,192,145346,1,8,0:0:0:92:
192,192,145483,1,0,0:0:0:0:
320,192,145483,1,2,0:0:0:92:
448,192,145621,1,0,0:0:0:0:
192,192,145621,1,2,0:0:0:92:
448,192,145758,1,0,0:0:0:0:
320,192,145758,1,0,0:0:0:0:
64,192,145758,1,8,0:0:0:92:
192,192,145896,1,0,0:0:0:0:
448,192,145896,1,2,0:0:0:92:
64,192,146034,1,0,0:0:0:0:
192,192,146034,1,2,0:0:0:92:
192,192,146171,1,0,0:0:0:0:
64,192,146171,1,0,0:0:0:0:
320,192,146171,1,8,0:0:0:92:
448,192,146309,1,0,0:0:0:0:
320,192,146309,1,2,0:0:0:92:
448,192,146447,1,0,0:0:0:0:
64,192,146447,1,0,0:0:0:0:
192,192,146447,1,8,0:0:0:92:
192,192,146584,1,0,0:0:0:0:
320,192,146584,1,0,0:0:0:0:
448,192,146584,1,8,0:0:0:92:
64,192,146722,1,0,0:0:0:0:
320,192,146722,1,0,0:0:0:0:
448,192,146722,1,8,0:0:0:92:
64,192,146859,1,0,0:0:0:0:
192,192,146859,1,0,0:0:0:0:
320,192,146859,1,0,0:0:0:92:Mid Tom.wav
64,192,146997,1,0,0:0:0:0:
192,192,146997,1,0,0:0:0:0:
448,192,146997,1,8,0:0:0:92:
192,192,147135,1,0,0:0:0:0:
320,192,147135,1,0,0:0:0:0:
448,192,147135,1,8,0:0:0:92:
320,192,147272,1,0,0:0:0:0:
448,192,147272,1,0,0:0:0:0:
64,192,147272,1,8,0:0:0:92:
448,192,147410,1,0,0:0:0:0:
64,192,147410,1,0,0:0:0:0:
192,192,147410,1,8,0:0:0:92:
192,192,147547,1,0,0:0:0:0:
448,192,147547,1,8,0:0:0:0:
192,192,147685,1,0,0:0:0:0:
320,192,147685,1,8,0:0:0:0:
320,192,147823,1,0,0:0:0:0:
192,192,147823,1,0,0:0:0:0:
64,192,147823,1,0,0:0:0:92:Mid Tom.wav
448,192,147960,1,0,0:0:0:0:
64,192,147960,1,0,0:0:0:0:
192,192,147960,1,0,0:0:0:92:Mid Tom.wav
64,192,148098,1,8,0:0:0:92:
448,192,148098,1,0,0:0:0:0:
320,192,148236,1,8,0:0:0:92:
64,192,148236,1,0,0:0:0:0:
64,192,148373,1,0,0:0:0:0:
192,192,148373,1,0,0:0:0:92:Low Tom.wav
192,192,148511,1,0,0:0:0:0:
320,192,148511,1,0,0:0:0:92:Low Tom.wav
192,192,148648,1,0,0:0:0:0:
64,192,148648,1,0,0:0:0:0:
448,192,148648,1,4,0:0:0:0:
320,192,148648,1,2,0:0:0:92:
448,192,148786,1,0,0:0:0:0:
320,192,148924,1,0,0:0:0:0:
192,192,149061,1,0,0:0:0:0:
320,192,149336,1,0,0:0:0:0:
64,192,149474,1,0,0:0:0:0:
448,0,149474,128,0,149543:0:0:0:0:
192,192,149749,1,0,0:0:0:0:
320,0,149749,128,0,149818:0:0:0:0:
64,192,150024,1,0,0:0:0:0:
448,0,150024,128,0,150093:0:0:0:0:
320,0,150300,128,0,150369:0:0:0:0:
64,192,150300,1,0,0:0:0:0:
64,0,150437,128,0,150506:0:0:0:0:
192,192,150713,1,0,0:0:0:0:
64,192,150850,1,0,0:0:0:0:
448,0,150850,128,0,150919:0:0:0:0:
320,192,150988,1,0,0:0:0:0:
448,192,151125,1,0,0:0:0:0:
192,0,151125,128,0,151194:0:0:0:0:
448,0,151401,128,0,151469:0:0:0:0:
64,192,151401,1,0,0:0:0:0:
320,0,151676,128,0,151745:0:0:0:0:
192,192,151676,1,0,0:0:0:0:
64,192,151951,1,0,0:0:0:0:
320,0,151951,128,0,152020:0:0:0:0:
192,192,152089,1,0,0:0:0:0:
320,192,152226,1,0,0:0:0:0:
448,192,152364,1,0,0:0:0:0:
192,0,152502,128,0,152570:0:0:0:0:
64,0,152777,128,0,152846:0:0:0:0:
448,192,152777,1,0,0:0:0:0:
320,192,152914,1,0,0:0:0:0:
192,0,153052,128,0,153121:0:0:0:0:
448,192,153052,1,0,0:0:0:0:
64,192,153190,1,0,0:0:0:0:
320,0,153327,128,0,153396:0:0:0:0:
64,192,153602,1,0,0:0:0:0:
192,192,153602,1,4,0:0:0:0:
448,192,153602,1,8,0:0:0:92:
192,192,153740,1,0,0:0:0:0:
320,192,153740,1,2,0:0:0:92:
320,192,153878,1,0,0:0:0:0:
64,192,153878,1,2,0:0:0:92:
192,192,154015,1,0,0:0:0:0:
448,192,154015,1,0,0:0:0:0:
64,192,154015,1,8,0:0:0:92:
320,192,154153,1,0,0:0:0:0:
448,192,154153,1,2,0:0:0:92:
64,192,154291,1,0,0:0:0:0:
320,192,154291,1,2,0:0:0:92:
192,192,154428,1,0,0:0:0:0:
64,192,154428,1,0,0:0:0:0:
448,192,154428,1,8,0:0:0:92:
192,192,154566,1,0,0:0:0:0:
320,192,154566,1,2,0:0:0:92:
320,192,154703,1,0,0:0:0:0:
448,192,154703,1,0,0:0:0:0:
64,192,154703,1,0,0:0:0:92:Mid Tom.wav
64,192,154841,1,0,0:0:0:0:
192,192,154841,1,2,0:0:0:92:
320,192,154979,1,0,0:0:0:0:
448,192,154979,1,8,0:0:0:92:
192,192,155013,1,8,0:0:0:92:
320,192,155254,1,2,0:0:0:0:
192,192,155254,1,0,0:0:0:70:HiHat.wav
64,192,155254,1,4,0:0:0:0:
448,192,155391,1,0,0:0:0:0:
320,192,155529,1,0,0:0:0:0:
64,192,155529,1,0,0:0:0:70:HiHat.wav
192,192,155667,1,0,0:0:0:0:
448,192,155804,1,0,0:0:0:70:HiHat.wav
320,192,155942,1,0,0:0:0:0:
64,192,156080,1,0,0:0:0:0:
192,192,156080,1,8,0:0:0:0:
448,0,156080,128,0,156148:0:0:0:70:HiHat.wav
320,0,156355,128,0,156424:0:0:0:0:
192,192,156355,1,0,0:0:0:70:HiHat.wav
448,0,156630,128,0,156699:0:0:0:0:
64,192,156630,1,0,0:0:0:70:HiHat.wav
320,0,156905,128,2,156974:0:0:0:0:
192,192,156905,1,0,0:0:0:70:HiHat.wav
64,0,157180,128,0,157249:0:0:0:70:HiHat.wav
192,192,157318,1,0,0:0:0:0:
320,192,157456,1,0,0:0:0:0:
448,192,157456,1,0,0:0:0:70:HiHat.wav
64,192,157593,1,0,0:0:0:0:
320,0,157731,128,0,157800:0:0:0:0:
448,192,157731,1,8,0:0:0:0:
192,192,157731,1,0,0:0:0:70:HiHat.wav
448,0,158006,128,0,158075:0:0:0:0:
64,192,158006,1,0,0:0:0:70:HiHat.wav
320,192,158281,1,0,0:0:0:0:
192,0,158281,128,0,158350:0:0:0:70:HiHat.wav
448,192,158557,1,0,0:0:0:70:HiHat.wav
64,0,158557,128,2,158625:0:0:0:0:
192,192,158694,1,0,0:0:0:0:
64,192,158832,1,0,0:0:0:0:
320,0,158832,128,0,158901:0:0:0:70:HiHat.wav
448,0,158969,128,0,159038:0:0:0:0:
64,192,158969,1,0,0:0:0:0:
192,0,159107,128,0,159245:0:0:0:0:
448,192,159107,1,0,0:0:0:70:HiHat.wav
64,192,159382,1,0,0:0:0:0:
192,192,159382,1,8,0:0:0:0:
448,0,159382,128,0,159451:0:0:0:70:HiHat.wav
320,192,159520,1,0,0:0:0:0:
192,192,159658,1,0,0:0:0:0:
64,0,159658,128,0,159726:0:0:0:70:HiHat.wav
448,192,159795,1,0,0:0:0:0:
320,192,159933,1,0,0:0:0:70:HiHat.wav
192,192,160208,1,0,0:0:0:0:
448,192,160208,1,4,0:0:0:0:
64,192,160208,1,8,0:0:0:92:
64,192,160346,1,0,0:0:0:0:
320,192,160346,1,2,0:0:0:92:
192,192,160483,1,0,0:0:0:0:
448,192,160483,1,2,0:0:0:92:
64,192,160621,1,0,0:0:0:0:
448,192,160621,1,0,0:0:0:0:
320,192,160621,1,8,0:0:0:92:
64,192,160758,1,0,0:0:0:0:
192,192,160758,1,2,0:0:0:92:
448,192,160896,1,0,0:0:0:0:
320,192,160896,1,2,0:0:0:92:
64,192,161034,1,0,0:0:0:0:
192,192,161034,1,8,0:0:0:92:
448,192,161034,1,4,0:0:0:0:
64,192,161171,1,0,0:0:0:0:
320,192,161171,1,2,0:0:0:92:
448,192,161309,1,0,0:0:0:0:
320,192,161309,1,0,0:0:0:0:
192,192,161309,1,0,0:0:0:92:Mid Tom.wav
192,192,161447,1,0,0:0:0:0:
64,192,161447,1,2,0:0:0:92:
64,192,161584,1,0,0:0:0:0:
320,192,161584,1,0,0:0:0:0:
448,192,161584,1,8,0:0:0:92:
192,192,161619,1,8,0:0:0:92:
64,192,161859,1,0,0:0:0:0:
192,192,161859,1,0,0:0:0:0:
448,192,161859,1,4,0:0:0:0:
320,192,161859,1,2,0:0:0:92:
320,192,161997,1,0,0:0:0:0:
192,192,161997,1,0,0:0:0:0:
64,192,161997,1,2,0:0:0:92:
448,192,162135,1,0,0:0:0:0:
320,192,162135,1,0,0:0:0:0:
64,192,162135,1,2,0:0:0:92:
64,192,162272,1,0,0:0:0:0:
192,192,162272,1,0,0:0:0:0:
320,192,162272,1,2,0:0:0:92:
320,192,162410,1,0,0:0:0:0:
192,192,162410,1,0,0:0:0:0:
448,192,162410,1,2,0:0:0:92:
448,192,162547,1,0,0:0:0:0:
64,192,162547,1,0,0:0:0:0:
320,192,162547,1,2,0:0:0:92:
320,192,162685,1,0,0:0:0:0:
192,192,162685,1,0,0:0:0:0:
448,192,162685,1,2,0:0:0:92:
64,192,162685,1,8,0:0:0:92:
192,192,162823,1,0,0:0:0:0:
320,192,162823,1,0,0:0:0:0:
64,192,162823,1,2,0:0:0:92:
192,192,162960,1,0,0:0:0:0:
320,192,162960,1,0,0:0:0:0:
448,192,162960,1,2,0:0:0:92:
64,192,163098,1,0,0:0:0:0:
320,192,163098,1,0,0:0:0:0:
448,192,163098,1,2,0:0:0:92:
64,192,163236,1,0,0:0:0:0:
192,192,163236,1,0,0:0:0:0:
320,192,163236,1,2,0:0:0:92:
448,192,163304,1,2,0:0:0:92:
64,192,163373,1,0,0:0:0:0:
192,192,163373,1,0,0:0:0:0:
320,192,163373,1,2,0:0:0:92:
448,192,163442,1,2,0:0:0:92:
192,192,163511,1,0,0:0:0:0:
64,192,163511,1,0,0:0:0:0:
320,192,163511,1,2,0:0:0:92:
192,192,163648,1,0,0:0:0:0:
320,192,163648,1,0,0:0:0:0:
448,192,163648,1,2,0:0:0:92:
64,192,163786,1,0,0:0:0:0:
192,192,163786,1,0,0:0:0:0:
448,192,163786,1,2,0:0:0:92:
192,192,163924,1,0,0:0:0:0:
320,192,163924,1,0,0:0:0:0:
64,192,163924,1,2,0:0:0:92:
320,192,164061,1,0,0:0:0:0:
192,192,164061,1,0,0:0:0:0:
448,192,164061,1,2,0:0:0:92:
64,192,164199,1,0,0:0:0:0:
320,192,164199,1,0,0:0:0:0:
448,192,164199,1,2,0:0:0:92:
64,192,164336,1,0,0:0:0:0:
192,192,164336,1,0,0:0:0:0:
320,192,164336,1,2,0:0:0:92:
448,192,164336,1,8,0:0:0:92:
448,192,164474,1,0,0:0:0:0:
192,192,164474,1,0,0:0:0:0:
320,192,164474,1,2,0:0:0:92:
64,192,164612,1,0,0:0:0:0:
320,192,164612,1,0,0:0:0:0:
448,192,164612,1,2,0:0:0:92:
64,192,164749,1,0,0:0:0:0:
192,192,164749,1,0,0:0:0:0:
320,192,164749,1,2,0:0:0:92:
320,192,164887,1,0,0:0:0:0:
192,192,164887,1,0,0:0:0:0:
448,192,164887,1,2,0:0:0:92:
64,192,164956,1,2,0:0:0:92:
448,192,165024,1,0,0:0:0:0:
192,192,165024,1,0,0:0:0:0:
320,192,165024,1,2,0:0:0:92:
64,192,165093,1,2,0:0:0:92:
192,192,165162,1,0,0:0:0:0:
320,192,165162,1,0,0:0:0:0:
448,192,165162,1,2,0:0:0:92:
192,192,165300,1,0,0:0:0:0:
448,192,165300,1,0,0:0:0:0:
64,192,165300,1,2,0:0:0:92:
448,192,165437,1,0,0:0:0:0:
64,192,165437,1,0,0:0:0:0:
320,192,165437,1,2,0:0:0:92:
64,192,165575,1,0,0:0:0:0:
192,192,165575,1,0,0:0:0:0:
320,192,165575,1,2,0:0:0:92:
320,192,165713,1,0,0:0:0:0:
448,192,165713,1,0,0:0:0:0:
192,192,165713,1,2,0:0:0:92:
448,192,165850,1,0,0:0:0:0:
64,192,165850,1,0,0:0:0:0:
192,192,165850,1,2,0:0:0:92:
448,192,165988,1,0,0:0:0:0:
320,192,165988,1,0,0:0:0:0:
192,192,165988,1,2,0:0:0:92:
64,192,165988,1,8,0:0:0:92:
192,192,166125,1,0,0:0:0:0:
320,192,166125,1,0,0:0:0:0:
448,192,166125,1,2,0:0:0:92:
448,192,166263,1,0,0:0:0:0:
64,192,166263,1,0,0:0:0:0:
320,192,166263,1,2,0:0:0:92:
320,192,166401,1,0,0:0:0:0:
64,192,166401,1,0,0:0:0:0:
192,192,166401,1,2,0:0:0:92:
448,192,166538,1,0,0:0:0:0:
64,192,166538,1,0,0:0:0:0:
192,192,166538,1,2,0:0:0:92:
320,192,166607,1,2,0:0:0:92:
192,192,166676,1,0,0:0:0:0:
64,192,166676,1,0,0:0:0:0:
448,192,166676,1,2,0:0:0:92:
320,192,166745,1,2,0:0:0:92:
192,192,166813,1,0,0:0:0:0:
448,192,166813,1,0,0:0:0:0:
64,192,166813,1,2,0:0:0:92:
448,192,166951,1,0,0:0:0:0:
64,192,166951,1,0,0:0:0:0:
320,192,166951,1,2,0:0:0:92:
192,192,167089,1,0,0:0:0:0:
320,192,167089,1,0,0:0:0:0:
448,192,167089,1,2,0:0:0:92:
64,192,167226,1,0,0:0:0:0:
192,192,167226,1,0,0:0:0:0:
320,192,167226,1,2,0:0:0:92:
192,192,167364,1,0,0:0:0:0:
448,192,167364,1,0,0:0:0:0:
64,192,167364,1,2,0:0:0:92:
448,192,167502,1,0,0:0:0:0:
192,192,167502,1,0,0:0:0:0:
320,192,167502,1,2,0:0:0:92:
64,192,167639,1,0,0:0:0:0:
320,192,167639,1,2,0:0:0:92:
448,192,167639,1,8,0:0:0:92:
192,192,167708,1,2,0:0:0:92:
448,192,167777,1,0,0:0:0:0:
64,192,167777,1,2,0:0:0:92:
320,192,167846,1,2,0:0:0:92:
448,192,167914,1,0,0:0:0:0:
64,192,167914,1,0,0:0:0:0:
192,192,167914,1,2,0:0:0:92:
320,192,167983,1,2,0:0:0:92:
192,192,168052,1,0,0:0:0:0:
448,192,168052,1,2,0:0:0:92:
64,192,168121,1,2,0:0:0:92:
448,192,168190,1,0,0:0:0:0:
320,192,168190,1,0,0:0:0:0:
192,192,168190,1,2,0:0:0:92:
64,192,168258,1,2,0:0:0:92:
320,192,168327,1,0,0:0:0:0:
192,192,168327,1,2,0:0:0:92:
448,192,168396,1,2,0:0:0:92:
64,192,168465,1,0,0:0:0:0:
192,192,168465,1,0,0:0:0:0:
320,192,168465,1,2,0:0:0:92:
448,192,168602,1,0,0:0:0:0:
192,192,168602,1,0,0:0:0:0:
64,192,168602,1,2,0:0:0:92:
448,192,168740,1,0,0:0:0:0:
64,192,168740,1,0,0:0:0:0:
320,192,168740,1,2,0:0:0:92:
192,192,168878,1,0,0:0:0:0:
320,192,168878,1,0,0:0:0:0:
448,192,168878,1,2,0:0:0:92:
64,192,169015,1,0,0:0:0:0:
192,192,169015,1,0,0:0:0:0:
320,192,169015,1,2,0:0:0:92:
192,192,169153,1,0,0:0:0:0:
448,192,169153,1,0,0:0:0:0:
320,192,169153,1,2,0:0:0:92:
64,192,169291,1,0,0:0:0:0:
192,192,169291,1,0,0:0:0:0:
320,192,169291,1,2,0:0:0:92:
448,192,169291,1,8,0:0:0:92:
64,192,169428,1,0,0:0:0:0:
192,192,169428,1,0,0:0:0:0:
448,192,169428,1,2,0:0:0:92:
192,192,169566,1,0,0:0:0:0:
320,192,169566,1,0,0:0:0:0:
448,192,169566,1,2,0:0:0:92:
192,192,169703,1,0,0:0:0:0:
320,192,169703,1,0,0:0:0:0:
64,192,169703,1,2,0:0:0:92:
448,192,169841,1,0,0:0:0:0:
320,192,169841,1,0,0:0:0:0:
64,192,169841,1,2,0:0:0:92:
192,192,169910,1,2,0:0:0:92:
320,192,169979,1,0,0:0:0:0:
64,192,169979,1,0,0:0:0:0:
448,192,169979,1,2,0:0:0:92:
192,192,170047,1,2,0:0:0:92:
64,192,170116,1,0,0:0:0:0:
320,192,170116,1,0,0:0:0:0:
448,192,170116,1,2,0:0:0:92:
64,192,170254,1,0,0:0:0:0:
192,192,170254,1,0,0:0:0:0:
320,192,170254,1,2,0:0:0:92:
192,192,170391,1,0,0:0:0:0:
448,192,170391,1,0,0:0:0:0:
64,192,170391,1,2,0:0:0:92:
192,192,170529,1,0,0:0:0:0:
320,192,170529,1,0,0:0:0:0:
448,192,170529,1,2,0:0:0:92:
192,192,170667,1,0,0:0:0:0:
320,192,170667,1,0,0:0:0:0:
64,192,170667,1,2,0:0:0:92:
64,192,170804,1,0,0:0:0:0:
192,192,170804,1,0,0:0:0:0:
448,192,170804,1,2,0:0:0:92:
320,192,170942,1,0,0:0:0:0:
448,192,170942,1,0,0:0:0:0:
64,192,170942,1,8,0:0:0:92:
192,192,170942,1,2,0:0:0:92:
448,192,171080,1,0,0:0:0:0:
320,192,171080,1,0,0:0:0:0:
192,192,171080,1,2,0:0:0:92:
64,192,171217,1,0,0:0:0:0:
192,192,171217,1,0,0:0:0:0:
320,192,171217,1,2,0:0:0:92:
448,192,171355,1,0,0:0:0:0:
64,192,171355,1,0,0:0:0:0:
192,192,171355,1,2,0:0:0:92:
320,192,171492,1,0,0:0:0:0:
64,192,171492,1,0,0:0:0:0:
192,192,171492,1,2,0:0:0:92:
448,192,171561,1,2,0:0:0:92:
192,192,171630,1,0,0:0:0:0:
320,192,171630,1,0,0:0:0:0:
64,192,171630,1,2,0:0:0:92:
448,192,171699,1,2,0:0:0:92:
64,192,171768,1,0,0:0:0:0:
192,192,171768,1,0,0:0:0:0:
320,192,171768,1,2,0:0:0:92:
192,192,171905,1,0,0:0:0:0:
320,192,171905,1,0,0:0:0:0:
448,192,171905,1,2,0:0:0:92:
320,192,172043,1,0,0:0:0:0:
448,192,172043,1,0,0:0:0:0:
64,192,172043,1,2,0:0:0:92:
192,192,172180,1,0,0:0:0:0:
320,192,172180,1,0,0:0:0:0:
64,192,172180,1,2,0:0:0:92:
320,192,172318,1,0,0:0:0:0:
448,192,172318,1,0,0:0:0:0:
192,192,172318,1,2,0:0:0:92:
64,192,172456,1,0,0:0:0:0:
320,192,172456,1,0,0:0:0:0:
448,192,172456,1,2,0:0:0:92:
448,192,172593,1,0,0:0:0:0:
320,192,172593,1,0,0:0:0:0:
64,192,172593,1,2,0:0:0:92:
192,192,172593,1,8,0:0:0:92:
192,192,172731,1,0,0:0:0:0:
320,192,172731,1,0,0:0:0:0:
64,192,172731,1,2,0:0:0:92:
192,192,172869,1,0,0:0:0:0:
320,192,172869,1,0,0:0:0:0:
448,192,172869,1,2,0:0:0:92:
448,192,173006,1,0,0:0:0:0:
320,192,173006,1,0,0:0:0:0:
64,192,173006,1,2,0:0:0:92:
192,192,173144,1,0,0:0:0:0:
320,192,173144,1,0,0:0:0:0:
448,192,173144,1,2,0:0:0:92:
64,192,173213,1,2,0:0:0:92:
448,192,173281,1,0,0:0:0:0:
192,192,173281,1,0,0:0:0:0:
320,192,173281,1,2,0:0:0:92:
64,192,173350,1,2,0:0:0:92:
320,192,173419,1,0,0:0:0:0:
448,192,173419,1,0,0:0:0:0:
192,192,173419,1,2,0:0:0:92:
192,192,173557,1,0,0:0:0:0:
320,192,173557,1,0,0:0:0:0:
64,192,173557,1,2,0:0:0:92:
64,192,173694,1,0,0:0:0:0:
192,192,173694,1,0,0:0:0:0:
448,192,173694,1,2,0:0:0:92:
192,192,173832,1,0,0:0:0:0:
320,192,173832,1,0,0:0:0:0:
448,192,173832,1,2,0:0:0:92:
192,192,173969,1,0,0:0:0:0:
320,192,173969,1,0,0:0:0:0:
64,192,173969,1,2,0:0:0:92:
64,192,174107,1,0,0:0:0:0:
192,192,174107,1,0,0:0:0:0:
448,192,174107,1,2,0:0:0:92:
448,192,174245,1,0,0:0:0:0:
320,192,174245,1,0,0:0:0:0:
192,192,174245,1,0,0:0:0:0:
64,192,174245,1,8,0:0:0:92:
320,192,174382,1,0,0:0:0:0:
64,192,174382,1,0,0:0:0:0:
192,192,174382,1,2,0:0:0:92:
320,192,174520,1,0,0:0:0:0:
448,192,174520,1,0,0:0:0:0:
192,192,174520,1,0,0:0:0:92:Mid Tom.wav
448,192,174658,1,0,0:0:0:0:
192,192,174658,1,0,0:0:0:0:
64,192,174658,1,2,0:0:0:92:
320,192,174795,1,0,0:0:0:0:
448,192,174795,1,8,0:0:0:92:
64,192,174830,1,0,0:0:0:0:
192,192,174830,1,8,0:0:0:92:
448,192,175070,1,0,0:0:0:0:
320,192,175070,1,0,0:0:0:0:
64,192,175070,1,2,0:0:0:66:
192,192,175070,1,4,0:0:0:0:
320,192,175208,1,0,0:0:0:0:
192,192,175208,1,0,0:0:0:0:
64,192,175208,1,2,0:0:0:66:
64,192,175346,1,0,0:0:0:0:
192,192,175346,1,0,0:0:0:0:
448,192,175346,1,2,0:0:0:66:
320,192,175483,1,0,0:0:0:0:
64,192,175483,1,0,0:0:0:0:
448,192,175483,1,2,0:0:0:66:
448,192,175621,1,0,0:0:0:0:
320,192,175621,1,0,0:0:0:0:
192,192,175621,1,2,0:0:0:66:
320,192,175758,1,0,0:0:0:0:
64,192,175758,1,0,0:0:0:0:
192,192,175758,1,2,0:0:0:66:
64,192,175896,1,0,0:0:0:0:
192,192,175896,1,0,0:0:0:0:
320,192,175896,1,8,0:0:0:0:
448,192,175896,1,2,0:0:0:66:
192,192,176034,1,0,0:0:0:0:
64,192,176034,1,0,0:0:0:0:
320,192,176034,1,2,0:0:0:66:
448,192,176171,1,0,0:0:0:0:
192,192,176171,1,0,0:0:0:0:
64,192,176171,1,2,0:0:0:66:
64,192,176309,1,0,0:0:0:0:
192,192,176309,1,0,0:0:0:0:
320,192,176309,1,8,0:0:0:0:
448,192,176309,1,2,0:0:0:66:
320,192,176447,1,0,0:0:0:0:
448,192,176447,1,0,0:0:0:0:
64,192,176447,1,8,0:0:0:0:
192,192,176447,1,2,0:0:0:66:
448,192,176584,1,0,0:0:0:0:
192,192,176584,1,0,0:0:0:0:
320,192,176584,1,2,0:0:0:66:
64,192,176722,1,0,0:0:0:0:
192,192,176722,1,0,0:0:0:0:
320,192,176722,1,4,0:0:0:0:
448,192,176722,1,2,0:0:0:66:
192,192,176859,1,0,0:0:0:0:
64,192,176859,1,0,0:0:0:0:
320,192,176859,1,2,0:0:0:66:
448,192,176997,1,0,0:0:0:0:
192,192,176997,1,0,0:0:0:0:
64,192,176997,1,2,0:0:0:66:
192,192,177135,1,0,0:0:0:0:
320,192,177135,1,0,0:0:0:0:
448,192,177135,1,2,0:0:0:66:
320,192,177272,1,0,0:0:0:0:
64,192,177272,1,0,0:0:0:0:
192,192,177272,1,2,0:0:0:66:
320,192,177410,1,0,0:0:0:0:
448,192,177410,1,0,0:0:0:0:
192,192,177410,1,2,0:0:0:66:
192,192,177547,1,0,0:0:0:0:
64,192,177547,1,0,0:0:0:0:
320,192,177547,1,8,0:0:0:0:
448,192,177547,1,2,0:0:0:66:
64,192,177685,1,0,0:0:0:0:
192,192,177685,1,0,0:0:0:0:
320,192,177685,1,2,0:0:0:66:
448,192,177823,1,0,0:0:0:0:
64,192,177823,1,0,0:0:0:0:
192,192,177823,1,2,0:0:0:66:
448,192,177960,1,0,0:0:0:0:
64,192,177960,1,0,0:0:0:0:
320,192,177960,1,8,0:0:0:0:
192,192,177960,1,2,0:0:0:66:
448,192,178098,1,0,0:0:0:0:
192,192,178098,1,0,0:0:0:0:
64,192,178098,1,8,0:0:0:0:
320,192,178098,1,2,0:0:0:66:
64,192,178236,1,0,0:0:0:0:
192,192,178236,1,0,0:0:0:0:
448,192,178236,1,2,0:0:0:66:
448,192,178373,1,0,0:0:0:0:
320,192,178373,1,0,0:0:0:0:
64,192,178373,1,4,0:0:0:0:
192,192,178373,1,2,0:0:0:66:
320,192,178511,1,0,0:0:0:0:
448,192,178511,1,0,0:0:0:0:
192,192,178511,1,2,0:0:0:66:
64,192,178648,1,0,0:0:0:0:
320,192,178648,1,0,0:0:0:0:
448,192,178648,1,2,0:0:0:66:
448,192,178786,1,0,0:0:0:0:
320,192,178786,1,0,0:0:0:0:
192,192,178786,1,2,0:0:0:66:
64,192,178786,1,8,0:0:0:0:
448,192,178924,1,0,0:0:0:0:
64,192,178924,1,0,0:0:0:0:
192,192,178924,1,2,0:0:0:66:
448,192,179061,1,0,0:0:0:0:
192,192,179061,1,0,0:0:0:0:
320,192,179061,1,2,0:0:0:66:
320,192,179199,1,0,0:0:0:0:
448,192,179199,1,0,0:0:0:0:
64,192,179199,1,8,0:0:0:0:
192,192,179199,1,2,0:0:0:66:
320,192,179336,1,0,0:0:0:0:
192,192,179336,1,0,0:0:0:0:
64,192,179336,1,2,0:0:0:66:
192,192,179474,1,0,0:0:0:0:
64,192,179474,1,0,0:0:0:0:
448,192,179474,1,2,0:0:0:66:
64,192,179612,1,0,0:0:0:0:
192,192,179612,1,0,0:0:0:0:
320,192,179612,1,8,0:0:0:0:
448,192,179612,1,2,0:0:0:66:
192,192,179749,1,0,0:0:0:0:
64,192,179749,1,0,0:0:0:0:
448,192,179749,1,2,0:0:0:66:
320,192,179749,1,8,0:0:0:0:
448,192,179887,1,0,0:0:0:0:
320,192,179887,1,0,0:0:0:0:
192,192,179887,1,2,0:0:0:66:
64,192,180024,1,0,0:0:0:0:
192,192,180024,1,0,0:0:0:0:
320,192,180024,1,4,0:0:0:0:
448,192,180024,1,2,0:0:0:66:
320,192,180162,1,0,0:0:0:0:
448,192,180162,1,0,0:0:0:0:
64,192,180162,1,2,0:0:0:66:
64,192,180300,1,0,0:0:0:0:
192,192,180300,1,0,0:0:0:0:
448,192,180300,1,2,0:0:0:66:
448,192,180437,1,0,0:0:0:0:
320,192,180437,1,0,0:0:0:0:
64,192,180437,1,8,0:0:0:0:
192,192,180437,1,2,0:0:0:66:
320,192,180575,1,0,0:0:0:0:
64,192,180575,1,0,0:0:0:0:
192,192,180575,1,2,0:0:0:66:
448,192,180713,1,0,0:0:0:0:
64,192,180713,1,0,0:0:0:0:
192,192,180713,1,2,0:0:0:66:
448,192,180850,1,0,0:0:0:0:
320,192,180850,1,0,0:0:0:0:
64,192,180850,1,8,0:0:0:0:
192,192,180850,1,2,0:0:0:66:
320,192,180988,1,0,0:0:0:0:
64,192,180988,1,0,0:0:0:0:
448,192,180988,1,2,0:0:0:66:
192,192,181057,1,2,0:0:0:66:
320,192,181125,1,0,0:0:0:0:
448,192,181125,1,0,0:0:0:0:
64,192,181125,1,8,0:0:0:66:
192,192,181263,1,0,0:0:0:0:
64,192,181263,1,0,0:0:0:0:
320,192,181263,1,2,0:0:0:66:
448,192,181332,1,2,0:0:0:66:
64,192,181401,1,0,0:0:0:0:
192,192,181401,1,0,0:0:0:0:
320,192,181401,1,8,0:0:0:66:
192,192,181676,1,0,0:0:0:0:
64,192,181676,1,0,0:0:0:0:
320,192,181676,1,4,0:0:0:0:
448,192,181676,1,2,0:0:0:66:
320,192,181813,1,0,0:0:0:0:
64,192,181813,1,0,0:0:0:0:
192,192,181813,1,2,0:0:0:66:
64,192,181951,1,0,0:0:0:0:
192,192,181951,1,0,0:0:0:0:
448,192,181951,1,2,0:0:0:66:
448,192,182089,1,0,0:0:0:0:
192,192,182089,1,0,0:0:0:0:
320,192,182089,1,2,0:0:0:66:
320,192,182226,1,0,0:0:0:0:
192,192,182226,1,0,0:0:0:0:
64,192,182226,1,2,0:0:0:66:
448,192,182364,1,0,0:0:0:0:
192,192,182364,1,0,0:0:0:0:
320,192,182364,1,2,0:0:0:66:
64,192,182502,1,0,0:0:0:0:
192,192,182502,1,0,0:0:0:0:
320,192,182502,1,2,0:0:0:66:
448,192,182502,1,8,0:0:0:0:
64,192,182639,1,0,0:0:0:0:
192,192,182639,1,0,0:0:0:0:
448,192,182639,1,2,0:0:0:66:
320,192,182777,1,0,0:0:0:0:
64,192,182777,1,0,0:0:0:0:
192,192,182777,1,2,0:0:0:66:
64,192,182914,1,0,0:0:0:0:
192,192,182914,1,0,0:0:0:0:
448,192,182914,1,2,0:0:0:66:
192,192,183052,1,0,0:0:0:0:
320,192,183052,1,0,0:0:0:0:
448,192,183052,1,2,0:0:0:66:
64,192,183121,1,2,0:0:0:66:
448,192,183190,1,0,0:0:0:0:
192,192,183190,1,0,0:0:0:0:
320,192,183190,1,2,0:0:0:66:
64,192,183258,1,2,0:0:0:66:
192,192,183327,1,0,0:0:0:0:
320,192,183327,1,0,0:0:0:0:
448,192,183327,1,2,0:0:0:66:
192,192,183465,1,0,0:0:0:0:
320,192,183465,1,0,0:0:0:0:
64,192,183465,1,2,0:0:0:66:
64,192,183602,1,0,0:0:0:0:
448,192,183602,1,0,0:0:0:0:
192,192,183602,1,2,0:0:0:66:
192,192,183740,1,0,0:0:0:0:
320,192,183740,1,0,0:0:0:0:
448,192,183740,1,2,0:0:0:66:
448,192,183878,1,0,0:0:0:0:
192,192,183878,1,0,0:0:0:0:
320,192,183878,1,2,0:0:0:66:
192,192,184015,1,0,0:0:0:0:
320,192,184015,1,0,0:0:0:0:
64,192,184015,1,2,0:0:0:66:
192,192,184153,1,0,0:0:0:0:
64,192,184153,1,0,0:0:0:0:
448,192,184153,1,8,0:0:0:0:
320,192,184153,1,2,0:0:0:66:
64,192,184291,1,0,0:0:0:0:
192,192,184291,1,0,0:0:0:0:
320,192,184291,1,2,0:0:0:66:
448,192,184428,1,0,0:0:0:0:
192,192,184428,1,0,0:0:0:0:
320,192,184428,1,2,0:0:0:66:
64,192,184566,1,0,0:0:0:0:
448,192,184566,1,0,0:0:0:0:
320,192,184566,1,2,0:0:0:66:
64,192,184703,1,0,0:0:0:0:
192,192,184703,1,0,0:0:0:0:
448,192,184703,1,2,0:0:0:66:
320,192,184772,1,2,0:0:0:66:
192,192,184841,1,0,0:0:0:0:
64,192,184841,1,0,0:0:0:0:
448,192,184841,1,2,0:0:0:66:
320,192,184910,1,2,0:0:0:66:
192,192,184979,1,0,0:0:0:0:
448,192,184979,1,0,0:0:0:0:
64,192,184979,1,2,0:0:0:66:
448,192,185116,1,0,0:0:0:0:
192,192,185116,1,0,0:0:0:0:
320,192,185116,1,2,0:0:0:66:
192,192,185254,1,0,0:0:0:0:
320,192,185254,1,0,0:0:0:0:
64,192,185254,1,2,0:0:0:66:
192,192,185391,1,0,0:0:0:0:
448,192,185391,1,0,0:0:0:0:
64,192,185391,1,2,0:0:0:66:
448,192,185529,1,0,0:0:0:0:
192,192,185529,1,0,0:0:0:0:
320,192,185529,1,2,0:0:0:66:
320,192,185667,1,0,0:0:0:0:
64,192,185667,1,0,0:0:0:0:
192,192,185667,1,2,0:0:0:66:
64,192,185804,1,0,0:0:0:0:
192,192,185804,1,0,0:0:0:0:
320,192,185804,1,8,0:0:0:0:
448,192,185804,1,2,0:0:0:66:
64,192,185942,1,0,0:0:0:0:
448,192,185942,1,0,0:0:0:0:
192,192,185942,1,2,0:0:0:66:
448,192,186080,1,0,0:0:0:0:
320,192,186080,1,0,0:0:0:0:
192,192,186080,1,2,0:0:0:66:
64,192,186217,1,0,0:0:0:0:
192,192,186217,1,0,0:0:0:0:
320,192,186217,1,2,0:0:0:66:
64,192,186355,1,0,0:0:0:0:
320,192,186355,1,0,0:0:0:0:
448,192,186355,1,2,0:0:0:66:
192,192,186424,1,2,0:0:0:66:
320,192,186492,1,0,0:0:0:0:
448,192,186492,1,0,0:0:0:0:
64,192,186492,1,2,0:0:0:66:
192,192,186561,1,2,0:0:0:66:
64,192,186630,1,0,0:0:0:0:
320,192,186630,1,0,0:0:0:0:
448,192,186630,1,2,0:0:0:66:
320,192,186768,1,0,0:0:0:0:
448,192,186768,1,0,0:0:0:0:
192,192,186768,1,2,0:0:0:66:
320,192,186905,1,0,0:0:0:0:
64,192,186905,1,0,0:0:0:0:
192,192,186905,1,2,0:0:0:66:
448,192,187043,1,0,0:0:0:0:
192,192,187043,1,0,0:0:0:0:
64,192,187043,1,2,0:0:0:66:
448,192,187180,1,0,0:0:0:0:
192,192,187180,1,0,0:0:0:0:
320,192,187180,1,2,0:0:0:66:
320,192,187318,1,0,0:0:0:0:
192,192,187318,1,0,0:0:0:0:
64,192,187318,1,2,0:0:0:66:
320,192,187456,1,0,0:0:0:0:
448,192,187456,1,0,0:0:0:0:
64,192,187456,1,0,0:0:0:0:
192,192,187456,1,8,0:0:0:0:
64,192,187593,1,0,0:0:0:0:
192,192,187593,1,0,0:0:0:0:
320,192,187593,1,2,0:0:0:66:
448,192,187662,1,2,0:0:0:66:
320,192,187731,1,0,0:0:0:0:
192,192,187731,1,0,0:0:0:0:
64,192,187731,1,0,0:0:0:92:Mid Tom.wav
320,192,187869,1,0,0:0:0:0:
192,192,187869,1,0,0:0:0:0:
448,192,187869,1,2,0:0:0:66:
64,192,187937,1,2,0:0:0:66:
320,192,188006,1,0,0:0:0:0:
448,192,188006,1,8,0:0:0:66:
192,192,188041,1,8,0:0:0:66:
448,0,188281,128,0,188557:0:0:0:0:
64,0,188281,128,2,188557:0:0:0:66:
320,0,188281,128,4,188557:0:0:0:0:
64,192,188694,1,0,0:0:0:0:
192,192,188694,1,0,0:0:0:0:
448,192,188694,1,2,0:0:0:0:
320,0,189107,128,0,189520:0:0:0:0:
192,0,189107,128,4,189520:0:0:0:0:
64,0,189107,128,2,189520:0:0:0:0:
448,192,189658,1,0,0:0:0:0:
320,192,189658,1,0,0:0:0:0:
192,192,189658,1,8,0:0:0:66:
448,192,189933,1,0,0:0:0:0:
64,0,189933,128,4,190208:0:0:0:0:
192,0,189933,128,2,190208:0:0:0:0:
448,0,190070,128,0,190208:0:0:0:0:
320,0,190208,128,0,190346:0:0:0:0:
448,0,190346,128,0,190483:0:0:0:0:
64,0,190346,128,4,190483:0:0:0:0:
192,192,190346,1,2,0:0:0:0:
192,0,190621,128,0,190758:0:0:0:0:
448,0,190758,128,0,190896:0:0:0:0:
320,0,190758,128,0,190896:0:0:0:0:
64,192,190758,1,8,0:0:0:0:
64,192,190896,1,0,0:0:0:70:HiHat.wav
192,192,191034,1,0,0:0:0:0:
320,192,191034,1,2,0:0:0:0:
64,192,191171,1,0,0:0:0:0:
320,192,191171,1,0,0:0:0:92:Mid Tom.wav
448,192,191309,1,0,0:0:0:0:
64,192,191309,1,0,0:0:0:0:
192,192,191309,1,8,0:0:0:0:
448,0,191584,128,0,191928:0:0:0:0:
192,0,191584,128,4,191928:0:0:0:0:
320,0,191584,128,2,191928:0:0:0:0:
320,0,191997,128,0,192272:0:0:0:0:
64,0,191997,128,2,192272:0:0:0:0:
192,0,191997,128,4,192272:0:0:0:0:
192,0,192410,128,0,192479:0:0:0:0:
320,192,192410,128,2,192479:0:0:0:0:
64,0,192410,128,4,192479:0:0:0:0:
448,192,192444,1,0,0:0:0:0:
448,0,192823,128,0,192891:0:0:0:0:
320,0,192823,128,4,192891:0:0:0:0:
64,0,192823,128,2,192891:0:0:0:0:
320,0,193236,128,0,193648:0:0:0:0:
64,0,193236,128,4,193924:0:0:0:0:
192,0,193236,128,2,193924:0:0:0:0:
448,192,193648,128,8,193924:0:0:0:0:
448,0,194061,128,0,194749:0:0:0:0:
320,0,194061,128,4,194749:0:0:0:0:
192,0,194061,128,2,194474:0:0:0:0:
64,0,194474,128,0,194749:0:0:0:0:
64,192,194887,1,0,0:0:0:0:
192,0,194887,128,4,195024:0:0:0:0:
320,0,194887,128,2,195024:0:0:0:0:
448,0,195024,128,0,195162:0:0:0:0:
64,0,195300,128,0,195575:0:0:0:0:
448,0,195300,128,0,195575:0:0:0:0:
192,192,195300,1,2,0:0:0:0:
192,0,195713,128,0,195850:0:0:0:0:
320,0,195713,128,4,195850:0:0:0:0:
448,192,195713,1,2,0:0:0:0:
64,0,195850,128,0,195988:0:0:0:0:
448,0,196125,128,0,196401:0:0:0:0:
64,192,196125,128,0,196401:0:0:0:0:
192,192,196263,1,0,0:0:0:0:
320,192,196263,1,8,0:0:0:0:
64,0,196538,128,0,196813:0:0:0:0:
192,0,196538,128,4,196813:0:0:0:0:
320,0,196538,128,2,196813:0:0:0:0:
320,0,196951,128,2,197226:0:0:0:0:
192,0,196951,128,4,197226:0:0:0:0:
448,0,196986,128,0,197226:0:0:0:0:
64,192,197364,1,0,0:0:0:0:
320,192,197364,1,0,0:0:0:0:
448,0,197364,128,8,197502:0:0:0:0:
192,192,197502,1,0,0:0:0:0:
320,192,197502,1,0,0:0:0:70:HiHat.wav
64,192,197639,1,0,0:0:0:0:
448,192,197639,1,2,0:0:0:0:
320,192,197777,1,0,0:0:0:0:
192,192,197777,1,0,0:0:0:92:Mid Tom.wav
320,192,197914,1,0,0:0:0:0:
448,192,197914,1,0,0:0:0:0:
64,192,197914,1,8,0:0:0:0:
192,0,198190,128,0,198327:0:0:0:0:
320,0,198190,128,4,198465:0:0:0:0:
448,0,198190,128,2,198465:0:0:0:0:
64,192,198465,1,0,0:0:0:0:
192,192,198557,1,0,0:0:0:0:
320,192,198648,1,0,0:0:0:0:
64,192,198740,1,0,0:0:0:0:
448,192,198740,1,0,0:0:0:0:
320,192,198832,1,0,0:0:0:0:
192,192,198924,1,0,0:0:0:0:
64,0,199015,128,0,199153:0:0:0:0:
320,0,199015,128,4,199153:0:0:0:0:
448,0,199015,128,2,199153:0:0:0:0:
192,0,199428,128,0,199566:0:0:0:0:
64,0,199428,128,4,199566:0:0:0:0:
448,0,199428,128,2,199566:0:0:0:0:
192,0,199841,128,0,200116:0:0:0:0:
320,0,199841,128,4,200391:0:0:0:0:
448,0,199841,128,2,200391:0:0:0:0:
64,0,200391,128,0,200529:0:0:0:0:
192,0,200391,128,0,200529:0:0:0:0:
192,0,200667,128,0,201080:0:0:0:0:
64,0,200667,128,4,201217:0:0:0:0:
448,0,200667,128,2,201217:0:0:0:0:
192,0,201217,128,0,201355:0:0:0:0:
320,0,201217,128,0,201355:0:0:0:0:
