osu file format v14

[General]
AudioFilename: audio.mp3
AudioLeadIn: 0
PreviewTime: -1
Countdown: 0
SampleSet: Normal
StackLeniency: 0.7
Mode: 3
LetterboxInBreaks: 0
SpecialStyle: 0
WidescreenStoryboard: 0

[Editor]
DistanceSpacing: 0.8
BeatDivisor: 6
GridSize: 8
TimelineZoom: 3

[Metadata]
Title:Son of Robot
TitleUnicode:Son of Robot
Artist:Dance Gavin Dance
ArtistUnicode:Dance Gavin Dance
Creator:PrameeZA000
Version:Never Wake Up
Source:
Tags:
BeatmapID:4548451
BeatmapSetID:2157609

[Difficulty]
HPDrainRate:7
CircleSize:4
OverallDifficulty:7.5
ApproachRate:5
SliderMultiplier:1.4
SliderTickRate:1

[Events]
//Background and Video events
0,0,"DGD.png",0,0
//Break Periods
//Storyboard Layer 0 (Background)
//Storyboard Layer 1 (Fail)
//Storyboard Layer 2 (Pass)
//Storyboard Layer 3 (Foreground)
//Storyboard Layer 4 (Overlay)
//Storyboard Sound Samples

[TimingPoints]
0,275.229357798165,4,1,0,100,1,0

[HitObjects]
448,192,0,128,0,688:0:0:0:0:
320,192,688,128,0,894:0:0:0:0:
192,192,894,1,0,0:0:0:0:
64,192,894,128,0,1720:0:0:0:0:
320,192,1238,128,0,1513:0:0:0:0:
192,192,1513,128,0,1720:0:0:0:0:
448,192,1720,128,0,2339:0:0:0:0:
320,192,1995,128,0,2201:0:0:0:0:
64,192,2201,128,0,2339:0:0:0:0:
192,192,2339,128,0,2821:0:0:0:0:
64,192,2614,128,0,2821:0:0:0:0:
448,192,2821,1,0,0:0:0:0:
320,192,2821,128,0,3096:0:0:0:0:
192,192,3096,1,0,0:0:0:0:
64,192,3096,128,0,3302:0:0:0:0:
320,192,3302,128,0,3922:0:0:0:0:
192,192,3646,128,0,3922:0:0:0:0:
448,192,3922,1,0,0:0:0:0:
64,192,3922,128,0,4610:0:0:0:0:
320,192,4197,1,0,0:0:0:0:
448,192,4197,128,0,4610:0:0:0:0:
192,192,4747,128,0,4816:0:0:0:0:
320,192,4816,128,0,5022:0:0:0:0:
192,192,5022,128,0,5573:0:0:0:0:
448,192,5022,1,0,0:0:0:0:
320,192,5366,128,0,5573:0:0:0:0:
64,192,5573,1,0,0:0:0:0:
448,192,5573,128,0,5986:0:0:0:0:
64,192,5848,128,0,6399:0:0:0:0:
192,192,5848,128,0,6261:0:0:0:0:
448,192,6399,1,0,0:0:0:0:
320,192,6399,128,0,6605:0:0:0:0:
192,192,6605,128,0,7224:0:0:0:0:
64,192,6605,1,0,0:0:0:0:
320,192,6949,128,0,7087:0:0:0:0:
64,192,7224,128,0,7499:0:0:0:0:
448,192,7224,128,0,7293:0:0:0:0:
320,192,7499,128,0,8325:0:0:0:0:
448,192,7499,1,0,0:0:0:0:
192,192,7499,1,0,0:0:0:0:
64,192,7981,128,0,8119:0:0:0:0:
192,192,8119,1,0,0:0:0:0:
448,192,8325,1,0,0:0:0:0:
64,192,8325,1,0,0:0:0:0:
192,192,8532,128,0,8876:0:0:0:0:
64,192,8807,128,0,8876:0:0:0:0:
320,192,8876,1,0,0:0:0:0:
448,192,8876,128,0,9151:0:0:0:0:
64,192,9151,1,0,0:0:0:0:
192,192,9151,128,0,9977:0:0:0:0:
320,192,9426,128,0,9701:0:0:0:0:
64,192,9701,1,0,0:0:0:0:
448,192,9977,1,0,0:0:0:0:
320,192,9977,128,0,10802:0:0:0:0:
64,192,10045,128,0,10321:0:0:0:0:
192,192,10321,1,0,0:0:0:0:
448,192,10527,128,0,10802:0:0:0:0:
192,192,10802,128,0,11284:0:0:0:0:
64,192,10802,1,0,0:0:0:0:
448,192,11284,128,0,11697:0:0:0:0:
64,192,11284,128,0,11490:0:0:0:0:
192,192,11490,1,0,0:0:0:0:
64,192,11697,1,0,0:0:0:0:
320,192,11697,1,0,0:0:0:0:
448,192,11766,128,0,12178:0:0:0:0:
64,192,12178,128,0,12454:0:0:0:0:
192,192,12178,1,0,0:0:0:0:
192,192,12454,128,0,13073:0:0:0:0:
320,192,12660,128,0,12866:0:0:0:0:
448,192,12866,128,0,13073:0:0:0:0:
64,192,13073,1,0,0:0:0:0:
320,192,13073,128,0,13279:0:0:0:0:
192,192,13279,128,0,13830:0:0:0:0:
448,192,13279,1,0,0:0:0:0:
448,192,13623,128,0,13830:0:0:0:0:
320,192,13830,1,0,0:0:0:0:
64,192,13830,128,0,14105:0:0:0:0:
320,192,14105,1,0,0:0:0:0:
448,192,14105,128,0,14380:0:0:0:0:
320,192,14380,128,0,14655:0:0:0:0:
64,192,14380,1,0,0:0:0:0:
192,192,14655,128,0,14931:0:0:0:0:
448,192,14655,128,0,14862:0:0:0:0:
64,192,14931,128,0,15481:0:0:0:0:
320,192,15137,1,0,0:0:0:0:
192,192,15344,1,0,0:0:0:0:
448,192,15481,128,0,15688:0:0:0:0:
320,192,15550,128,0,15756:0:0:0:0:
192,192,15756,128,0,16032:0:0:0:0:
64,192,15756,1,0,0:0:0:0:
448,192,16032,128,0,16238:0:0:0:0:
320,192,16100,128,0,16376:0:0:0:0:
192,192,16376,128,0,16582:0:0:0:0:
64,192,16582,128,0,17133:0:0:0:0:
320,192,16582,128,0,16788:0:0:0:0:
448,192,16788,128,0,17133:0:0:0:0:
320,192,17133,1,0,0:0:0:0:
192,192,17133,128,0,17408:0:0:0:0:
448,192,17408,1,0,0:0:0:0:
320,192,17408,128,0,17821:0:0:0:0:
64,192,17408,128,0,17821:0:0:0:0:
192,192,17821,128,0,18096:0:0:0:0:
448,192,17821,128,0,18096:0:0:0:0:
64,192,18096,128,0,18233:0:0:0:0:
192,192,18233,128,0,18509:0:0:0:0:
448,192,18233,128,0,18509:0:0:0:0:
320,192,18509,1,0,0:0:0:0:
192,192,18646,1,0,0:0:0:0:
64,192,18784,128,0,19059:0:0:0:0:
320,192,18784,128,0,19059:0:0:0:0:
192,192,19128,128,0,19197:0:0:0:0:
448,192,19128,128,0,19197:0:0:0:0:
64,192,19197,128,0,19541:0:0:0:0:
320,192,19197,128,0,19541:0:0:0:0:
192,192,19541,1,0,0:0:0:0:
448,192,19541,1,0,0:0:0:0:
320,192,19610,1,0,0:0:0:0:
64,192,19610,1,0,0:0:0:0:
192,192,19954,128,0,20298:0:0:0:0:
320,192,19954,1,0,0:0:0:0:
448,192,19954,128,0,20504:0:0:0:0:
64,192,19954,1,0,0:0:0:0:
64,192,20298,128,0,20711:0:0:0:0:
320,192,20298,128,0,20711:0:0:0:0:
448,192,20711,128,0,20986:0:0:0:0:
192,192,20986,128,0,21123:0:0:0:0:
64,192,21123,128,0,21467:0:0:0:0:
448,192,21261,128,0,21467:0:0:0:0:
192,192,21536,128,0,21605:0:0:0:0:
320,192,21536,128,0,21605:0:0:0:0:
64,192,21605,128,0,22362:0:0:0:0:
448,192,21605,128,0,21949:0:0:0:0:
320,192,22155,1,0,0:0:0:0:
448,192,22362,1,0,0:0:0:0:
320,192,22362,128,0,22568:0:0:0:0:
64,192,22568,128,0,22912:0:0:0:0:
192,192,22912,128,0,23119:0:0:0:0:
448,192,22912,1,0,0:0:0:0:
64,192,23119,1,0,0:0:0:0:
448,192,23119,1,0,0:0:0:0:
192,192,23188,128,0,24426:0:0:0:0:
320,192,23188,128,0,23669:0:0:0:0:
448,192,23188,128,0,25389:0:0:0:0:
64,192,23188,128,0,24013:0:0:0:0:
320,192,23738,128,0,24770:0:0:0:0:
64,192,24082,128,0,26215:0:0:0:0:
192,192,24495,128,0,26146:0:0:0:0:
320,192,24839,128,0,25665:0:0:0:0:
448,192,25458,128,0,26077:0:0:0:0:
320,192,25733,128,0,26215:0:0:0:0:
192,192,26284,1,0,0:0:0:0:
192,192,26525,1,0,0:0:0:0:
64,192,26525,1,0,0:0:0:0:
320,192,26559,1,0,0:0:0:0:
192,192,26594,128,0,26628:0:0:0:0:
448,192,26628,128,0,26697:0:0:0:0:
64,192,26628,1,0,0:0:0:0:
192,192,26697,1,0,0:0:0:0:
64,192,26731,1,0,0:0:0:0:
320,192,26766,1,0,0:0:0:0:
448,192,26766,1,0,0:0:0:0:
64,192,26800,1,0,0:0:0:0:
192,192,26834,1,0,0:0:0:0:
448,192,26869,1,0,0:0:0:0:
64,192,26903,128,0,26972:0:0:0:0:
320,192,26903,1,0,0:0:0:0:
192,192,26972,1,0,0:0:0:0:
320,192,26972,1,0,0:0:0:0:
448,192,27006,1,0,0:0:0:0:
64,192,27075,1,0,0:0:0:0:
192,192,27075,1,0,0:0:0:0:
320,192,27075,128,0,27110:0:0:0:0:
448,192,27110,128,0,27178:0:0:0:0:
320,192,27178,1,0,0:0:0:0:
64,192,27213,1,0,0:0:0:0:
192,192,27213,128,0,27247:0:0:0:0:
448,192,27247,128,0,27316:0:0:0:0:
64,192,27316,1,0,0:0:0:0:
320,192,27350,1,0,0:0:0:0:
192,192,27350,1,0,0:0:0:0:
64,192,27419,1,0,0:0:0:0:
192,192,27454,1,0,0:0:0:0:
448,192,27454,1,0,0:0:0:0:
320,192,27488,1,0,0:0:0:0:
64,192,27522,1,0,0:0:0:0:
192,192,27522,128,0,27557:0:0:0:0:
448,192,27557,128,0,27626:0:0:0:0:
64,192,27626,1,0,0:0:0:0:
192,192,27660,128,0,27694:0:0:0:0:
320,192,27660,1,0,0:0:0:0:
64,192,27694,128,0,27763:0:0:0:0:
448,192,27729,1,0,0:0:0:0:
320,192,27763,1,0,0:0:0:0:
192,192,27798,1,0,0:0:0:0:
448,192,27832,128,0,27866:0:0:0:0:
64,192,27832,1,0,0:0:0:0:
320,192,27901,1,0,0:0:0:0:
192,192,27901,1,0,0:0:0:0:
64,192,27935,128,0,27970:0:0:0:0:
448,192,27970,1,0,0:0:0:0:
320,192,28004,1,0,0:0:0:0:
192,192,28038,128,0,28073:0:0:0:0:
320,192,28073,1,0,0:0:0:0:
448,192,28073,1,0,0:0:0:0:
64,192,28073,128,0,28142:0:0:0:0:
448,192,28142,1,0,0:0:0:0:
192,192,28176,1,0,0:0:0:0:
320,192,28176,1,0,0:0:0:0:
64,192,28211,1,0,0:0:0:0:
320,192,28245,128,0,28279:0:0:0:0:
448,192,28279,1,0,0:0:0:0:
192,192,28314,1,0,0:0:0:0:
64,192,28348,1,0,0:0:0:0:
448,192,28348,128,0,28383:0:0:0:0:
320,192,28417,1,0,0:0:0:0:
64,192,28417,128,0,28451:0:0:0:0:
192,192,28451,1,0,0:0:0:0:
448,192,28486,1,0,0:0:0:0:
64,192,28520,128,0,28555:0:0:0:0:
192,192,28520,1,0,0:0:0:0:
320,192,28555,1,0,0:0:0:0:
448,192,28589,1,0,0:0:0:0:
192,192,28623,128,0,28658:0:0:0:0:
64,192,28658,1,0,0:0:0:0:
320,192,28692,1,0,0:0:0:0:
448,192,28727,1,0,0:0:0:0:
192,192,28761,128,0,28795:0:0:0:0:
64,192,28761,128,0,28864:0:0:0:0:
320,192,28830,1,0,0:0:0:0:
448,192,28830,1,0,0:0:0:0:
192,192,28864,1,0,0:0:0:0:
320,192,28899,128,0,28933:0:0:0:0:
448,192,28933,1,0,0:0:0:0:
64,192,28933,1,0,0:0:0:0:
448,192,29002,1,0,0:0:0:0:
192,192,29002,1,0,0:0:0:0:
64,192,29036,128,0,29071:0:0:0:0:
320,192,29036,1,0,0:0:0:0:
192,192,29105,1,0,0:0:0:0:
320,192,29139,1,0,0:0:0:0:
448,192,29139,128,0,29174:0:0:0:0:
64,192,29174,128,0,29243:0:0:0:0:
192,192,29243,1,0,0:0:0:0:
320,192,29277,128,0,29311:0:0:0:0:
448,192,29311,1,0,0:0:0:0:
192,192,29346,128,0,29415:0:0:0:0:
64,192,29415,1,0,0:0:0:0:
448,192,29415,128,0,29483:0:0:0:0:
320,192,29483,1,0,0:0:0:0:
192,192,29518,128,0,29552:0:0:0:0:
64,192,29552,1,0,0:0:0:0:
448,192,29587,128,0,29621:0:0:0:0:
320,192,29621,1,0,0:0:0:0:
192,192,29655,1,0,0:0:0:0:
64,192,29690,1,0,0:0:0:0:
448,192,29724,1,0,0:0:0:0:
320,192,29724,128,0,29759:0:0:0:0:
192,192,29759,1,0,0:0:0:0:
64,192,29793,1,0,0:0:0:0:
320,192,29827,1,0,0:0:0:0:
448,192,29827,1,0,0:0:0:0:
192,192,29862,128,0,29896:0:0:0:0:
64,192,29896,1,0,0:0:0:0:
448,192,29896,128,0,29931:0:0:0:0:
320,192,29965,1,0,0:0:0:0:
192,192,29999,1,0,0:0:0:0:
64,192,29999,128,0,30034:0:0:0:0:
320,192,30068,1,0,0:0:0:0:
448,192,30068,128,0,30103:0:0:0:0:
64,192,30103,1,0,0:0:0:0:
192,192,30137,1,0,0:0:0:0:
320,192,30172,128,0,30206:0:0:0:0:
448,192,30206,1,0,0:0:0:0:
64,192,30206,128,0,30275:0:0:0:0:
192,192,30275,1,0,0:0:0:0:
448,192,30309,1,0,0:0:0:0:
320,192,30344,128,0,30378:0:0:0:0:
192,192,30378,1,0,0:0:0:0:
64,192,30412,1,0,0:0:0:0:
448,192,30447,1,0,0:0:0:0:
192,192,30481,1,0,0:0:0:0:
64,192,30516,128,0,30550:0:0:0:0:
320,192,30516,1,0,0:0:0:0:
448,192,30550,1,0,0:0:0:0:
320,192,30584,128,0,30619:0:0:0:0:
192,192,30619,1,0,0:0:0:0:
448,192,30653,128,0,30688:0:0:0:0:
64,192,30653,1,0,0:0:0:0:
192,192,30688,1,0,0:0:0:0:
320,192,30722,128,0,30791:0:0:0:0:
448,192,30791,1,0,0:0:0:0:
64,192,30791,1,0,0:0:0:0:
192,192,30825,1,0,0:0:0:0:
320,192,30860,128,0,30894:0:0:0:0:
448,192,30894,1,0,0:0:0:0:
192,192,30894,128,0,30928:0:0:0:0:
64,192,30928,1,0,0:0:0:0:
448,192,30963,1,0,0:0:0:0:
320,192,30997,128,0,31032:0:0:0:0:
192,192,31032,1,0,0:0:0:0:
64,192,31066,1,0,0:0:0:0:
448,192,31066,128,0,31100:0:0:0:0:
192,192,31135,1,0,0:0:0:0:
320,192,31169,1,0,0:0:0:0:
448,192,31169,128,0,31204:0:0:0:0:
64,192,31204,128,0,31272:0:0:0:0:
192,192,31272,1,0,0:0:0:0:
320,192,31307,1,0,0:0:0:0:
448,192,31341,128,0,31376:0:0:0:0:
192,192,31376,1,0,0:0:0:0:
64,192,31376,1,0,0:0:0:0:
320,192,31410,1,0,0:0:0:0:
192,192,31444,128,0,31479:0:0:0:0:
64,192,31479,1,0,0:0:0:0:
448,192,31479,128,0,31513:0:0:0:0:
320,192,31548,128,0,31616:0:0:0:0:
64,192,31582,1,0,0:0:0:0:
192,192,31616,1,0,0:0:0:0:
448,192,31651,128,0,31685:0:0:0:0:
320,192,31720,1,0,0:0:0:0:
192,192,31720,1,0,0:0:0:0:
64,192,31754,128,0,31788:0:0:0:0:
448,192,31788,1,0,0:0:0:0:
320,192,31823,128,0,31857:0:0:0:0:
192,192,31857,1,0,0:0:0:0:
64,192,31857,1,0,0:0:0:0:
448,192,31892,128,0,31926:0:0:0:0:
192,192,31926,1,0,0:0:0:0:
64,192,31926,1,0,0:0:0:0:
320,192,31995,1,0,0:0:0:0:
448,192,31995,128,0,32029:0:0:0:0:
192,192,32029,1,0,0:0:0:0:
64,192,32029,128,0,32064:0:0:0:0:
448,192,32098,1,0,0:0:0:0:
64,192,32133,128,0,32167:0:0:0:0:
192,192,32167,1,0,0:0:0:0:
320,192,32201,1,0,0:0:0:0:
448,192,32236,1,0,0:0:0:0:
192,192,32270,128,0,32305:0:0:0:0:
64,192,32270,1,0,0:0:0:0:
320,192,32305,1,0,0:0:0:0:
448,192,32339,128,0,32408:0:0:0:0:
64,192,32373,128,0,32408:0:0:0:0:
192,192,32408,1,0,0:0:0:0:
320,192,32477,1,0,0:0:0:0:
448,192,32511,128,0,32580:0:0:0:0:
64,192,32545,128,0,32614:0:0:0:0:
320,192,32614,128,0,32683:0:0:0:0:
192,192,32614,1,0,0:0:0:0:
192,192,32717,1,0,0:0:0:0:
448,192,32752,128,0,32821:0:0:0:0:
64,192,32786,1,0,0:0:0:0:
320,192,32855,1,0,0:0:0:0:
192,192,32889,128,0,32993:0:0:0:0:
320,192,32993,1,0,0:0:0:0:
64,192,33061,1,0,0:0:0:0:
320,192,33061,128,0,33096:0:0:0:0:
448,192,33061,128,0,33096:0:0:0:0:
192,192,33130,128,0,33199:0:0:0:0:
64,192,33165,1,0,0:0:0:0:
320,192,33233,1,0,0:0:0:0:
448,192,33268,1,0,0:0:0:0:
64,192,33268,1,0,0:0:0:0:
192,192,33302,128,0,33337:0:0:0:0:
320,192,33337,1,0,0:0:0:0:
448,192,33371,128,0,33405:0:0:0:0:
320,192,33405,1,0,0:0:0:0:
64,192,33405,128,0,33440:0:0:0:0:
192,192,33474,1,0,0:0:0:0:
448,192,33509,128,0,33543:0:0:0:0:
320,192,33543,1,0,0:0:0:0:
64,192,33543,1,0,0:0:0:0:
192,192,33577,1,0,0:0:0:0:
320,192,33623,1,0,0:0:0:0:
448,192,33646,128,0,33681:0:0:0:0:
64,192,33681,1,0,0:0:0:0:
320,192,33715,128,0,33749:0:0:0:0:
192,192,33715,1,0,0:0:0:0:
192,192,33784,1,0,0:0:0:0:
64,192,33818,1,0,0:0:0:0:
448,192,33818,128,0,33887:0:0:0:0:
320,192,33887,1,0,0:0:0:0:
192,192,33922,1,0,0:0:0:0:
64,192,33922,128,0,33956:0:0:0:0:
192,192,33990,1,0,0:0:0:0:
320,192,33990,1,0,0:0:0:0:
448,192,33990,128,0,34025:0:0:0:0:
320,192,34059,1,0,0:0:0:0:
192,192,34094,1,0,0:0:0:0:
64,192,34128,128,0,34162:0:0:0:0:
448,192,34162,128,0,34266:0:0:0:0:
192,192,34197,1,0,0:0:0:0:
320,192,34231,1,0,0:0:0:0:
64,192,34266,128,0,34300:0:0:0:0:
192,192,34334,1,0,0:0:0:0:
448,192,34369,1,0,0:0:0:0:
64,192,34369,1,0,0:0:0:0:
320,192,34403,128,0,34438:0:0:0:0:
192,192,34472,1,0,0:0:0:0:
64,192,34472,1,0,0:0:0:0:
448,192,34506,128,0,34541:0:0:0:0:
320,192,34541,1,0,0:0:0:0:
192,192,34575,1,0,0:0:0:0:
64,192,34575,128,0,34610:0:0:0:0:
320,192,34610,1,0,0:0:0:0:
448,192,34644,1,0,0:0:0:0:
192,192,34678,128,0,34713:0:0:0:0:
320,192,34713,1,0,0:0:0:0:
64,192,34747,1,0,0:0:0:0:
448,192,34747,1,0,0:0:0:0:
192,192,34782,128,0,34816:0:0:0:0:
448,192,34816,128,0,34885:0:0:0:0:
320,192,34919,1,0,0:0:0:0:
192,192,34954,128,0,34988:0:0:0:0:
64,192,34988,1,0,0:0:0:0:
448,192,35022,1,0,0:0:0:0:
192,192,35057,1,0,0:0:0:0:
64,192,35057,128,0,35126:0:0:0:0:
320,192,35091,1,0,0:0:0:0:
192,192,35126,1,0,0:0:0:0:
448,192,35160,128,0,35194:0:0:0:0:
320,192,35194,1,0,0:0:0:0:
192,192,35229,128,0,35263:0:0:0:0:
64,192,35263,128,0,35332:0:0:0:0:
448,192,35298,1,0,0:0:0:0:
320,192,35332,1,0,0:0:0:0:
192,192,35366,1,0,0:0:0:0:
448,192,35401,1,0,0:0:0:0:
64,192,35435,1,0,0:0:0:0:
192,192,35435,128,0,35470:0:0:0:0:
320,192,35504,128,0,35573:0:0:0:0:
448,192,35573,1,0,0:0:0:0:
64,192,35573,128,0,35607:0:0:0:0:
192,192,35642,1,0,0:0:0:0:
320,192,35676,1,0,0:0:0:0:
448,192,35676,128,0,35711:0:0:0:0:
192,192,35711,128,0,35745:0:0:0:0:
64,192,35745,1,0,0:0:0:0:
320,192,35779,128,0,35814:0:0:0:0:
448,192,35814,1,0,0:0:0:0:
192,192,35848,128,0,35883:0:0:0:0:
64,192,35883,1,0,0:0:0:0:
320,192,35917,1,0,0:0:0:0:
448,192,35917,128,0,35951:0:0:0:0:
192,192,35951,128,0,35986:0:0:0:0:
64,192,35986,1,0,0:0:0:0:
320,192,36020,1,0,0:0:0:0:
192,192,36055,1,0,0:0:0:0:
448,192,36089,128,0,36158:0:0:0:0:
64,192,36089,1,0,0:0:0:0:
320,192,36158,1,0,0:0:0:0:
192,192,36192,128,0,36227:0:0:0:0:
64,192,36227,1,0,0:0:0:0:
448,192,36261,128,0,36295:0:0:0:0:
320,192,36295,1,0,0:0:0:0:
192,192,36330,1,0,0:0:0:0:
64,192,36364,1,0,0:0:0:0:
320,192,36399,128,0,36433:0:0:0:0:
448,192,36399,1,0,0:0:0:0:
192,192,36433,1,0,0:0:0:0:
64,192,36467,1,0,0:0:0:0:
448,192,36502,1,0,0:0:0:0:
320,192,36502,1,0,0:0:0:0:
192,192,36536,128,0,36571:0:0:0:0:
64,192,36571,1,0,0:0:0:0:
448,192,36571,128,0,36639:0:0:0:0:
320,192,36639,1,0,0:0:0:0:
64,192,36674,128,0,36708:0:0:0:0:
192,192,36674,1,0,0:0:0:0:
320,192,36708,1,0,0:0:0:0:
448,192,36708,128,0,36743:0:0:0:0:
64,192,36777,1,0,0:0:0:0:
192,192,36777,128,0,36811:0:0:0:0:
320,192,36846,128,0,36880:0:0:0:0:
64,192,36880,128,0,36949:0:0:0:0:
448,192,36880,1,0,0:0:0:0:
192,192,36949,1,0,0:0:0:0:
448,192,36983,1,0,0:0:0:0:
320,192,37018,128,0,37052:0:0:0:0:
192,192,37052,1,0,0:0:0:0:
64,192,37087,1,0,0:0:0:0:
448,192,37121,1,0,0:0:0:0:
192,192,37155,1,0,0:0:0:0:
320,192,37190,1,0,0:0:0:0:
64,192,37190,128,0,37224:0:0:0:0:
448,192,37224,1,0,0:0:0:0:
320,192,37259,128,0,37293:0:0:0:0:
192,192,37293,1,0,0:0:0:0:
64,192,37327,1,0,0:0:0:0:
448,192,37327,128,0,37362:0:0:0:0:
320,192,37396,128,0,37465:0:0:0:0:
192,192,37396,1,0,0:0:0:0:
64,192,37465,1,0,0:0:0:0:
448,192,37465,1,0,0:0:0:0:
192,192,37499,1,0,0:0:0:0:
320,192,37534,128,0,37568:0:0:0:0:
192,192,37568,128,0,37603:0:0:0:0:
448,192,37568,1,0,0:0:0:0:
64,192,37603,1,0,0:0:0:0:
448,192,37637,1,0,0:0:0:0:
320,192,37672,128,0,37706:0:0:0:0:
192,192,37706,1,0,0:0:0:0:
448,192,37740,128,0,37775:0:0:0:0:
64,192,37740,1,0,0:0:0:0:
192,192,37809,1,0,0:0:0:0:
448,192,37844,128,0,37878:0:0:0:0:
64,192,37878,128,0,37947:0:0:0:0:
320,192,37878,1,0,0:0:0:0:
192,192,37912,1,0,0:0:0:0:
320,192,37981,1,0,0:0:0:0:
448,192,38016,128,0,38050:0:0:0:0:
192,192,38016,1,0,0:0:0:0:
64,192,38050,1,0,0:0:0:0:
320,192,38084,1,0,0:0:0:0:
192,192,38119,128,0,38153:0:0:0:0:
448,192,38153,128,0,38188:0:0:0:0:
64,192,38153,1,0,0:0:0:0:
320,192,38222,128,0,38291:0:0:0:0:
64,192,38256,1,0,0:0:0:0:
192,192,38291,1,0,0:0:0:0:
448,192,38325,128,0,38360:0:0:0:0:
64,192,38360,128,0,38394:0:0:0:0:
320,192,38360,1,0,0:0:0:0:
192,192,38428,1,0,0:0:0:0:
320,192,38463,1,0,0:0:0:0:
448,192,38497,128,0,38532:0:0:0:0:
64,192,38497,1,0,0:0:0:0:
192,192,38532,1,0,0:0:0:0:
320,192,38532,128,0,38566:0:0:0:0:
64,192,38600,128,0,38635:0:0:0:0:
448,192,38635,1,0,0:0:0:0:
320,192,38669,128,0,38704:0:0:0:0:
192,192,38669,1,0,0:0:0:0:
448,192,38738,1,0,0:0:0:0:
64,192,38772,128,0,38807:0:0:0:0:
192,192,38772,1,0,0:0:0:0:
320,192,38807,1,0,0:0:0:0:
448,192,38841,1,0,0:0:0:0:
192,192,38876,1,0,0:0:0:0:
64,192,38910,1,0,0:0:0:0:
320,192,38910,128,0,38979:0:0:0:0:
448,192,38979,1,0,0:0:0:0:
192,192,38979,128,0,39013:0:0:0:0:
64,192,39013,1,0,0:0:0:0:
320,192,39048,1,0,0:0:0:0:
448,192,39048,128,0,39082:0:0:0:0:
192,192,39116,128,0,39151:0:0:0:0:
64,192,39151,1,0,0:0:0:0:
320,192,39151,128,0,39220:0:0:0:0:
448,192,39220,1,0,0:0:0:0:
192,192,39220,128,0,39323:0:0:0:0:
64,192,39323,1,0,0:0:0:0:
320,192,39323,128,0,39461:0:0:0:0:
448,192,39461,1,0,0:0:0:0:
192,192,39461,128,0,39736:0:0:0:0:
64,192,39736,1,0,0:0:0:0:
320,192,39736,1,0,0:0:0:0:
448,192,39736,1,0,0:0:0:0:
320,192,39839,1,0,0:0:0:0:
448,192,39839,1,0,0:0:0:0:
64,192,39839,1,0,0:0:0:0:
192,192,39839,1,0,0:0:0:0:
192,192,39942,1,0,0:0:0:0:
320,192,39942,1,0,0:0:0:0:
64,192,40045,1,0,0:0:0:0:
192,192,40045,1,0,0:0:0:0:
192,192,40114,1,0,0:0:0:0:
320,192,40183,1,0,0:0:0:0:
320,192,40252,1,0,0:0:0:0:
448,192,40252,1,0,0:0:0:0:
448,192,40321,1,0,0:0:0:0:
320,192,40321,1,0,0:0:0:0:
320,192,40389,1,0,0:0:0:0:
192,192,40389,1,0,0:0:0:0:
64,192,40389,1,0,0:0:0:0:
192,192,40458,1,0,0:0:0:0:
320,192,40527,1,0,0:0:0:0:
448,192,40527,1,0,0:0:0:0:
192,192,40527,1,0,0:0:0:0:
64,192,40527,1,0,0:0:0:0:
192,192,40665,1,0,0:0:0:0:
64,192,40665,1,0,0:0:0:0:
192,192,40733,1,0,0:0:0:0:
64,192,40733,1,0,0:0:0:0:
320,192,40733,1,0,0:0:0:0:
448,192,40733,1,0,0:0:0:0:
320,192,40837,1,0,0:0:0:0:
448,192,40837,1,0,0:0:0:0:
320,192,40905,1,0,0:0:0:0:
448,192,40905,1,0,0:0:0:0:
320,192,41009,1,0,0:0:0:0:
192,192,41009,1,0,0:0:0:0:
64,192,41009,1,0,0:0:0:0:
320,192,41077,1,0,0:0:0:0:
320,192,41146,1,0,0:0:0:0:
192,192,41215,1,0,0:0:0:0:
64,192,41215,1,0,0:0:0:0:
448,192,41215,1,0,0:0:0:0:
448,192,41284,1,0,0:0:0:0:
320,192,41284,1,0,0:0:0:0:
192,192,41284,1,0,0:0:0:0:
64,192,41284,1,0,0:0:0:0:
448,192,41456,128,0,41834:0:0:0:0:
64,192,41456,128,0,41834:0:0:0:0:
320,192,41456,1,0,0:0:0:0:
320,192,41628,128,0,41834:0:0:0:0:
192,192,41628,1,0,0:0:0:0:
192,192,41766,128,0,42110:0:0:0:0:
64,192,41938,128,0,42282:0:0:0:0:
320,192,41938,128,0,42282:0:0:0:0:
448,192,41938,1,0,0:0:0:0:
448,192,42075,1,0,0:0:0:0:
448,192,42178,128,0,42385:0:0:0:0:
192,192,42282,1,0,0:0:0:0:
320,192,42419,128,0,42626:0:0:0:0:
192,192,42419,128,0,42626:0:0:0:0:
64,192,42419,1,0,0:0:0:0:
448,192,42626,1,0,0:0:0:0:
64,192,42626,128,0,42901:0:0:0:0:
448,192,42763,1,0,0:0:0:0:
320,192,42763,128,0,43073:0:0:0:0:
192,192,42763,1,0,0:0:0:0:
192,192,42901,1,0,0:0:0:0:
192,192,43004,128,0,43417:0:0:0:0:
448,192,43004,128,0,43348:0:0:0:0:
64,192,43004,1,0,0:0:0:0:
64,192,43211,1,0,0:0:0:0:
64,192,43417,1,0,0:0:0:0:
320,192,43417,128,0,43555:0:0:0:0:
448,192,43417,1,0,0:0:0:0:
448,192,43555,1,0,0:0:0:0:
192,192,43555,128,0,43830:0:0:0:0:
448,192,43727,1,0,0:0:0:0:
320,192,43830,128,0,44036:0:0:0:0:
448,192,43830,128,0,44036:0:0:0:0:
192,192,44036,128,0,44139:0:0:0:0:
64,192,44139,128,0,44243:0:0:0:0:
192,192,44243,128,0,44346:0:0:0:0:
320,192,44346,128,0,44449:0:0:0:0:
64,192,44346,1,0,0:0:0:0:
448,192,44449,128,0,44931:0:0:0:0:
64,192,44518,1,0,0:0:0:0:
192,192,44518,128,0,44690:0:0:0:0:
64,192,44690,1,0,0:0:0:0:
320,192,44759,128,0,44862:0:0:0:0:
64,192,44862,128,0,45344:0:0:0:0:
192,192,44862,128,0,44999:0:0:0:0:
320,192,44999,1,0,0:0:0:0:
448,192,44999,128,0,45137:0:0:0:0:
192,192,45137,128,0,45275:0:0:0:0:
320,192,45344,1,0,0:0:0:0:
448,192,45344,128,0,45550:0:0:0:0:
320,192,45447,1,0,0:0:0:0:
64,192,45447,128,0,45584:0:0:0:0:
192,192,45447,128,0,45722:0:0:0:0:
64,192,45722,1,0,0:0:0:0:
320,192,45756,128,0,46066:0:0:0:0:
448,192,45756,128,0,46066:0:0:0:0:
192,192,45860,1,0,0:0:0:0:
64,192,45860,1,0,0:0:0:0:
64,192,46032,1,0,0:0:0:0:
64,192,46204,1,0,0:0:0:0:
192,192,46204,1,0,0:0:0:0:
448,192,46204,128,0,46582:0:0:0:0:
320,192,46307,128,0,46926:0:0:0:0:
192,192,46410,1,0,0:0:0:0:
64,192,46479,128,0,46720:0:0:0:0:
192,192,46651,1,0,0:0:0:0:
192,192,46788,128,0,47133:0:0:0:0:
320,192,47167,128,0,47752:0:0:0:0:
192,192,47649,128,0,48440:0:0:0:0:
320,192,48096,128,0,48165:0:0:0:0:
448,192,48165,128,0,48337:0:0:0:0:
320,192,48337,128,0,48681:0:0:0:0:
64,192,48440,1,0,0:0:0:0:
64,192,48612,1,0,0:0:0:0:
64,192,48784,1,0,0:0:0:0:
192,192,48784,1,0,0:0:0:0:
448,192,48784,128,0,49025:0:0:0:0:
192,192,49059,1,0,0:0:0:0:
320,192,49059,128,0,49334:0:0:0:0:
64,192,49059,128,0,49334:0:0:0:0:
192,192,49266,1,0,0:0:0:0:
448,192,49334,1,0,0:0:0:0:
192,192,49472,1,0,0:0:0:0:
320,192,49472,1,0,0:0:0:0:
448,192,49472,128,0,49644:0:0:0:0:
64,192,49575,128,0,49644:0:0:0:0:
192,192,49575,1,0,0:0:0:0:
192,192,49747,1,0,0:0:0:0:
64,192,49747,128,0,49954:0:0:0:0:
320,192,49816,1,0,0:0:0:0:
448,192,49850,128,0,50091:0:0:0:0:
192,192,49885,128,0,50057:0:0:0:0:
320,192,50091,1,0,0:0:0:0:
64,192,50194,128,0,50814:0:0:0:0:
192,192,50194,128,0,50814:0:0:0:0:
448,192,50263,1,0,0:0:0:0:
448,192,50435,1,0,0:0:0:0:
448,192,50642,1,0,0:0:0:0:
320,192,50642,1,0,0:0:0:0:
448,192,50814,1,0,0:0:0:0:
320,192,50814,128,0,51261:0:0:0:0:
192,192,51055,128,0,51433:0:0:0:0:
320,192,51364,128,0,51502:0:0:0:0:
448,192,51467,1,0,0:0:0:0:
320,192,51605,1,0,0:0:0:0:
64,192,51605,128,0,51880:0:0:0:0:
192,192,51708,128,0,51811:0:0:0:0:
320,192,51811,1,0,0:0:0:0:
320,192,51915,128,0,51983:0:0:0:0:
448,192,51983,1,0,0:0:0:0:
192,192,51983,128,0,52362:0:0:0:0:
64,192,52121,128,0,52224:0:0:0:0:
448,192,52224,128,0,52362:0:0:0:0:
64,192,52327,1,0,0:0:0:0:
320,192,52499,1,0,0:0:0:0:
192,192,52568,128,0,52637:0:0:0:0:
64,192,52637,1,0,0:0:0:0:
64,192,52740,1,0,0:0:0:0:
320,192,52740,1,0,0:0:0:0:
320,192,52844,1,0,0:0:0:0:
448,192,52844,128,0,52947:0:0:0:0:
64,192,52912,128,0,52947:0:0:0:0:
192,192,52981,128,0,53119:0:0:0:0:
64,192,53016,1,0,0:0:0:0:
320,192,53084,128,0,53153:0:0:0:0:
448,192,53119,128,0,53291:0:0:0:0:
192,192,53222,1,0,0:0:0:0:
64,192,53325,128,0,53463:0:0:0:0:
192,192,53325,128,0,53463:0:0:0:0:
448,192,53532,1,0,0:0:0:0:
320,192,53600,128,0,53669:0:0:0:0:
192,192,53669,128,0,53738:0:0:0:0:
64,192,53772,128,0,54116:0:0:0:0:
192,192,53876,1,0,0:0:0:0:
320,192,53876,1,0,0:0:0:0:
448,192,53876,1,0,0:0:0:0:
192,192,54013,128,0,54495:0:0:0:0:
320,192,54013,1,0,0:0:0:0:
448,192,54013,1,0,0:0:0:0:
320,192,54151,1,0,0:0:0:0:
448,192,54151,1,0,0:0:0:0:
320,192,54220,128,0,54770:0:0:0:0:
448,192,54288,1,0,0:0:0:0:
448,192,54461,128,0,55080:0:0:0:0:
192,192,54633,128,0,54701:0:0:0:0:
64,192,54633,128,0,54701:0:0:0:0:
192,192,54770,1,0,0:0:0:0:
64,192,54770,1,0,0:0:0:0:
64,192,54839,128,0,54908:0:0:0:0:
320,192,54839,128,0,54908:0:0:0:0:
320,192,54977,1,0,0:0:0:0:
192,192,54977,1,0,0:0:0:0:
64,192,54977,1,0,0:0:0:0:
320,192,55045,128,0,55114:0:0:0:0:
192,192,55045,128,0,55596:0:0:0:0:
64,192,55114,1,0,0:0:0:0:
320,192,55217,1,0,0:0:0:0:
448,192,55217,128,0,55286:0:0:0:0:
64,192,55217,1,0,0:0:0:0:
64,192,55286,128,0,55424:0:0:0:0:
320,192,55355,128,0,55424:0:0:0:0:
448,192,55355,128,0,55424:0:0:0:0:
448,192,55493,1,0,0:0:0:0:
320,192,55493,1,0,0:0:0:0:
64,192,55493,128,0,55596:0:0:0:0:
320,192,55596,1,0,0:0:0:0:
448,192,55596,1,0,0:0:0:0:
320,192,55699,1,0,0:0:0:0:
448,192,55699,1,0,0:0:0:0:
192,192,55699,128,0,55871:0:0:0:0:
64,192,55699,128,0,55871:0:0:0:0:
448,192,55802,128,0,55871:0:0:0:0:
320,192,55871,1,0,0:0:0:0:
320,192,55940,128,0,56009:0:0:0:0:
448,192,56009,1,0,0:0:0:0:
192,192,56009,1,0,0:0:0:0:
64,192,56009,128,0,56181:0:0:0:0:
192,192,56112,128,0,56422:0:0:0:0:
320,192,56249,128,0,56353:0:0:0:0:
448,192,56249,1,0,0:0:0:0:
64,192,56249,1,0,0:0:0:0:
448,192,56353,1,0,0:0:0:0:
64,192,56353,1,0,0:0:0:0:
448,192,56353,128,0,56525:0:0:0:0:
320,192,56422,128,0,56594:0:0:0:0:
192,192,56525,1,0,0:0:0:0:
64,192,56525,1,0,0:0:0:0:
64,192,56594,1,0,0:0:0:0:
192,192,56594,1,0,0:0:0:0:
448,192,56594,1,0,0:0:0:0:
192,192,56662,128,0,56766:0:0:0:0:
64,192,56662,128,0,56766:0:0:0:0:
448,192,56662,128,0,56766:0:0:0:0:
320,192,56766,1,0,0:0:0:0:
192,192,56869,128,0,56903:0:0:0:0:
64,192,56869,128,0,57006:0:0:0:0:
320,192,56869,128,0,57419:0:0:0:0:
192,192,57006,1,0,0:0:0:0:
448,192,57006,1,0,0:0:0:0:
448,192,57110,128,0,57247:0:0:0:0:
192,192,57110,128,0,57247:0:0:0:0:
64,192,57247,128,0,57316:0:0:0:0:
192,192,57316,1,0,0:0:0:0:
448,192,57316,1,0,0:0:0:0:
192,192,57419,1,0,0:0:0:0:
448,192,57419,1,0,0:0:0:0:
64,192,57419,128,0,57694:0:0:0:0:
192,192,57522,128,0,57626:0:0:0:0:
320,192,57591,128,0,57798:0:0:0:0:
448,192,57591,1,0,0:0:0:0:
192,192,57694,1,0,0:0:0:0:
448,192,57694,1,0,0:0:0:0:
448,192,57798,1,0,0:0:0:0:
64,192,57798,1,0,0:0:0:0:
192,192,57798,128,0,58073:0:0:0:0:
320,192,57901,1,0,0:0:0:0:
64,192,57901,128,0,57970:0:0:0:0:
320,192,57970,1,0,0:0:0:0:
448,192,57970,1,0,0:0:0:0:
448,192,58073,128,0,58348:0:0:0:0:
320,192,58142,1,0,0:0:0:0:
192,192,58142,1,0,0:0:0:0:
64,192,58142,1,0,0:0:0:0:
320,192,58211,128,0,58279:0:0:0:0:
192,192,58279,1,0,0:0:0:0:
64,192,58279,128,0,58417:0:0:0:0:
320,192,58417,1,0,0:0:0:0:
448,192,58417,128,0,58555:0:0:0:0:
192,192,58417,128,0,58727:0:0:0:0:
320,192,58520,128,0,58692:0:0:0:0:
64,192,58520,1,0,0:0:0:0:
64,192,58623,1,0,0:0:0:0:
448,192,58727,1,0,0:0:0:0:
64,192,58727,1,0,0:0:0:0:
64,192,58795,128,0,59002:0:0:0:0:
192,192,58864,1,0,0:0:0:0:
320,192,58864,1,0,0:0:0:0:
448,192,58864,128,0,58967:0:0:0:0:
320,192,58967,1,0,0:0:0:0:
192,192,59002,1,0,0:0:0:0:
448,192,59071,128,0,59243:0:0:0:0:
320,192,59139,1,0,0:0:0:0:
192,192,59139,128,0,59243:0:0:0:0:
64,192,59243,1,0,0:0:0:0:
320,192,59243,128,0,59380:0:0:0:0:
192,192,59380,1,0,0:0:0:0:
448,192,59380,1,0,0:0:0:0:
64,192,59380,128,0,60068:0:0:0:0:
192,192,59483,128,0,59621:0:0:0:0:
320,192,59552,1,0,0:0:0:0:
448,192,59552,128,0,59690:0:0:0:0:
320,192,59690,1,0,0:0:0:0:
192,192,59690,1,0,0:0:0:0:
320,192,59759,128,0,59965:0:0:0:0:
448,192,59827,1,0,0:0:0:0:
448,192,59965,1,0,0:0:0:0:
192,192,59965,1,0,0:0:0:0:
192,192,60068,1,0,0:0:0:0:
448,192,60068,1,0,0:0:0:0:
320,192,60068,128,0,60653:0:0:0:0:
192,192,60172,128,0,60240:0:0:0:0:
64,192,60240,128,0,60309:0:0:0:0:
192,192,60309,1,0,0:0:0:0:
448,192,60309,1,0,0:0:0:0:
192,192,60412,1,0,0:0:0:0:
448,192,60412,1,0,0:0:0:0:
64,192,60412,128,0,60550:0:0:0:0:
448,192,60550,1,0,0:0:0:0:
192,192,60550,128,0,60825:0:0:0:0:
448,192,60653,128,0,60997:0:0:0:0:
320,192,60756,128,0,60894:0:0:0:0:
192,192,60894,1,0,0:0:0:0:
64,192,60894,1,0,0:0:0:0:
320,192,60997,1,0,0:0:0:0:
64,192,60997,128,0,61135:0:0:0:0:
192,192,60997,1,0,0:0:0:0:
320,192,61100,1,0,0:0:0:0:
448,192,61100,1,0,0:0:0:0:
320,192,61204,1,0,0:0:0:0:
192,192,61204,1,0,0:0:0:0:
448,192,61204,128,0,61272:0:0:0:0:
192,192,61307,1,0,0:0:0:0:
64,192,61307,1,0,0:0:0:0:
320,192,61307,128,0,61616:0:0:0:0:
448,192,61410,128,0,61513:0:0:0:0:
192,192,61479,128,0,61788:0:0:0:0:
64,192,61479,1,0,0:0:0:0:
448,192,61616,1,0,0:0:0:0:
64,192,61685,128,0,61754:0:0:0:0:
448,192,61685,128,0,62098:0:0:0:0:
320,192,61685,1,0,0:0:0:0:
320,192,61788,1,0,0:0:0:0:
320,192,61892,128,0,61961:0:0:0:0:
192,192,61892,1,0,0:0:0:0:
64,192,61892,1,0,0:0:0:0:
192,192,61961,1,0,0:0:0:0:
64,192,61961,1,0,0:0:0:0:
320,192,62098,1,0,0:0:0:0:
64,192,62098,1,0,0:0:0:0:
192,192,62098,128,0,62373:0:0:0:0:
320,192,62201,1,0,0:0:0:0:
448,192,62201,1,0,0:0:0:0:
64,192,62201,1,0,0:0:0:0:
320,192,62270,128,0,62442:0:0:0:0:
448,192,62339,1,0,0:0:0:0:
64,192,62339,1,0,0:0:0:0:
192,192,62442,128,0,62649:0:0:0:0:
64,192,62545,1,0,0:0:0:0:
320,192,62545,1,0,0:0:0:0:
448,192,62545,128,0,63130:0:0:0:0:
64,192,62649,1,0,0:0:0:0:
320,192,62649,1,0,0:0:0:0:
320,192,62717,1,0,0:0:0:0:
192,192,62717,1,0,0:0:0:0:
64,192,62717,1,0,0:0:0:0:
192,192,62855,128,0,63096:0:0:0:0:
64,192,62924,128,0,63027:0:0:0:0:
320,192,62924,1,0,0:0:0:0:
64,192,63096,1,0,0:0:0:0:
320,192,63096,128,0,63371:0:0:0:0:
192,192,63233,1,0,0:0:0:0:
64,192,63233,1,0,0:0:0:0:
448,192,63233,128,0,63337:0:0:0:0:
192,192,63337,1,0,0:0:0:0:
64,192,63337,128,0,63646:0:0:0:0:
192,192,63474,1,0,0:0:0:0:
320,192,63474,1,0,0:0:0:0:
448,192,63474,128,0,63577:0:0:0:0:
192,192,63577,1,0,0:0:0:0:
320,192,63577,1,0,0:0:0:0:
320,192,63681,1,0,0:0:0:0:
448,192,63681,1,0,0:0:0:0:
320,192,63749,128,0,63956:0:0:0:0:
448,192,63749,1,0,0:0:0:0:
192,192,63818,1,0,0:0:0:0:
64,192,63818,1,0,0:0:0:0:
448,192,63853,128,0,64059:0:0:0:0:
192,192,63922,128,0,63990:0:0:0:0:
64,192,63922,128,0,64197:0:0:0:0:
192,192,64059,1,0,0:0:0:0:
320,192,64059,1,0,0:0:0:0:
192,192,64162,1,0,0:0:0:0:
448,192,64162,1,0,0:0:0:0:
320,192,64162,128,0,64610:0:0:0:0:
448,192,64266,1,0,0:0:0:0:
192,192,64334,128,0,64506:0:0:0:0:
64,192,64438,128,0,64713:0:0:0:0:
192,192,64610,1,0,0:0:0:0:
448,192,64610,1,0,0:0:0:0:
192,192,64713,1,0,0:0:0:0:
320,192,64713,1,0,0:0:0:0:
448,192,64713,128,0,64885:0:0:0:0:
320,192,64816,128,0,64919:0:0:0:0:
64,192,64850,128,0,65229:0:0:0:0:
192,192,64919,1,0,0:0:0:0:
192,192,65022,1,0,0:0:0:0:
320,192,65022,1,0,0:0:0:0:
448,192,65022,128,0,65194:0:0:0:0:
192,192,65126,1,0,0:0:0:0:
320,192,65126,128,0,65366:0:0:0:0:
448,192,65298,1,0,0:0:0:0:
192,192,65366,1,0,0:0:0:0:
64,192,65366,1,0,0:0:0:0:
448,192,65366,128,0,65504:0:0:0:0:
64,192,65470,128,0,65607:0:0:0:0:
320,192,65504,1,0,0:0:0:0:
192,192,65607,1,0,0:0:0:0:
320,192,65607,1,0,0:0:0:0:
448,192,65607,1,0,0:0:0:0:
192,192,65676,128,0,65883:0:0:0:0:
448,192,65779,1,0,0:0:0:0:
320,192,65779,1,0,0:0:0:0:
64,192,65848,128,0,66089:0:0:0:0:
448,192,65883,1,0,0:0:0:0:
320,192,65883,1,0,0:0:0:0:
320,192,65986,1,0,0:0:0:0:
192,192,65986,1,0,0:0:0:0:
320,192,66089,1,0,0:0:0:0:
192,192,66089,1,0,0:0:0:0:
448,192,66089,128,0,66330:0:0:0:0:
192,192,66192,1,0,0:0:0:0:
64,192,66192,1,0,0:0:0:0:
192,192,66295,1,0,0:0:0:0:
64,192,66295,1,0,0:0:0:0:
64,192,66399,128,0,66433:0:0:0:0:
192,192,66399,128,0,66433:0:0:0:0:
320,192,66467,128,0,66639:0:0:0:0:
64,192,66536,128,0,66571:0:0:0:0:
192,192,66536,128,0,66571:0:0:0:0:
64,192,66674,128,0,66708:0:0:0:0:
192,192,66674,128,0,66708:0:0:0:0:
192,192,66777,128,0,66983:0:0:0:0:
320,192,66846,1,0,0:0:0:0:
448,192,66846,1,0,0:0:0:0:
320,192,66949,1,0,0:0:0:0:
448,192,66949,1,0,0:0:0:0:
320,192,67052,1,0,0:0:0:0:
448,192,67052,1,0,0:0:0:0:
320,192,67190,128,0,67396:0:0:0:0:
192,192,67190,1,0,0:0:0:0:
64,192,67190,1,0,0:0:0:0:
192,192,67293,1,0,0:0:0:0:
64,192,67293,1,0,0:0:0:0:
192,192,67396,1,0,0:0:0:0:
64,192,67396,1,0,0:0:0:0:
64,192,67499,1,0,0:0:0:0:
192,192,67499,1,0,0:0:0:0:
320,192,67499,1,0,0:0:0:0:
448,192,67499,1,0,0:0:0:0:
448,192,67603,1,0,0:0:0:0:
320,192,67603,1,0,0:0:0:0:
192,192,67603,1,0,0:0:0:0:
320,192,67706,1,0,0:0:0:0:
448,192,67706,1,0,0:0:0:0:
448,192,67809,1,0,0:0:0:0:
448,192,67912,128,0,68772:0:0:0:0:
320,192,68635,128,0,69392:0:0:0:0:
192,192,68944,128,0,69392:0:0:0:0:
64,192,69288,128,0,71077:0:0:0:0:
192,192,69461,128,0,71077:0:0:0:0:
320,192,69461,128,0,69942:0:0:0:0:
320,192,70011,128,0,70837:0:0:0:0:
448,192,70321,128,0,70493:0:0:0:0:
448,192,70561,128,0,72419:0:0:0:0:
320,192,70905,128,0,71662:0:0:0:0:
192,192,71146,128,0,72144:0:0:0:0:
64,192,71146,128,0,71903:0:0:0:0:
320,192,71731,128,0,72660:0:0:0:0:
64,192,71972,128,0,72798:0:0:0:0:
192,192,72213,128,0,72798:0:0:0:0:
448,192,72488,128,0,72660:0:0:0:0:
320,192,72729,128,0,73107:0:0:0:0:
448,192,72729,128,0,73107:0:0:0:0:
192,192,72866,128,0,72970:0:0:0:0:
64,192,72866,128,0,72970:0:0:0:0:
192,192,73038,128,0,73245:0:0:0:0:
64,192,73038,128,0,73555:0:0:0:0:
320,192,73176,128,0,73245:0:0:0:0:
448,192,73176,128,0,73555:0:0:0:0:
320,192,73314,128,0,73383:0:0:0:0:
192,192,73314,128,0,73383:0:0:0:0:
192,192,73451,128,0,73555:0:0:0:0:
320,192,73451,128,0,73555:0:0:0:0:
64,192,73623,128,0,73830:0:0:0:0:
192,192,73623,128,0,73692:0:0:0:0:
320,192,73623,128,0,73692:0:0:0:0:
448,192,73623,128,0,73830:0:0:0:0:
192,192,73761,128,0,73830:0:0:0:0:
320,192,73761,128,0,73830:0:0:0:0:
64,192,73899,128,0,73967:0:0:0:0:
192,192,73899,128,0,73967:0:0:0:0:
320,192,73899,128,0,74071:0:0:0:0:
448,192,73899,128,0,74071:0:0:0:0:
192,192,74036,128,0,74346:0:0:0:0:
64,192,74036,128,0,75722:0:0:0:0:
320,192,74139,128,0,74346:0:0:0:0:
448,192,74139,128,0,75103:0:0:0:0:
192,192,74415,128,0,75447:0:0:0:0:
320,192,74415,128,0,75997:0:0:0:0:
448,192,75172,128,0,77958:0:0:0:0:
192,192,75516,128,0,75997:0:0:0:0:
64,192,75791,128,0,77373:0:0:0:0:
192,192,76066,128,0,77098:0:0:0:0:
320,192,76066,128,0,76823:0:0:0:0:
320,192,76892,128,0,77821:0:0:0:0:
192,192,77167,128,0,77683:0:0:0:0:
64,192,77442,128,0,78922:0:0:0:0:
192,192,77752,128,0,78233:0:0:0:0:
320,192,77889,128,0,78096:0:0:0:0:
448,192,78027,128,0,78509:0:0:0:0:
320,192,78165,128,0,78509:0:0:0:0:
192,192,78302,128,0,78715:0:0:0:0:
320,192,78577,128,0,78715:0:0:0:0:
448,192,78577,128,0,79541:0:0:0:0:
320,192,78784,128,0,79266:0:0:0:0:
192,192,78784,128,0,78922:0:0:0:0:
192,192,78990,128,0,79266:0:0:0:0:
64,192,78990,128,0,79541:0:0:0:0:
320,192,79334,128,0,79403:0:0:0:0:
192,192,79334,128,0,79403:0:0:0:0:
320,192,79472,128,0,79816:0:0:0:0:
192,192,79472,128,0,79816:0:0:0:0:
64,192,79610,128,0,79678:0:0:0:0:
448,192,79610,128,0,79678:0:0:0:0:
64,192,79747,128,0,80470:0:0:0:0:
448,192,79747,128,0,80091:0:0:0:0:
192,192,79885,128,0,79954:0:0:0:0:
320,192,79885,128,0,79954:0:0:0:0:
320,192,80022,128,0,80091:0:0:0:0:
192,192,80022,128,0,80091:0:0:0:0:
320,192,80160,128,0,80263:0:0:0:0:
448,192,80160,128,0,80332:0:0:0:0:
192,192,80160,128,0,80263:0:0:0:0:
320,192,80332,128,0,80711:0:0:0:0:
192,192,80332,128,0,80642:0:0:0:0:
448,192,80401,128,0,80711:0:0:0:0:
64,192,80538,128,0,80642:0:0:0:0:
192,192,80711,1,0,0:0:0:0:
64,192,80711,1,0,0:0:0:0:
64,192,80779,128,0,81123:0:0:0:0:
192,192,80779,128,0,80871:0:0:0:0:
320,192,80779,128,0,80825:0:0:0:0:
448,192,80779,128,0,80871:0:0:0:0:
320,192,80917,128,0,80963:0:0:0:0:
192,192,80917,128,0,81009:0:0:0:0:
448,192,80917,128,0,81009:0:0:0:0:
320,192,81055,1,0,0:0:0:0:
192,192,81100,1,0,0:0:0:0:
448,192,81100,1,0,0:0:0:0:
192,192,81238,1,0,0:0:0:0:
320,192,81238,1,0,0:0:0:0:
448,192,81238,128,0,81330:0:0:0:0:
64,192,81238,1,0,0:0:0:0:
192,192,81330,1,0,0:0:0:0:
320,192,81330,128,0,81422:0:0:0:0:
64,192,81330,128,0,81422:0:0:0:0:
448,192,81422,1,0,0:0:0:0:
64,192,81513,1,0,0:0:0:0:
192,192,81513,1,0,0:0:0:0:
448,192,81605,1,0,0:0:0:0:
320,192,81605,128,0,81743:0:0:0:0:
64,192,81605,1,0,0:0:0:0:
192,192,81743,1,0,0:0:0:0:
64,192,81743,1,0,0:0:0:0:
320,192,81834,1,0,0:0:0:0:
64,192,81834,1,0,0:0:0:0:
448,192,81834,128,0,81926:0:0:0:0:
320,192,81926,1,0,0:0:0:0:
64,192,81926,1,0,0:0:0:0:
192,192,81926,128,0,82018:0:0:0:0:
320,192,82018,1,0,0:0:0:0:
64,192,82018,128,0,82247:0:0:0:0:
448,192,82018,128,0,82247:0:0:0:0:
192,192,82155,1,0,0:0:0:0:
320,192,82155,1,0,0:0:0:0:
192,192,82247,1,0,0:0:0:0:
64,192,82339,1,0,0:0:0:0:
320,192,82339,1,0,0:0:0:0:
448,192,82431,1,0,0:0:0:0:
64,192,82431,1,0,0:0:0:0:
192,192,82431,128,0,82522:0:0:0:0:
320,192,82522,1,0,0:0:0:0:
448,192,82614,1,0,0:0:0:0:
320,192,82614,128,0,82706:0:0:0:0:
64,192,82614,1,0,0:0:0:0:
448,192,82706,1,0,0:0:0:0:
64,192,82706,1,0,0:0:0:0:
192,192,82706,128,0,82798:0:0:0:0:
448,192,82798,128,0,82981:0:0:0:0:
64,192,82798,128,0,82981:0:0:0:0:
320,192,82798,1,0,0:0:0:0:
192,192,82981,1,0,0:0:0:0:
320,192,82981,1,0,0:0:0:0:
448,192,83073,1,0,0:0:0:0:
64,192,83073,1,0,0:0:0:0:
192,192,83073,128,0,83165:0:0:0:0:
320,192,83073,1,0,0:0:0:0:
448,192,83165,1,0,0:0:0:0:
64,192,83165,128,0,83256:0:0:0:0:
320,192,83165,128,0,83256:0:0:0:0:
192,192,83256,1,0,0:0:0:0:
448,192,83256,1,0,0:0:0:0:
64,192,83348,1,0,0:0:0:0:
320,192,83348,1,0,0:0:0:0:
192,192,83348,128,0,83440:0:0:0:0:
448,192,83348,128,0,83440:0:0:0:0:
64,192,83440,128,0,83532:0:0:0:0:
192,192,83532,1,0,0:0:0:0:
448,192,83532,1,0,0:0:0:0:
320,192,83532,1,0,0:0:0:0:
64,192,83623,1,0,0:0:0:0:
192,192,83623,128,0,83715:0:0:0:0:
448,192,83623,128,0,83715:0:0:0:0:
64,192,83715,128,0,83807:0:0:0:0:
320,192,83715,1,0,0:0:0:0:
192,192,83807,1,0,0:0:0:0:
320,192,83807,1,0,0:0:0:0:
448,192,83807,1,0,0:0:0:0:
64,192,83899,1,0,0:0:0:0:
192,192,83899,1,0,0:0:0:0:
320,192,83899,128,0,83990:0:0:0:0:
448,192,83899,1,0,0:0:0:0:
192,192,83990,1,0,0:0:0:0:
64,192,83990,128,0,84082:0:0:0:0:
448,192,83990,128,0,84082:0:0:0:0:
320,192,84082,1,0,0:0:0:0:
192,192,84082,128,0,84174:0:0:0:0:
448,192,84174,1,0,0:0:0:0:
64,192,84174,1,0,0:0:0:0:
448,192,84266,1,0,0:0:0:0:
192,192,84266,128,0,84357:0:0:0:0:
320,192,84266,1,0,0:0:0:0:
448,192,84357,128,0,84449:0:0:0:0:
320,192,84357,1,0,0:0:0:0:
64,192,84357,128,0,84449:0:0:0:0:
192,192,84449,1,0,0:0:0:0:
320,192,84541,1,0,0:0:0:0:
64,192,84541,1,0,0:0:0:0:
448,192,84541,128,0,84633:0:0:0:0:
64,192,84633,1,0,0:0:0:0:
192,192,84633,1,0,0:0:0:0:
320,192,84633,1,0,0:0:0:0:
192,192,84724,1,0,0:0:0:0:
320,192,84724,1,0,0:0:0:0:
448,192,84816,1,0,0:0:0:0:
64,192,84816,1,0,0:0:0:0:
448,192,84908,1,0,0:0:0:0:
64,192,84908,1,0,0:0:0:0:
192,192,84908,1,0,0:0:0:0:
320,192,84908,1,0,0:0:0:0:
192,192,84999,1,0,0:0:0:0:
448,192,84999,1,0,0:0:0:0:
320,192,84999,1,0,0:0:0:0:
64,192,84999,1,0,0:0:0:0:
192,192,85091,1,0,0:0:0:0:
320,192,85091,1,0,0:0:0:0:
192,192,85183,1,0,0:0:0:0:
320,192,85183,1,0,0:0:0:0:
64,192,85275,1,0,0:0:0:0:
448,192,85275,1,0,0:0:0:0:
192,192,85366,1,0,0:0:0:0:
320,192,85366,1,0,0:0:0:0:
448,192,85366,1,0,0:0:0:0:
64,192,85366,1,0,0:0:0:0:
192,192,85458,1,0,0:0:0:0:
320,192,85458,1,0,0:0:0:0:
64,192,85550,1,0,0:0:0:0:
448,192,85550,1,0,0:0:0:0:
448,192,85642,1,0,0:0:0:0:
64,192,85642,1,0,0:0:0:0:
192,192,85733,1,0,0:0:0:0:
320,192,85733,1,0,0:0:0:0:
64,192,85825,1,0,0:0:0:0:
448,192,85825,1,0,0:0:0:0:
192,192,85825,1,0,0:0:0:0:
320,192,85825,1,0,0:0:0:0:
448,192,85917,1,0,0:0:0:0:
192,192,85917,1,0,0:0:0:0:
64,192,85917,1,0,0:0:0:0:
64,192,86009,1,0,0:0:0:0:
320,192,86009,1,0,0:0:0:0:
448,192,86009,128,0,86100:0:0:0:0:
320,192,86100,1,0,0:0:0:0:
64,192,86100,1,0,0:0:0:0:
192,192,86100,128,0,86192:0:0:0:0:
320,192,86192,1,0,0:0:0:0:
64,192,86192,128,0,86284:0:0:0:0:
448,192,86284,1,0,0:0:0:0:
192,192,86284,1,0,0:0:0:0:
320,192,86284,128,0,86376:0:0:0:0:
448,192,86376,1,0,0:0:0:0:
64,192,86467,1,0,0:0:0:0:
320,192,86467,1,0,0:0:0:0:
192,192,86467,128,0,86559:0:0:0:0:
64,192,86559,1,0,0:0:0:0:
448,192,86559,1,0,0:0:0:0:
192,192,86651,1,0,0:0:0:0:
320,192,86651,1,0,0:0:0:0:
448,192,86651,1,0,0:0:0:0:
192,192,86743,1,0,0:0:0:0:
64,192,86743,128,0,86834:0:0:0:0:
320,192,86743,1,0,0:0:0:0:
192,192,86834,1,0,0:0:0:0:
448,192,86834,1,0,0:0:0:0:
320,192,86834,128,0,86926:0:0:0:0:
64,192,86926,1,0,0:0:0:0:
192,192,86926,128,0,87018:0:0:0:0:
64,192,87018,1,0,0:0:0:0:
448,192,87018,128,0,87110:0:0:0:0:
192,192,87110,1,0,0:0:0:0:
64,192,87110,1,0,0:0:0:0:
320,192,87110,1,0,0:0:0:0:
448,192,87201,1,0,0:0:0:0:
192,192,87201,1,0,0:0:0:0:
64,192,87201,128,0,87293:0:0:0:0:
192,192,87293,1,0,0:0:0:0:
320,192,87293,1,0,0:0:0:0:
320,192,87385,1,0,0:0:0:0:
64,192,87385,1,0,0:0:0:0:
448,192,87385,128,0,87477:0:0:0:0:
64,192,87477,1,0,0:0:0:0:
192,192,87477,1,0,0:0:0:0:
320,192,87568,1,0,0:0:0:0:
448,192,87568,128,0,87660:0:0:0:0:
192,192,87568,128,0,87660:0:0:0:0:
64,192,87660,1,0,0:0:0:0:
320,192,87752,1,0,0:0:0:0:
448,192,87752,1,0,0:0:0:0:
64,192,87752,128,0,87844:0:0:0:0:
192,192,87844,1,0,0:0:0:0:
320,192,87844,128,0,87935:0:0:0:0:
448,192,87935,1,0,0:0:0:0:
64,192,87935,1,0,0:0:0:0:
192,192,87935,128,0,88027:0:0:0:0:
320,192,88027,1,0,0:0:0:0:
448,192,88027,128,0,88119:0:0:0:0:
64,192,88119,1,0,0:0:0:0:
320,192,88211,1,0,0:0:0:0:
192,192,88211,1,0,0:0:0:0:
320,192,88302,1,0,0:0:0:0:
448,192,88302,1,0,0:0:0:0:
64,192,88302,128,0,88394:0:0:0:0:
192,192,88394,1,0,0:0:0:0:
448,192,88394,1,0,0:0:0:0:
320,192,88394,128,0,88486:0:0:0:0:
64,192,88486,1,0,0:0:0:0:
320,192,88577,1,0,0:0:0:0:
192,192,88577,1,0,0:0:0:0:
448,192,88577,1,0,0:0:0:0:
320,192,88669,1,0,0:0:0:0:
64,192,88669,1,0,0:0:0:0:
320,192,88761,128,0,88853:0:0:0:0:
64,192,88761,1,0,0:0:0:0:
192,192,88761,1,0,0:0:0:0:
64,192,88853,128,0,88944:0:0:0:0:
448,192,88853,128,0,88944:0:0:0:0:
192,192,88944,128,0,89036:0:0:0:0:
320,192,88944,1,0,0:0:0:0:
320,192,89036,1,0,0:0:0:0:
64,192,89036,1,0,0:0:0:0:
448,192,89036,1,0,0:0:0:0:
320,192,89128,128,0,89220:0:0:0:0:
448,192,89128,1,0,0:0:0:0:
64,192,89128,1,0,0:0:0:0:
448,192,89220,128,0,89311:0:0:0:0:
192,192,89220,1,0,0:0:0:0:
64,192,89220,128,0,89311:0:0:0:0:
192,192,89311,128,0,89403:0:0:0:0:
320,192,89311,1,0,0:0:0:0:
64,192,89403,1,0,0:0:0:0:
320,192,89403,1,0,0:0:0:0:
448,192,89403,128,0,89495:0:0:0:0:
192,192,89495,1,0,0:0:0:0:
64,192,89495,128,0,89587:0:0:0:0:
320,192,89587,1,0,0:0:0:0:
448,192,89587,1,0,0:0:0:0:
192,192,89587,128,0,89678:0:0:0:0:
448,192,89678,1,0,0:0:0:0:
64,192,89678,1,0,0:0:0:0:
192,192,89770,1,0,0:0:0:0:
320,192,89770,1,0,0:0:0:0:
192,192,89862,1,0,0:0:0:0:
64,192,89862,1,0,0:0:0:0:
448,192,89862,128,0,89954:0:0:0:0:
320,192,89954,1,0,0:0:0:0:
64,192,89954,1,0,0:0:0:0:
192,192,89954,128,0,90045:0:0:0:0:
320,192,90045,1,0,0:0:0:0:
64,192,90045,128,0,90137:0:0:0:0:
448,192,90045,128,0,90137:0:0:0:0:
192,192,90137,1,0,0:0:0:0:
320,192,90137,128,0,90229:0:0:0:0:
64,192,90229,1,0,0:0:0:0:
192,192,90229,128,0,90321:0:0:0:0:
320,192,90321,1,0,0:0:0:0:
448,192,90321,128,0,90412:0:0:0:0:
64,192,90321,1,0,0:0:0:0:
192,192,90412,1,0,0:0:0:0:
64,192,90412,128,0,90504:0:0:0:0:
320,192,90412,1,0,0:0:0:0:
448,192,90504,1,0,0:0:0:0:
320,192,90504,128,0,90596:0:0:0:0:
64,192,90596,1,0,0:0:0:0:
192,192,90596,1,0,0:0:0:0:
320,192,90688,1,0,0:0:0:0:
448,192,90688,1,0,0:0:0:0:
192,192,90779,128,0,90871:0:0:0:0:
64,192,90779,1,0,0:0:0:0:
320,192,90779,1,0,0:0:0:0:
448,192,90779,128,0,90871:0:0:0:0:
320,192,90871,1,0,0:0:0:0:
64,192,90871,128,0,90963:0:0:0:0:
320,192,90963,128,0,91055:0:0:0:0:
192,192,90963,1,0,0:0:0:0:
448,192,90963,1,0,0:0:0:0:
448,192,91055,1,0,0:0:0:0:
320,192,91146,1,0,0:0:0:0:
64,192,91146,1,0,0:0:0:0:
320,192,91238,1,0,0:0:0:0:
64,192,91238,1,0,0:0:0:0:
192,192,91238,1,0,0:0:0:0:
320,192,91330,1,0,0:0:0:0:
448,192,91330,1,0,0:0:0:0:
320,192,91422,128,0,91513:0:0:0:0:
448,192,91422,1,0,0:0:0:0:
64,192,91422,128,0,91513:0:0:0:0:
448,192,91513,1,0,0:0:0:0:
192,192,91513,1,0,0:0:0:0:
320,192,91605,1,0,0:0:0:0:
64,192,91605,1,0,0:0:0:0:
64,192,91697,1,0,0:0:0:0:
320,192,91697,1,0,0:0:0:0:
448,192,91697,1,0,0:0:0:0:
192,192,91697,1,0,0:0:0:0:
64,192,91788,1,0,0:0:0:0:
320,192,91788,128,0,91880:0:0:0:0:
192,192,91880,1,0,0:0:0:0:
448,192,91880,1,0,0:0:0:0:
64,192,91880,128,0,91972:0:0:0:0:
320,192,91972,1,0,0:0:0:0:
192,192,91972,1,0,0:0:0:0:
192,192,92064,128,0,92155:0:0:0:0:
320,192,92064,1,0,0:0:0:0:
448,192,92064,128,0,92155:0:0:0:0:
320,192,92155,1,0,0:0:0:0:
64,192,92155,1,0,0:0:0:0:
448,192,92247,128,0,92339:0:0:0:0:
64,192,92247,1,0,0:0:0:0:
64,192,92339,1,0,0:0:0:0:
320,192,92339,1,0,0:0:0:0:
192,192,92339,128,0,92431:0:0:0:0:
64,192,92431,128,0,92522:0:0:0:0:
448,192,92431,1,0,0:0:0:0:
320,192,92431,1,0,0:0:0:0:
320,192,92522,128,0,92614:0:0:0:0:
448,192,92522,1,0,0:0:0:0:
192,192,92522,1,0,0:0:0:0:
192,192,92614,128,0,92706:0:0:0:0:
64,192,92614,1,0,0:0:0:0:
448,192,92614,1,0,0:0:0:0:
320,192,92706,1,0,0:0:0:0:
64,192,92706,1,0,0:0:0:0:
64,192,92798,1,0,0:0:0:0:
448,192,92798,1,0,0:0:0:0:
320,192,92889,1,0,0:0:0:0:
192,192,92889,128,0,92981:0:0:0:0:
448,192,92981,1,0,0:0:0:0:
320,192,92981,1,0,0:0:0:0:
64,192,92981,128,0,93073:0:0:0:0:
320,192,93073,128,0,93165:0:0:0:0:
448,192,93073,1,0,0:0:0:0:
192,192,93073,1,0,0:0:0:0:
192,192,93165,128,0,93256:0:0:0:0:
64,192,93165,1,0,0:0:0:0:
64,192,93256,1,0,0:0:0:0:
320,192,93256,1,0,0:0:0:0:
448,192,93256,128,0,93348:0:0:0:0:
320,192,93348,1,0,0:0:0:0:
192,192,93348,1,0,0:0:0:0:
64,192,93440,1,0,0:0:0:0:
192,192,93440,1,0,0:0:0:0:
448,192,93440,1,0,0:0:0:0:
192,192,93532,1,0,0:0:0:0:
320,192,93532,1,0,0:0:0:0:
448,192,93532,128,0,93623:0:0:0:0:
320,192,93623,1,0,0:0:0:0:
192,192,93623,128,0,93715:0:0:0:0:
448,192,93715,1,0,0:0:0:0:
64,192,93715,1,0,0:0:0:0:
320,192,93715,1,0,0:0:0:0:
192,192,93807,1,0,0:0:0:0:
448,192,93807,1,0,0:0:0:0:
320,192,93807,128,0,93899:0:0:0:0:
192,192,93899,1,0,0:0:0:0:
448,192,93899,128,0,93990:0:0:0:0:
64,192,93899,128,0,93990:0:0:0:0:
320,192,93990,1,0,0:0:0:0:
192,192,93990,128,0,94082:0:0:0:0:
448,192,94082,128,0,94174:0:0:0:0:
320,192,94082,1,0,0:0:0:0:
64,192,94082,1,0,0:0:0:0:
64,192,94174,128,0,94266:0:0:0:0:
192,192,94174,1,0,0:0:0:0:
320,192,94174,1,0,0:0:0:0:
448,192,94266,1,0,0:0:0:0:
320,192,94266,1,0,0:0:0:0:
192,192,94325,128,0,94403:0:0:0:0:
320,192,94364,128,0,94521:0:0:0:0:
64,192,94403,128,0,94482:0:0:0:0:
192,192,94442,128,0,94560:0:0:0:0:
448,192,94442,128,0,94521:0:0:0:0:
64,192,94521,128,0,94600:0:0:0:0:
448,192,94560,128,0,94639:0:0:0:0:
320,192,94600,128,0,94757:0:0:0:0:
192,192,94639,128,0,94836:0:0:0:0:
64,192,94639,128,0,94718:0:0:0:0:
448,192,94678,128,0,94757:0:0:0:0:
64,192,94757,128,0,94836:0:0:0:0:
448,192,94796,128,0,94875:0:0:0:0:
320,192,94836,128,0,94914:0:0:0:0:
64,192,94875,128,0,95032:0:0:0:0:
448,192,94914,128,0,94993:0:0:0:0:
192,192,94914,128,0,94993:0:0:0:0:
320,192,94993,128,0,95072:0:0:0:0:
192,192,95032,128,0,95268:0:0:0:0:
448,192,95032,128,0,95268:0:0:0:0:
64,192,95111,128,0,95190:0:0:0:0:
320,192,95150,128,0,95229:0:0:0:0:
64,192,95229,128,0,95307:0:0:0:0:
320,192,95268,128,0,95425:0:0:0:0:
448,192,95307,128,0,95386:0:0:0:0:
192,192,95347,128,0,95504:0:0:0:0:
64,192,95347,128,0,95465:0:0:0:0:
448,192,95425,128,0,95504:0:0:0:0:
320,192,95504,128,0,95583:0:0:0:0:
64,192,95543,128,0,95779:0:0:0:0:
192,192,95543,128,0,95661:0:0:0:0:
448,192,95583,128,0,95701:0:0:0:0:
320,192,95622,128,0,95779:0:0:0:0:
192,192,95740,128,0,95976:0:0:0:0:
448,192,95740,128,0,95819:0:0:0:0:
320,192,95819,128,0,95897:0:0:0:0:
64,192,95858,128,0,95937:0:0:0:0:
448,192,95897,128,0,96055:0:0:0:0:
320,192,95937,128,0,96015:0:0:0:0:
64,192,95976,128,0,96055:0:0:0:0:
320,192,96055,128,0,96290:0:0:0:0:
192,192,96055,128,0,96133:0:0:0:0:
64,192,96094,128,0,96173:0:0:0:0:
448,192,96094,128,0,96173:0:0:0:0:
192,192,96173,128,0,96251:0:0:0:0:
64,192,96212,128,0,96448:0:0:0:0:
448,192,96212,128,0,96290:0:0:0:0:
192,192,96290,128,0,96369:0:0:0:0:
448,192,96330,128,0,96684:0:0:0:0:
320,192,96369,128,0,96448:0:0:0:0:
192,192,96408,128,0,96487:0:0:0:0:
320,192,96487,128,0,96566:0:0:0:0:
64,192,96526,128,0,96605:0:0:0:0:
192,192,96566,128,0,96644:0:0:0:0:
320,192,96644,128,0,96841:0:0:0:0:
64,192,96644,128,0,96723:0:0:0:0:
192,192,96684,128,0,96762:0:0:0:0:
448,192,96723,128,0,96880:0:0:0:0:
64,192,96762,128,0,96880:0:0:0:0:
192,192,96802,128,0,97116:0:0:0:0:
320,192,96880,128,0,96959:0:0:0:0:
64,192,96920,128,0,96959:0:0:0:0:
448,192,96920,128,0,96998:0:0:0:0:
320,192,96998,128,0,97077:0:0:0:0:
64,192,96998,128,0,97234:0:0:0:0:
448,192,97038,128,0,97116:0:0:0:0:
320,192,97116,128,0,97195:0:0:0:0:
192,192,97155,128,0,97509:0:0:0:0:
448,192,97195,128,0,97273:0:0:0:0:
320,192,97273,128,0,97352:0:0:0:0:
64,192,97313,128,0,97391:0:0:0:0:
448,192,97352,128,0,97431:0:0:0:0:
320,192,97391,128,0,97470:0:0:0:0:
64,192,97431,128,0,97549:0:0:0:0:
320,192,97509,128,0,97785:0:0:0:0:
448,192,97509,128,0,97588:0:0:0:0:
192,192,97549,128,0,97627:0:0:0:0:
64,192,97588,128,0,97667:0:0:0:0:
448,192,97627,128,0,97706:0:0:0:0:
192,192,97667,128,0,97745:0:0:0:0:
64,192,97706,128,0,97824:0:0:0:0:
448,192,97785,128,0,97863:0:0:0:0:
192,192,97824,128,0,97903:0:0:0:0:
320,192,97863,128,0,98099:0:0:0:0:
64,192,97863,128,0,97942:0:0:0:0:
448,192,97903,128,0,97981:0:0:0:0:
192,192,97942,128,0,98020:0:0:0:0:
64,192,98020,128,0,98256:0:0:0:0:
448,192,98020,128,0,98099:0:0:0:0:
192,192,98060,128,0,98138:0:0:0:0:
320,192,98138,128,0,98217:0:0:0:0:
448,192,98178,128,0,98256:0:0:0:0:
192,192,98217,128,0,98532:0:0:0:0:
320,192,98256,128,0,98335:0:0:0:0:
448,192,98296,128,0,98414:0:0:0:0:
64,192,98296,128,0,98374:0:0:0:0:
320,192,98374,128,0,98453:0:0:0:0:
64,192,98414,128,0,98532:0:0:0:0:
320,192,98492,128,0,98807:0:0:0:0:
448,192,98532,128,0,99003:0:0:0:0:
64,192,98571,128,0,98650:0:0:0:0:
192,192,98610,128,0,98689:0:0:0:0:
64,192,98689,128,0,98768:0:0:0:0:
192,192,98728,128,0,98807:0:0:0:0:
64,192,98807,128,0,98885:0:0:0:0:
320,192,98846,128,0,98925:0:0:0:0:
192,192,98925,128,0,99121:0:0:0:0:
64,192,98964,128,0,99043:0:0:0:0:
320,192,99003,128,0,99121:0:0:0:0:
448,192,99082,128,0,99161:0:0:0:0:
64,192,99121,128,0,99436:0:0:0:0:
320,192,99161,128,0,99239:0:0:0:0:
192,192,99200,128,0,99279:0:0:0:0:
448,192,99239,128,0,99318:0:0:0:0:
320,192,99279,128,0,99515:0:0:0:0:
192,192,99318,128,0,99397:0:0:0:0:
448,192,99357,128,0,99436:0:0:0:0:
192,192,99436,128,0,99515:0:0:0:0:
448,192,99475,128,0,99829:0:0:0:0:
64,192,99475,128,0,99554:0:0:0:0:
192,192,99554,128,0,99633:0:0:0:0:
320,192,99593,128,0,99672:0:0:0:0:
64,192,99593,128,0,99711:0:0:0:0:
192,192,99672,128,0,99790:0:0:0:0:
320,192,99711,128,0,99947:0:0:0:0:
64,192,99750,128,0,99829:0:0:0:0:
192,192,99868,128,0,99986:0:0:0:0:
448,192,99868,128,0,99908:0:0:0:0:
64,192,99908,128,0,99986:0:0:0:0:
448,192,99947,128,0,100026:0:0:0:0:
320,192,99986,128,0,100104:0:0:0:0:
64,192,100026,128,0,100340:0:0:0:0:
192,192,100065,128,0,100222:0:0:0:0:
448,192,100065,128,0,100144:0:0:0:0:
320,192,100183,128,0,100262:0:0:0:0:
448,192,100222,128,0,100301:0:0:0:0:
192,192,100262,128,0,100340:0:0:0:0:
320,192,100340,128,0,100615:0:0:0:0:
448,192,100380,128,0,100458:0:0:0:0:
192,192,100419,128,0,100498:0:0:0:0:
64,192,100458,128,0,100537:0:0:0:0:
448,192,100498,128,0,100694:0:0:0:0:
192,192,100537,128,0,100615:0:0:0:0:
64,192,100576,128,0,100655:0:0:0:0:
192,192,100655,128,0,100733:0:0:0:0:
320,192,100655,128,0,100930:0:0:0:0:
64,192,100733,128,0,100812:0:0:0:0:
192,192,100773,128,0,100851:0:0:0:0:
448,192,100812,128,0,100891:0:0:0:0:
192,192,100891,128,0,101284:0:0:0:0:
64,192,100891,128,0,101009:0:0:0:0:
448,192,100930,128,0,101009:0:0:0:0:
320,192,100969,128,0,101087:0:0:0:0:
448,192,101048,128,0,101166:0:0:0:0:
64,192,101048,128,0,101166:0:0:0:0:
320,192,101127,128,0,101205:0:0:0:0:
64,192,101205,128,0,101284:0:0:0:0:
448,192,101205,128,0,101363:0:0:0:0:
320,192,101323,128,0,101559:0:0:0:0:
64,192,101323,128,0,101402:0:0:0:0:
192,192,101363,128,0,101441:0:0:0:0:
448,192,101402,128,0,101480:0:0:0:0:
64,192,101441,128,0,101559:0:0:0:0:
192,192,101520,128,0,101952:0:0:0:0:
448,192,101520,128,0,101598:0:0:0:0:
64,192,101598,128,0,101677:0:0:0:0:
320,192,101638,128,0,101716:0:0:0:0:
448,192,101677,128,0,101756:0:0:0:0:
64,192,101756,128,0,101874:0:0:0:0:
320,192,101756,128,0,101834:0:0:0:0:
448,192,101834,128,0,102267:0:0:0:0:
320,192,101874,128,0,101952:0:0:0:0:
64,192,101913,128,0,102031:0:0:0:0:
192,192,101992,128,0,102070:0:0:0:0:
64,192,102070,128,0,102149:0:0:0:0:
320,192,102110,128,0,102188:0:0:0:0:
192,192,102149,128,0,102463:0:0:0:0:
64,192,102228,128,0,102306:0:0:0:0:
320,192,102267,128,0,102346:0:0:0:0:
448,192,102306,128,0,102424:0:0:0:0:
64,192,102385,128,0,102739:0:0:0:0:
320,192,102385,128,0,102463:0:0:0:0:
448,192,102463,128,0,102542:0:0:0:0:
320,192,102542,128,0,102739:0:0:0:0:
192,192,102542,128,0,102621:0:0:0:0:
448,192,102581,128,0,102660:0:0:0:0:
192,192,102660,128,0,102739:0:0:0:0:
448,192,102699,128,0,103093:0:0:0:0:
320,192,102778,128,0,102935:0:0:0:0:
192,192,102817,128,0,102896:0:0:0:0:
64,192,102857,128,0,102935:0:0:0:0:
192,192,102935,128,0,103014:0:0:0:0:
320,192,102975,128,0,103211:0:0:0:0:
64,192,102975,128,0,103053:0:0:0:0:
192,192,103053,128,0,103132:0:0:0:0:
64,192,103093,128,0,103171:0:0:0:0:
448,192,103132,128,0,103250:0:0:0:0:
192,192,103171,128,0,103525:0:0:0:0:
64,192,103211,128,0,103289:0:0:0:0:
320,192,103250,128,0,103328:0:0:0:0:
448,192,103289,128,0,103368:0:0:0:0:
64,192,103368,128,0,103840:0:0:0:0:
320,192,103368,128,0,103446:0:0:0:0:
448,192,103407,128,0,103525:0:0:0:0:
320,192,103486,128,0,103564:0:0:0:0:
448,192,103564,128,0,103643:0:0:0:0:
192,192,103564,128,0,103643:0:0:0:0:
320,192,103604,128,0,103722:0:0:0:0:
448,192,103682,128,0,103800:0:0:0:0:
192,192,103722,128,0,103800:0:0:0:0:
320,192,103761,128,0,104076:0:0:0:0:
448,192,103840,128,0,103918:0:0:0:0:
192,192,103840,128,0,103918:0:0:0:0:
64,192,103879,128,0,103958:0:0:0:0:
448,192,103958,128,0,104036:0:0:0:0:
192,192,103958,128,0,104036:0:0:0:0:
64,192,104036,128,0,104233:0:0:0:0:
448,192,104076,128,0,104154:0:0:0:0:
320,192,104115,128,0,104193:0:0:0:0:
192,192,104154,128,0,104587:0:0:0:0:
448,192,104193,128,0,104272:0:0:0:0:
320,192,104233,128,0,104351:0:0:0:0:
448,192,104311,128,0,104390:0:0:0:0:
64,192,104311,128,0,104390:0:0:0:0:
320,192,104390,128,0,104469:0:0:0:0:
448,192,104429,128,0,104626:0:0:0:0:
64,192,104429,128,0,104508:0:0:0:0:
320,192,104508,128,0,104547:0:0:0:0:
64,192,104547,128,0,104901:0:0:0:0:
320,192,104626,128,0,104705:0:0:0:0:
448,192,104665,128,0,104744:0:0:0:0:
192,192,104665,128,0,104783:0:0:0:0:
320,192,104744,128,0,104823:0:0:0:0:
448,192,104783,128,0,104862:0:0:0:0:
192,192,104862,128,0,105294:0:0:0:0:
320,192,104862,128,0,104980:0:0:0:0:
448,192,104901,128,0,105019:0:0:0:0:
64,192,104941,128,0,105019:0:0:0:0:
320,192,105019,128,0,105098:0:0:0:0:
448,192,105058,128,0,105137:0:0:0:0:
64,192,105058,128,0,105137:0:0:0:0:
320,192,105137,128,0,105216:0:0:0:0:
448,192,105176,128,0,105294:0:0:0:0:
64,192,105176,128,0,105294:0:0:0:0:
320,192,105255,128,0,105609:0:0:0:0:
448,192,105334,128,0,105412:0:0:0:0:
192,192,105334,128,0,105412:0:0:0:0:
64,192,105373,128,0,105452:0:0:0:0:
192,192,105452,128,0,105530:0:0:0:0:
448,192,105491,128,0,105766:0:0:0:0:
64,192,105530,128,0,105609:0:0:0:0:
192,192,105570,128,0,105648:0:0:0:0:
64,192,105648,128,0,105727:0:0:0:0:
192,192,105688,128,0,105806:0:0:0:0:
320,192,105727,128,0,105923:0:0:0:0:
64,192,105766,128,0,105845:0:0:0:0:
448,192,105806,128,0,105884:0:0:0:0:
192,192,105923,128,0,106199:0:0:0:0:
448,192,105923,128,0,106002:0:0:0:0:
64,192,105963,128,0,106041:0:0:0:0:
320,192,106002,128,0,106081:0:0:0:0:
448,192,106041,128,0,106159:0:0:0:0:
64,192,106081,128,0,106159:0:0:0:0:
320,192,106159,128,0,106356:0:0:0:0:
448,192,106199,128,0,106277:0:0:0:0:
64,192,106238,128,0,106317:0:0:0:0:
192,192,106277,128,0,106395:0:0:0:0:
448,192,106317,128,0,106435:0:0:0:0:
64,192,106356,128,0,106671:0:0:0:0:
320,192,106395,128,0,106474:0:0:0:0:
192,192,106435,128,0,106513:0:0:0:0:
448,192,106474,128,0,106631:0:0:0:0:
320,192,106553,128,0,106671:0:0:0:0:
192,192,106592,128,0,106671:0:0:0:0:
448,192,106710,128,0,106788:0:0:0:0:
192,192,106788,1,0,0:0:0:0:
64,192,106788,1,0,0:0:0:0:
448,192,106828,1,0,0:0:0:0:
320,192,106828,1,0,0:0:0:0:
64,192,106867,128,0,106906:0:0:0:0:
448,192,106906,128,0,106946:0:0:0:0:
64,192,106946,1,0,0:0:0:0:
192,192,106946,1,0,0:0:0:0:
448,192,106985,1,0,0:0:0:0:
320,192,106985,1,0,0:0:0:0:
192,192,107024,1,0,0:0:0:0:
64,192,107024,1,0,0:0:0:0:
320,192,107064,128,0,107103:0:0:0:0:
320,192,107142,1,0,0:0:0:0:
448,192,107142,1,0,0:0:0:0:
64,192,107142,128,0,107182:0:0:0:0:
64,192,107221,1,0,0:0:0:0:
192,192,107221,1,0,0:0:0:0:
192,192,107442,5,0,0:0:0:0:
64,192,107442,1,0,0:0:0:0:
320,192,107477,1,0,0:0:0:0:
192,192,107511,128,0,107545:0:0:0:0:
448,192,107545,128,0,107614:0:0:0:0:
64,192,107545,1,0,0:0:0:0:
192,192,107614,1,0,0:0:0:0:
64,192,107614,128,0,107649:0:0:0:0:
320,192,107683,1,0,0:0:0:0:
448,192,107683,1,0,0:0:0:0:
64,192,107717,1,0,0:0:0:0:
192,192,107752,1,0,0:0:0:0:
448,192,107786,1,0,0:0:0:0:
320,192,107786,128,0,107821:0:0:0:0:
64,192,107821,128,0,107889:0:0:0:0:
192,192,107889,1,0,0:0:0:0:
320,192,107889,1,0,0:0:0:0:
448,192,107924,1,0,0:0:0:0:
320,192,107958,128,0,107993:0:0:0:0:
64,192,107993,1,0,0:0:0:0:
192,192,107993,1,0,0:0:0:0:
448,192,108027,128,0,108096:0:0:0:0:
320,192,108096,1,0,0:0:0:0:
64,192,108130,1,0,0:0:0:0:
192,192,108130,128,0,108165:0:0:0:0:
448,192,108165,128,0,108233:0:0:0:0:
64,192,108233,1,0,0:0:0:0:
320,192,108268,1,0,0:0:0:0:
192,192,108268,1,0,0:0:0:0:
64,192,108337,1,0,0:0:0:0:
192,192,108371,1,0,0:0:0:0:
448,192,108371,1,0,0:0:0:0:
320,192,108405,1,0,0:0:0:0:
64,192,108440,1,0,0:0:0:0:
192,192,108440,128,0,108474:0:0:0:0:
448,192,108474,128,0,108543:0:0:0:0:
64,192,108543,1,0,0:0:0:0:
192,192,108577,128,0,108612:0:0:0:0:
320,192,108577,1,0,0:0:0:0:
64,192,108612,128,0,108681:0:0:0:0:
448,192,108646,1,0,0:0:0:0:
320,192,108681,1,0,0:0:0:0:
192,192,108715,1,0,0:0:0:0:
448,192,108749,128,0,108784:0:0:0:0:
64,192,108749,1,0,0:0:0:0:
320,192,108818,1,0,0:0:0:0:
192,192,108818,1,0,0:0:0:0:
64,192,108853,128,0,108887:0:0:0:0:
448,192,108887,1,0,0:0:0:0:
320,192,108922,1,0,0:0:0:0:
192,192,108956,128,0,108990:0:0:0:0:
320,192,108990,1,0,0:0:0:0:
448,192,108990,1,0,0:0:0:0:
64,192,108990,128,0,109059:0:0:0:0:
448,192,109059,1,0,0:0:0:0:
192,192,109094,1,0,0:0:0:0:
320,192,109094,1,0,0:0:0:0:
64,192,109128,1,0,0:0:0:0:
320,192,109162,128,0,109197:0:0:0:0:
448,192,109197,1,0,0:0:0:0:
192,192,109231,1,0,0:0:0:0:
64,192,109266,1,0,0:0:0:0:
448,192,109266,128,0,109300:0:0:0:0:
320,192,109334,1,0,0:0:0:0:
64,192,109334,128,0,109369:0:0:0:0:
192,192,109369,1,0,0:0:0:0:
448,192,109403,1,0,0:0:0:0:
64,192,109438,128,0,109472:0:0:0:0:
192,192,109438,1,0,0:0:0:0:
320,192,109472,1,0,0:0:0:0:
448,192,109506,1,0,0:0:0:0:
192,192,109541,128,0,109575:0:0:0:0:
64,192,109575,1,0,0:0:0:0:
320,192,109610,1,0,0:0:0:0:
448,192,109644,1,0,0:0:0:0:
192,192,109678,128,0,109713:0:0:0:0:
64,192,109678,128,0,109782:0:0:0:0:
320,192,109747,1,0,0:0:0:0:
448,192,109747,1,0,0:0:0:0:
192,192,109782,1,0,0:0:0:0:
320,192,109816,128,0,109850:0:0:0:0:
448,192,109850,1,0,0:0:0:0:
64,192,109850,1,0,0:0:0:0:
448,192,109919,1,0,0:0:0:0:
320,192,109919,128,0,109954:0:0:0:0:
192,192,109919,1,0,0:0:0:0:
64,192,109954,128,0,109988:0:0:0:0:
192,192,110022,1,0,0:0:0:0:
320,192,110057,1,0,0:0:0:0:
448,192,110057,128,0,110091:0:0:0:0:
64,192,110091,128,0,110160:0:0:0:0:
192,192,110160,1,0,0:0:0:0:
320,192,110194,128,0,110229:0:0:0:0:
448,192,110229,1,0,0:0:0:0:
192,192,110263,128,0,110332:0:0:0:0:
64,192,110332,1,0,0:0:0:0:
448,192,110332,128,0,110401:0:0:0:0:
320,192,110401,1,0,0:0:0:0:
192,192,110435,128,0,110470:0:0:0:0:
64,192,110470,1,0,0:0:0:0:
448,192,110504,128,0,110538:0:0:0:0:
320,192,110538,1,0,0:0:0:0:
192,192,110573,1,0,0:0:0:0:
64,192,110607,1,0,0:0:0:0:
448,192,110642,1,0,0:0:0:0:
320,192,110642,128,0,110676:0:0:0:0:
192,192,110676,1,0,0:0:0:0:
64,192,110711,1,0,0:0:0:0:
320,192,110745,1,0,0:0:0:0:
448,192,110745,1,0,0:0:0:0:
192,192,110779,128,0,110814:0:0:0:0:
64,192,110814,1,0,0:0:0:0:
448,192,110814,128,0,110848:0:0:0:0:
320,192,110883,1,0,0:0:0:0:
192,192,110917,1,0,0:0:0:0:
64,192,110917,128,0,110951:0:0:0:0:
320,192,110986,1,0,0:0:0:0:
448,192,110986,128,0,111020:0:0:0:0:
64,192,111020,1,0,0:0:0:0:
192,192,111055,1,0,0:0:0:0:
320,192,111089,128,0,111123:0:0:0:0:
448,192,111123,1,0,0:0:0:0:
64,192,111123,128,0,111192:0:0:0:0:
192,192,111192,1,0,0:0:0:0:
448,192,111227,1,0,0:0:0:0:
320,192,111261,128,0,111295:0:0:0:0:
192,192,111295,1,0,0:0:0:0:
64,192,111330,1,0,0:0:0:0:
448,192,111364,1,0,0:0:0:0:
192,192,111399,1,0,0:0:0:0:
64,192,111433,128,0,111467:0:0:0:0:
320,192,111433,1,0,0:0:0:0:
448,192,111467,1,0,0:0:0:0:
320,192,111502,128,0,111536:0:0:0:0:
192,192,111536,1,0,0:0:0:0:
448,192,111571,128,0,111605:0:0:0:0:
64,192,111571,1,0,0:0:0:0:
192,192,111605,1,0,0:0:0:0:
320,192,111639,128,0,111708:0:0:0:0:
448,192,111708,1,0,0:0:0:0:
64,192,111708,1,0,0:0:0:0:
192,192,111743,1,0,0:0:0:0:
320,192,111777,128,0,111811:0:0:0:0:
448,192,111811,1,0,0:0:0:0:
192,192,111811,128,0,111846:0:0:0:0:
64,192,111846,1,0,0:0:0:0:
448,192,111880,1,0,0:0:0:0:
320,192,111915,128,0,111949:0:0:0:0:
192,192,111949,1,0,0:0:0:0:
64,192,111983,1,0,0:0:0:0:
448,192,111983,128,0,112018:0:0:0:0:
192,192,112052,1,0,0:0:0:0:
320,192,112087,1,0,0:0:0:0:
448,192,112087,128,0,112121:0:0:0:0:
64,192,112121,128,0,112190:0:0:0:0:
192,192,112190,1,0,0:0:0:0:
320,192,112224,1,0,0:0:0:0:
448,192,112259,128,0,112293:0:0:0:0:
192,192,112293,1,0,0:0:0:0:
64,192,112293,1,0,0:0:0:0:
320,192,112327,1,0,0:0:0:0:
192,192,112362,128,0,112396:0:0:0:0:
64,192,112396,1,0,0:0:0:0:
448,192,112396,128,0,112431:0:0:0:0:
320,192,112465,128,0,112534:0:0:0:0:
64,192,112499,1,0,0:0:0:0:
192,192,112534,1,0,0:0:0:0:
448,192,112568,128,0,112603:0:0:0:0:
320,192,112637,1,0,0:0:0:0:
192,192,112637,1,0,0:0:0:0:
64,192,112672,128,0,112706:0:0:0:0:
448,192,112706,1,0,0:0:0:0:
320,192,112740,128,0,112775:0:0:0:0:
192,192,112775,1,0,0:0:0:0:
64,192,112775,1,0,0:0:0:0:
448,192,112809,128,0,112844:0:0:0:0:
192,192,112844,1,0,0:0:0:0:
64,192,112844,1,0,0:0:0:0:
320,192,112912,1,0,0:0:0:0:
448,192,112912,128,0,112947:0:0:0:0:
192,192,112947,1,0,0:0:0:0:
64,192,112947,128,0,112981:0:0:0:0:
448,192,113016,1,0,0:0:0:0:
64,192,113050,128,0,113084:0:0:0:0:
192,192,113084,1,0,0:0:0:0:
320,192,113119,1,0,0:0:0:0:
448,192,113153,1,0,0:0:0:0:
192,192,113188,128,0,113222:0:0:0:0:
64,192,113188,1,0,0:0:0:0:
320,192,113222,1,0,0:0:0:0:
448,192,113256,128,0,113325:0:0:0:0:
64,192,113291,128,0,113325:0:0:0:0:
192,192,113325,1,0,0:0:0:0:
320,192,113394,1,0,0:0:0:0:
448,192,113428,128,0,113497:0:0:0:0:
64,192,113463,128,0,113532:0:0:0:0:
320,192,113532,128,0,113600:0:0:0:0:
192,192,113532,1,0,0:0:0:0:
192,192,113635,1,0,0:0:0:0:
448,192,113669,128,0,113738:0:0:0:0:
64,192,113704,1,0,0:0:0:0:
320,192,113772,1,0,0:0:0:0:
192,192,113807,128,0,113910:0:0:0:0:
320,192,113910,1,0,0:0:0:0:
64,192,113979,1,0,0:0:0:0:
320,192,113979,128,0,114013:0:0:0:0:
448,192,113979,128,0,114013:0:0:0:0:
192,192,114048,128,0,114116:0:0:0:0:
64,192,114082,1,0,0:0:0:0:
320,192,114151,1,0,0:0:0:0:
448,192,114185,1,0,0:0:0:0:
64,192,114185,1,0,0:0:0:0:
192,192,114220,128,0,114254:0:0:0:0:
320,192,114254,1,0,0:0:0:0:
448,192,114288,128,0,114323:0:0:0:0:
320,192,114323,1,0,0:0:0:0:
64,192,114323,128,0,114357:0:0:0:0:
192,192,114392,1,0,0:0:0:0:
448,192,114426,128,0,114461:0:0:0:0:
320,192,114461,1,0,0:0:0:0:
64,192,114461,1,0,0:0:0:0:
192,192,114495,1,0,0:0:0:0:
320,192,114529,1,0,0:0:0:0:
448,192,114564,128,0,114598:0:0:0:0:
64,192,114598,1,0,0:0:0:0:
320,192,114633,128,0,114667:0:0:0:0:
192,192,114633,1,0,0:0:0:0:
192,192,114701,1,0,0:0:0:0:
64,192,114736,1,0,0:0:0:0:
448,192,114736,128,0,114805:0:0:0:0:
320,192,114805,1,0,0:0:0:0:
192,192,114839,1,0,0:0:0:0:
64,192,114839,128,0,114873:0:0:0:0:
192,192,114908,1,0,0:0:0:0:
320,192,114908,1,0,0:0:0:0:
448,192,114908,128,0,114942:0:0:0:0:
320,192,114977,1,0,0:0:0:0:
192,192,115011,1,0,0:0:0:0:
64,192,115045,128,0,115080:0:0:0:0:
448,192,115080,128,0,115183:0:0:0:0:
192,192,115114,1,0,0:0:0:0:
320,192,115149,1,0,0:0:0:0:
64,192,115183,128,0,115217:0:0:0:0:
192,192,115252,1,0,0:0:0:0:
448,192,115286,1,0,0:0:0:0:
64,192,115286,1,0,0:0:0:0:
320,192,115321,128,0,115355:0:0:0:0:
192,192,115389,1,0,0:0:0:0:
64,192,115389,1,0,0:0:0:0:
448,192,115424,128,0,115458:0:0:0:0:
320,192,115458,1,0,0:0:0:0:
192,192,115493,1,0,0:0:0:0:
64,192,115493,128,0,115527:0:0:0:0:
320,192,115527,1,0,0:0:0:0:
448,192,115561,1,0,0:0:0:0:
192,192,115596,128,0,115630:0:0:0:0:
320,192,115630,1,0,0:0:0:0:
64,192,115665,1,0,0:0:0:0:
448,192,115665,1,0,0:0:0:0:
192,192,115699,128,0,115733:0:0:0:0:
448,192,115733,128,0,115802:0:0:0:0:
320,192,115837,1,0,0:0:0:0:
192,192,115871,128,0,115905:0:0:0:0:
64,192,115905,1,0,0:0:0:0:
448,192,115940,1,0,0:0:0:0:
192,192,115974,1,0,0:0:0:0:
64,192,115974,128,0,116043:0:0:0:0:
320,192,116009,1,0,0:0:0:0:
192,192,116043,1,0,0:0:0:0:
448,192,116077,128,0,116112:0:0:0:0:
320,192,116112,1,0,0:0:0:0:
192,192,116146,128,0,116181:0:0:0:0:
64,192,116181,128,0,116249:0:0:0:0:
448,192,116215,1,0,0:0:0:0:
320,192,116249,1,0,0:0:0:0:
192,192,116284,1,0,0:0:0:0:
448,192,116318,1,0,0:0:0:0:
64,192,116353,1,0,0:0:0:0:
192,192,116353,128,0,116387:0:0:0:0:
320,192,116422,128,0,116490:0:0:0:0:
448,192,116490,1,0,0:0:0:0:
64,192,116490,128,0,116525:0:0:0:0:
192,192,116559,1,0,0:0:0:0:
320,192,116594,1,0,0:0:0:0:
448,192,116594,128,0,116628:0:0:0:0:
192,192,116628,128,0,116662:0:0:0:0:
64,192,116662,1,0,0:0:0:0:
320,192,116697,128,0,116731:0:0:0:0:
448,192,116731,1,0,0:0:0:0:
192,192,116766,128,0,116800:0:0:0:0:
64,192,116800,1,0,0:0:0:0:
320,192,116834,1,0,0:0:0:0:
448,192,116834,128,0,116869:0:0:0:0:
192,192,116869,128,0,116903:0:0:0:0:
64,192,116903,1,0,0:0:0:0:
320,192,116938,1,0,0:0:0:0:
192,192,116972,1,0,0:0:0:0:
448,192,117006,128,0,117075:0:0:0:0:
64,192,117006,1,0,0:0:0:0:
320,192,117075,1,0,0:0:0:0:
192,192,117110,128,0,117144:0:0:0:0:
64,192,117144,1,0,0:0:0:0:
448,192,117178,128,0,117213:0:0:0:0:
320,192,117213,1,0,0:0:0:0:
192,192,117247,1,0,0:0:0:0:
64,192,117282,1,0,0:0:0:0:
320,192,117316,128,0,117350:0:0:0:0:
448,192,117316,1,0,0:0:0:0:
192,192,117350,1,0,0:0:0:0:
64,192,117385,1,0,0:0:0:0:
448,192,117419,1,0,0:0:0:0:
320,192,117419,1,0,0:0:0:0:
192,192,117454,128,0,117488:0:0:0:0:
64,192,117488,1,0,0:0:0:0:
448,192,117488,128,0,117557:0:0:0:0:
320,192,117557,1,0,0:0:0:0:
64,192,117591,128,0,117626:0:0:0:0:
192,192,117591,1,0,0:0:0:0:
320,192,117626,1,0,0:0:0:0:
448,192,117626,128,0,117660:0:0:0:0:
64,192,117694,1,0,0:0:0:0:
192,192,117694,128,0,117729:0:0:0:0:
320,192,117763,128,0,117798:0:0:0:0:
64,192,117798,128,0,117866:0:0:0:0:
448,192,117798,1,0,0:0:0:0:
192,192,117866,1,0,0:0:0:0:
448,192,117901,1,0,0:0:0:0:
320,192,117935,128,0,117970:0:0:0:0:
192,192,117970,1,0,0:0:0:0:
64,192,118004,1,0,0:0:0:0:
448,192,118038,1,0,0:0:0:0:
192,192,118073,1,0,0:0:0:0:
320,192,118107,1,0,0:0:0:0:
64,192,118107,128,0,118142:0:0:0:0:
448,192,118142,1,0,0:0:0:0:
320,192,118176,128,0,118211:0:0:0:0:
192,192,118211,1,0,0:0:0:0:
64,192,118245,1,0,0:0:0:0:
448,192,118245,128,0,118279:0:0:0:0:
192,192,118279,1,0,0:0:0:0:
320,192,118314,128,0,118383:0:0:0:0:
64,192,118383,1,0,0:0:0:0:
448,192,118383,1,0,0:0:0:0:
192,192,118417,1,0,0:0:0:0:
320,192,118451,128,0,118486:0:0:0:0:
192,192,118486,128,0,118520:0:0:0:0:
448,192,118486,1,0,0:0:0:0:
64,192,118520,1,0,0:0:0:0:
448,192,118555,1,0,0:0:0:0:
320,192,118589,128,0,118623:0:0:0:0:
192,192,118623,1,0,0:0:0:0:
448,192,118658,128,0,118692:0:0:0:0:
64,192,118658,1,0,0:0:0:0:
192,192,118727,1,0,0:0:0:0:
448,192,118761,128,0,118795:0:0:0:0:
320,192,118761,1,0,0:0:0:0:
64,192,118795,128,0,118864:0:0:0:0:
192,192,118864,1,0,0:0:0:0:
320,192,118899,1,0,0:0:0:0:
448,192,118933,128,0,118967:0:0:0:0:
64,192,118967,1,0,0:0:0:0:
192,192,118967,1,0,0:0:0:0:
320,192,119002,1,0,0:0:0:0:
192,192,119036,128,0,119071:0:0:0:0:
448,192,119071,128,0,119105:0:0:0:0:
64,192,119071,1,0,0:0:0:0:
320,192,119139,128,0,119208:0:0:0:0:
64,192,119174,1,0,0:0:0:0:
192,192,119208,1,0,0:0:0:0:
448,192,119243,128,0,119277:0:0:0:0:
64,192,119277,128,0,119311:0:0:0:0:
320,192,119277,1,0,0:0:0:0:
192,192,119346,1,0,0:0:0:0:
320,192,119380,1,0,0:0:0:0:
448,192,119415,128,0,119449:0:0:0:0:
64,192,119415,1,0,0:0:0:0:
192,192,119449,1,0,0:0:0:0:
320,192,119449,128,0,119483:0:0:0:0:
64,192,119518,128,0,119552:0:0:0:0:
448,192,119552,1,0,0:0:0:0:
192,192,119587,1,0,0:0:0:0:
320,192,119587,128,0,119621:0:0:0:0:
448,192,119621,1,0,0:0:0:0:
192,192,119655,1,0,0:0:0:0:
64,192,119690,128,0,119724:0:0:0:0:
320,192,119724,1,0,0:0:0:0:
448,192,119724,1,0,0:0:0:0:
192,192,119759,128,0,119793:0:0:0:0:
64,192,119827,1,0,0:0:0:0:
320,192,119827,128,0,119896:0:0:0:0:
448,192,119896,1,0,0:0:0:0:
192,192,119896,128,0,119931:0:0:0:0:
64,192,119931,1,0,0:0:0:0:
320,192,119965,1,0,0:0:0:0:
448,192,119965,128,0,119999:0:0:0:0:
192,192,120034,128,0,120068:0:0:0:0:
64,192,120068,1,0,0:0:0:0:
320,192,120068,128,0,120137:0:0:0:0:
448,192,120137,1,0,0:0:0:0:
192,192,120137,128,0,120240:0:0:0:0:
64,192,120240,1,0,0:0:0:0:
320,192,120240,128,0,120378:0:0:0:0:
448,192,120378,1,0,0:0:0:0:
192,192,120378,128,0,120653:0:0:0:0:
64,192,120653,1,0,0:0:0:0:
320,192,120653,1,0,0:0:0:0:
448,192,120653,1,0,0:0:0:0:
320,192,120756,1,0,0:0:0:0:
448,192,120756,1,0,0:0:0:0:
64,192,120756,1,0,0:0:0:0:
192,192,120756,1,0,0:0:0:0:
192,192,120860,1,0,0:0:0:0:
320,192,120860,1,0,0:0:0:0:
64,192,120963,1,0,0:0:0:0:
192,192,120963,1,0,0:0:0:0:
192,192,121032,1,0,0:0:0:0:
320,192,121100,1,0,0:0:0:0:
320,192,121169,1,0,0:0:0:0:
448,192,121169,1,0,0:0:0:0:
448,192,121238,1,0,0:0:0:0:
320,192,121238,1,0,0:0:0:0:
320,192,121307,1,0,0:0:0:0:
192,192,121307,1,0,0:0:0:0:
64,192,121307,1,0,0:0:0:0:
192,192,121376,1,0,0:0:0:0:
320,192,121444,1,0,0:0:0:0:
448,192,121444,1,0,0:0:0:0:
192,192,121444,1,0,0:0:0:0:
64,192,121444,1,0,0:0:0:0:
192,192,121582,1,0,0:0:0:0:
64,192,121582,1,0,0:0:0:0:
192,192,121651,1,0,0:0:0:0:
64,192,121651,1,0,0:0:0:0:
320,192,121651,1,0,0:0:0:0:
448,192,121651,1,0,0:0:0:0:
320,192,121754,1,0,0:0:0:0:
448,192,121754,1,0,0:0:0:0:
320,192,121823,1,0,0:0:0:0:
448,192,121823,1,0,0:0:0:0:
320,192,121926,1,0,0:0:0:0:
192,192,121926,1,0,0:0:0:0:
64,192,121926,1,0,0:0:0:0:
320,192,121995,1,0,0:0:0:0:
320,192,122064,1,0,0:0:0:0:
192,192,122133,1,0,0:0:0:0:
64,192,122133,1,0,0:0:0:0:
448,192,122133,1,0,0:0:0:0:
448,192,122201,1,0,0:0:0:0:
320,192,122201,1,0,0:0:0:0:
192,192,122201,1,0,0:0:0:0:
64,192,122201,1,0,0:0:0:0:
320,192,122339,128,0,123027:0:0:0:0:
448,192,122339,1,0,0:0:0:0:
192,192,122477,1,0,0:0:0:0:
64,192,122614,1,0,0:0:0:0:
192,192,122752,1,0,0:0:0:0:
448,192,122889,1,0,0:0:0:0:
192,192,123027,1,0,0:0:0:0:
448,192,123165,1,0,0:0:0:0:
192,192,123233,128,0,124128:0:0:0:0:
64,192,123233,1,0,0:0:0:0:
320,192,123990,128,0,124472:0:0:0:0:
448,192,123990,1,0,0:0:0:0:
64,192,124128,1,0,0:0:0:0:
192,192,124266,1,0,0:0:0:0:
448,192,124403,1,0,0:0:0:0:
192,192,124472,1,0,0:0:0:0:
448,192,124610,128,0,124885:0:0:0:0:
64,192,124610,1,0,0:0:0:0:
64,192,124885,128,0,125573:0:0:0:0:
320,192,124885,1,0,0:0:0:0:
448,192,125091,128,0,125160:0:0:0:0:
320,192,125366,128,0,125435:0:0:0:0:
320,192,125642,1,0,0:0:0:0:
448,192,125779,1,0,0:0:0:0:
320,192,125917,1,0,0:0:0:0:
192,192,125986,1,0,0:0:0:0:
64,192,126123,1,0,0:0:0:0:
192,192,126192,1,0,0:0:0:0:
320,192,126330,1,0,0:0:0:0:
448,192,126399,1,0,0:0:0:0:
448,192,126536,128,0,126949:0:0:0:0:
320,192,126605,1,0,0:0:0:0:
192,192,126674,1,0,0:0:0:0:
64,192,126743,128,0,127155:0:0:0:0:
192,192,126811,1,0,0:0:0:0:
320,192,126880,1,0,0:0:0:0:
448,192,127087,1,0,0:0:0:0:
320,192,127155,1,0,0:0:0:0:
192,192,127293,128,0,127775:0:0:0:0:
64,192,127775,128,0,128119:0:0:0:0:
320,192,128119,128,0,128600:0:0:0:0:
192,192,128119,1,0,0:0:0:0:
448,192,128119,1,0,0:0:0:0:
64,192,128600,128,0,128944:0:0:0:0:
192,192,128600,1,0,0:0:0:0:
448,192,128600,1,0,0:0:0:0:
192,192,128944,128,0,129082:0:0:0:0:
320,192,129082,1,0,0:0:0:0:
320,192,129288,1,0,0:0:0:0:
192,192,129357,1,0,0:0:0:0:
448,192,129426,1,0,0:0:0:0:
64,192,129495,1,0,0:0:0:0:
320,192,129564,1,0,0:0:0:0:
320,192,129701,128,0,129977:0:0:0:0:
192,192,129977,128,0,130321:0:0:0:0:
448,192,130321,128,0,130665:0:0:0:0:
320,192,130596,128,0,130871:0:0:0:0:
192,192,130733,1,0,0:0:0:0:
64,192,130871,1,0,0:0:0:0:
448,192,131009,128,0,131284:0:0:0:0:
320,192,131146,1,0,0:0:0:0:
192,192,131215,1,0,0:0:0:0:
64,192,131284,128,0,131559:0:0:0:0:
320,192,131422,128,0,131697:0:0:0:0:
192,192,131628,128,0,131972:0:0:0:0:
64,192,131903,128,0,132316:0:0:0:0:
320,192,131972,1,0,0:0:0:0:
448,192,132247,1,0,0:0:0:0:
320,192,132385,1,0,0:0:0:0:
192,192,132454,128,0,132935:0:0:0:0:
64,192,132591,128,0,132935:0:0:0:0:
448,192,133004,1,0,0:0:0:0:
320,192,133142,1,0,0:0:0:0:
192,192,133279,1,0,0:0:0:0:
64,192,133417,1,0,0:0:0:0:
448,192,133486,1,0,0:0:0:0:
320,192,133555,1,0,0:0:0:0:
192,192,133692,1,0,0:0:0:0:
320,192,133761,1,0,0:0:0:0:
64,192,133830,1,0,0:0:0:0:
320,192,133899,1,0,0:0:0:0:
192,192,133967,1,0,0:0:0:0:
448,192,134036,1,0,0:0:0:0:
64,192,134105,1,0,0:0:0:0:
192,192,134174,1,0,0:0:0:0:
64,192,134243,1,0,0:0:0:0:
448,192,134243,1,0,0:0:0:0:
320,192,134311,1,0,0:0:0:0:
192,192,134380,1,0,0:0:0:0:
448,192,134449,1,0,0:0:0:0:
192,192,134518,1,0,0:0:0:0:
320,192,134587,1,0,0:0:0:0:
320,192,134724,128,0,135068:0:0:0:0:
448,192,134724,128,0,135068:0:0:0:0:
192,192,135137,128,0,135206:0:0:0:0:
64,192,135137,128,0,135206:0:0:0:0:
64,192,135550,1,0,0:0:0:0:
192,192,135550,1,0,0:0:0:0:
320,192,135596,1,0,0:0:0:0:
448,192,135596,128,0,135733:0:0:0:0:
64,192,135642,1,0,0:0:0:0:
192,192,135642,1,0,0:0:0:0:
320,192,135688,128,0,135733:0:0:0:0:
64,192,135733,1,0,0:0:0:0:
192,192,135733,1,0,0:0:0:0:
320,192,135779,1,0,0:0:0:0:
192,192,135825,1,0,0:0:0:0:
320,192,135871,1,0,0:0:0:0:
448,192,135871,1,0,0:0:0:0:
64,192,135871,128,0,136009:0:0:0:0:
320,192,135963,1,0,0:0:0:0:
448,192,135963,1,0,0:0:0:0:
192,192,136009,1,0,0:0:0:0:
320,192,136055,1,0,0:0:0:0:
64,192,136100,1,0,0:0:0:0:
192,192,136100,1,0,0:0:0:0:
448,192,136100,1,0,0:0:0:0:
320,192,136146,1,0,0:0:0:0:
64,192,136192,1,0,0:0:0:0:
192,192,136192,1,0,0:0:0:0:
448,192,136238,1,0,0:0:0:0:
192,192,136284,1,0,0:0:0:0:
320,192,136284,1,0,0:0:0:0:
64,192,136284,1,0,0:0:0:0:
448,192,136376,1,0,0:0:0:0:
192,192,136376,1,0,0:0:0:0:
320,192,136376,1,0,0:0:0:0:
64,192,136376,128,0,136467:0:0:0:0:
448,192,136467,1,0,0:0:0:0:
192,192,136467,1,0,0:0:0:0:
320,192,136467,1,0,0:0:0:0:
320,192,136559,1,0,0:0:0:0:
448,192,136559,1,0,0:0:0:0:
192,192,136559,1,0,0:0:0:0:
320,192,136651,1,0,0:0:0:0:
192,192,136651,1,0,0:0:0:0:
64,192,136651,1,0,0:0:0:0:
320,192,136743,1,0,0:0:0:0:
448,192,136743,1,0,0:0:0:0:
64,192,136743,128,0,136834:0:0:0:0:
192,192,136743,128,0,136834:0:0:0:0:
448,192,136834,1,0,0:0:0:0:
192,192,136926,1,0,0:0:0:0:
64,192,136926,1,0,0:0:0:0:
320,192,136926,128,0,137018:0:0:0:0:
448,192,136926,128,0,137018:0:0:0:0:
64,192,137018,1,0,0:0:0:0:
192,192,137018,1,0,0:0:0:0:
64,192,137110,1,0,0:0:0:0:
192,192,137155,1,0,0:0:0:0:
448,192,137201,1,0,0:0:0:0:
320,192,137201,1,0,0:0:0:0:
64,192,137201,128,0,137293:0:0:0:0:
448,192,137293,1,0,0:0:0:0:
320,192,137293,1,0,0:0:0:0:
192,192,137339,1,0,0:0:0:0:
64,192,137385,1,0,0:0:0:0:
320,192,137385,1,0,0:0:0:0:
448,192,137385,128,0,137522:0:0:0:0:
192,192,137431,1,0,0:0:0:0:
64,192,137477,1,0,0:0:0:0:
192,192,137568,1,0,0:0:0:0:
64,192,137568,1,0,0:0:0:0:
320,192,137614,1,0,0:0:0:0:
64,192,137660,1,0,0:0:0:0:
448,192,137660,1,0,0:0:0:0:
192,192,137660,1,0,0:0:0:0:
320,192,137706,1,0,0:0:0:0:
192,192,137752,1,0,0:0:0:0:
64,192,137752,128,0,137844:0:0:0:0:
320,192,137798,1,0,0:0:0:0:
448,192,137844,1,0,0:0:0:0:
64,192,137935,1,0,0:0:0:0:
448,192,137935,128,0,138027:0:0:0:0:
192,192,137935,1,0,0:0:0:0:
64,192,138027,1,0,0:0:0:0:
192,192,138027,1,0,0:0:0:0:
320,192,138027,1,0,0:0:0:0:
448,192,138119,1,0,0:0:0:0:
320,192,138119,128,0,138211:0:0:0:0:
448,192,138211,1,0,0:0:0:0:
64,192,138211,1,0,0:0:0:0:
192,192,138302,1,0,0:0:0:0:
64,192,138302,1,0,0:0:0:0:
448,192,138302,1,0,0:0:0:0:
448,192,138394,1,0,0:0:0:0:
64,192,138394,128,0,138486:0:0:0:0:
320,192,138394,128,0,138486:0:0:0:0:
448,192,138486,1,0,0:0:0:0:
192,192,138486,1,0,0:0:0:0:
448,192,138577,1,0,0:0:0:0:
192,192,138577,1,0,0:0:0:0:
320,192,138577,1,0,0:0:0:0:
64,192,138577,1,0,0:0:0:0:
448,192,138669,1,0,0:0:0:0:
320,192,138669,1,0,0:0:0:0:
64,192,138761,1,0,0:0:0:0:
192,192,138761,1,0,0:0:0:0:
448,192,138761,1,0,0:0:0:0:
320,192,138807,1,0,0:0:0:0:
64,192,138853,1,0,0:0:0:0:
192,192,138853,1,0,0:0:0:0:
448,192,138853,128,0,138944:0:0:0:0:
64,192,138944,1,0,0:0:0:0:
192,192,138990,1,0,0:0:0:0:
320,192,139036,1,0,0:0:0:0:
64,192,139036,1,0,0:0:0:0:
448,192,139036,1,0,0:0:0:0:
192,192,139082,128,0,139128:0:0:0:0:
320,192,139128,1,0,0:0:0:0:
64,192,139128,1,0,0:0:0:0:
448,192,139174,1,0,0:0:0:0:
320,192,139220,1,0,0:0:0:0:
192,192,139266,1,0,0:0:0:0:
64,192,139311,1,0,0:0:0:0:
320,192,139311,1,0,0:0:0:0:
448,192,139311,1,0,0:0:0:0:
192,192,139357,1,0,0:0:0:0:
320,192,139403,1,0,0:0:0:0:
448,192,139403,128,0,139495:0:0:0:0:
192,192,139449,1,0,0:0:0:0:
64,192,139495,1,0,0:0:0:0:
320,192,139495,1,0,0:0:0:0:
64,192,139587,1,0,0:0:0:0:
192,192,139587,1,0,0:0:0:0:
448,192,139587,1,0,0:0:0:0:
320,192,139633,1,0,0:0:0:0:
64,192,139678,1,0,0:0:0:0:
192,192,139678,1,0,0:0:0:0:
320,192,139770,1,0,0:0:0:0:
448,192,139770,1,0,0:0:0:0:
192,192,139770,128,0,139862:0:0:0:0:
64,192,139862,1,0,0:0:0:0:
448,192,139862,1,0,0:0:0:0:
320,192,139862,128,0,139954:0:0:0:0:
64,192,139954,1,0,0:0:0:0:
448,192,139954,1,0,0:0:0:0:
192,192,139954,128,0,140045:0:0:0:0:
64,192,140045,1,0,0:0:0:0:
448,192,140045,1,0,0:0:0:0:
320,192,140045,128,0,140137:0:0:0:0:
448,192,140137,1,0,0:0:0:0:
64,192,140137,1,0,0:0:0:0:
320,192,140229,1,0,0:0:0:0:
448,192,140229,1,0,0:0:0:0:
192,192,140229,1,0,0:0:0:0:
64,192,140321,1,0,0:0:0:0:
192,192,140321,1,0,0:0:0:0:
448,192,140321,1,0,0:0:0:0:
320,192,140366,1,0,0:0:0:0:
448,192,140412,1,0,0:0:0:0:
192,192,140412,1,0,0:0:0:0:
64,192,140412,1,0,0:0:0:0:
448,192,140504,1,0,0:0:0:0:
320,192,140550,1,0,0:0:0:0:
64,192,140596,1,0,0:0:0:0:
192,192,140596,1,0,0:0:0:0:
448,192,140596,128,0,140688:0:0:0:0:
320,192,140642,1,0,0:0:0:0:
64,192,140688,1,0,0:0:0:0:
192,192,140688,1,0,0:0:0:0:
320,192,140733,1,0,0:0:0:0:
448,192,140779,1,0,0:0:0:0:
64,192,140779,128,0,140871:0:0:0:0:
320,192,140825,1,0,0:0:0:0:
192,192,140871,1,0,0:0:0:0:
64,192,140963,1,0,0:0:0:0:
448,192,140963,1,0,0:0:0:0:
320,192,140963,128,0,141055:0:0:0:0:
192,192,141055,1,0,0:0:0:0:
448,192,141055,1,0,0:0:0:0:
64,192,141055,128,0,141146:0:0:0:0:
192,192,141146,1,0,0:0:0:0:
448,192,141146,1,0,0:0:0:0:
320,192,141192,1,0,0:0:0:0:
64,192,141238,1,0,0:0:0:0:
448,192,141238,1,0,0:0:0:0:
192,192,141284,1,0,0:0:0:0:
448,192,141330,1,0,0:0:0:0:
320,192,141330,1,0,0:0:0:0:
64,192,141330,1,0,0:0:0:0:
192,192,141376,1,0,0:0:0:0:
448,192,141422,1,0,0:0:0:0:
320,192,141422,1,0,0:0:0:0:
64,192,141422,128,0,141513:0:0:0:0:
448,192,141513,1,0,0:0:0:0:
320,192,141513,1,0,0:0:0:0:
192,192,141559,1,0,0:0:0:0:
320,192,141605,1,0,0:0:0:0:
64,192,141605,1,0,0:0:0:0:
448,192,141651,128,0,141743:0:0:0:0:
64,192,141697,1,0,0:0:0:0:
192,192,141697,1,0,0:0:0:0:
320,192,141743,1,0,0:0:0:0:
64,192,141788,1,0,0:0:0:0:
192,192,141788,1,0,0:0:0:0:
320,192,141834,1,0,0:0:0:0:
192,192,141880,1,0,0:0:0:0:
64,192,141880,1,0,0:0:0:0:
448,192,141880,1,0,0:0:0:0:
192,192,141972,1,0,0:0:0:0:
448,192,141972,1,0,0:0:0:0:
64,192,141972,128,0,142018:0:0:0:0:
320,192,142018,1,0,0:0:0:0:
448,192,142064,1,0,0:0:0:0:
448,192,142155,1,0,0:0:0:0:
320,192,142155,1,0,0:0:0:0:
192,192,142247,1,0,0:0:0:0:
64,192,142247,1,0,0:0:0:0:
448,192,142247,1,0,0:0:0:0:
64,192,142339,1,0,0:0:0:0:
448,192,142339,1,0,0:0:0:0:
320,192,142339,1,0,0:0:0:0:
320,192,142431,1,0,0:0:0:0:
64,192,142522,1,0,0:0:0:0:
192,192,142522,1,0,0:0:0:0:
448,192,142522,1,0,0:0:0:0:
448,192,142614,1,0,0:0:0:0:
320,192,142614,1,0,0:0:0:0:
192,192,142614,1,0,0:0:0:0:
64,192,142706,1,0,0:0:0:0:
192,192,142706,1,0,0:0:0:0:
448,192,142706,1,0,0:0:0:0:
320,192,142798,1,0,0:0:0:0:
64,192,142889,1,0,0:0:0:0:
192,192,142889,1,0,0:0:0:0:
448,192,142889,1,0,0:0:0:0:
192,192,142981,1,0,0:0:0:0:
320,192,142981,1,0,0:0:0:0:
64,192,143073,1,0,0:0:0:0:
448,192,143073,1,0,0:0:0:0:
192,192,143073,1,0,0:0:0:0:
192,192,143165,1,0,0:0:0:0:
64,192,143256,1,0,0:0:0:0:
448,192,143256,1,0,0:0:0:0:
320,192,143256,1,0,0:0:0:0:
64,192,143348,1,0,0:0:0:0:
192,192,143348,1,0,0:0:0:0:
320,192,143348,1,0,0:0:0:0:
64,192,143440,1,0,0:0:0:0:
448,192,143440,1,0,0:0:0:0:
320,192,143440,1,0,0:0:0:0:
320,192,143532,1,0,0:0:0:0:
320,192,143623,1,0,0:0:0:0:
448,192,143623,1,0,0:0:0:0:
192,192,143623,1,0,0:0:0:0:
192,192,143715,1,0,0:0:0:0:
64,192,143715,1,0,0:0:0:0:
448,192,143715,1,0,0:0:0:0:
320,192,143807,1,0,0:0:0:0:
64,192,143899,1,0,0:0:0:0:
320,192,143899,1,0,0:0:0:0:
448,192,143899,1,0,0:0:0:0:
64,192,143990,1,0,0:0:0:0:
320,192,143990,1,0,0:0:0:0:
192,192,143990,1,0,0:0:0:0:
192,192,144082,1,0,0:0:0:0:
448,192,144174,1,0,0:0:0:0:
192,192,144174,1,0,0:0:0:0:
320,192,144174,1,0,0:0:0:0:
192,192,144266,1,0,0:0:0:0:
64,192,144266,1,0,0:0:0:0:
320,192,144357,1,0,0:0:0:0:
64,192,144357,1,0,0:0:0:0:
192,192,144357,1,0,0:0:0:0:
320,192,144449,1,0,0:0:0:0:
320,192,144541,1,0,0:0:0:0:
64,192,144541,1,0,0:0:0:0:
192,192,144541,1,0,0:0:0:0:
448,192,144541,1,0,0:0:0:0:
320,192,144633,1,0,0:0:0:0:
64,192,144633,1,0,0:0:0:0:
448,192,144633,1,0,0:0:0:0:
192,192,144633,1,0,0:0:0:0:
448,192,144724,1,0,0:0:0:0:
64,192,144724,1,0,0:0:0:0:
320,192,144816,1,0,0:0:0:0:
64,192,144816,1,0,0:0:0:0:
192,192,144816,1,0,0:0:0:0:
448,192,144816,1,0,0:0:0:0:
64,192,144908,1,0,0:0:0:0:
448,192,144908,1,0,0:0:0:0:
448,192,144999,1,0,0:0:0:0:
192,192,144999,1,0,0:0:0:0:
64,192,144999,1,0,0:0:0:0:
320,192,144999,1,0,0:0:0:0:
192,192,145091,1,0,0:0:0:0:
320,192,145091,1,0,0:0:0:0:
64,192,145183,1,0,0:0:0:0:
448,192,145183,1,0,0:0:0:0:
192,192,145183,1,0,0:0:0:0:
320,192,145183,1,0,0:0:0:0:
320,192,145275,1,0,0:0:0:0:
192,192,145275,1,0,0:0:0:0:
320,192,145366,1,0,0:0:0:0:
192,192,145366,1,0,0:0:0:0:
64,192,145366,1,0,0:0:0:0:
448,192,145366,1,0,0:0:0:0:
64,192,145458,1,0,0:0:0:0:
448,192,145458,1,0,0:0:0:0:
192,192,145458,1,0,0:0:0:0:
320,192,145550,1,0,0:0:0:0:
64,192,145550,1,0,0:0:0:0:
448,192,145550,1,0,0:0:0:0:
320,192,145642,1,0,0:0:0:0:
192,192,145733,1,0,0:0:0:0:
320,192,145733,1,0,0:0:0:0:
448,192,145733,1,0,0:0:0:0:
64,192,145825,1,0,0:0:0:0:
448,192,145825,1,0,0:0:0:0:
192,192,145825,1,0,0:0:0:0:
320,192,145917,1,0,0:0:0:0:
448,192,146009,1,0,0:0:0:0:
192,192,146009,1,0,0:0:0:0:
320,192,146009,1,0,0:0:0:0:
64,192,146100,1,0,0:0:0:0:
320,192,146100,1,0,0:0:0:0:
448,192,146192,1,0,0:0:0:0:
64,192,146192,1,0,0:0:0:0:
192,192,146192,1,0,0:0:0:0:
320,192,146284,1,0,0:0:0:0:
64,192,146284,1,0,0:0:0:0:
448,192,146284,1,0,0:0:0:0:
64,192,146376,1,0,0:0:0:0:
448,192,146376,1,0,0:0:0:0:
192,192,146376,1,0,0:0:0:0:
320,192,146467,1,0,0:0:0:0:
64,192,146467,1,0,0:0:0:0:
448,192,146467,1,0,0:0:0:0:
192,192,146559,1,0,0:0:0:0:
192,192,146651,1,0,0:0:0:0:
320,192,146651,1,0,0:0:0:0:
448,192,146651,1,0,0:0:0:0:
448,192,146743,1,0,0:0:0:0:
320,192,146743,1,0,0:0:0:0:
192,192,146743,1,0,0:0:0:0:
192,192,146834,1,0,0:0:0:0:
320,192,146834,1,0,0:0:0:0:
64,192,146834,1,0,0:0:0:0:
64,192,146926,1,0,0:0:0:0:
448,192,146926,1,0,0:0:0:0:
320,192,146926,1,0,0:0:0:0:
64,192,147018,1,0,0:0:0:0:
192,192,147018,1,0,0:0:0:0:
448,192,147018,1,0,0:0:0:0:
64,192,147110,1,0,0:0:0:0:
192,192,147110,1,0,0:0:0:0:
320,192,147110,1,0,0:0:0:0:
448,192,147201,1,0,0:0:0:0:
64,192,147201,1,0,0:0:0:0:
192,192,147201,1,0,0:0:0:0:
64,192,147293,1,0,0:0:0:0:
448,192,147293,1,0,0:0:0:0:
192,192,147293,1,0,0:0:0:0:
320,192,147385,1,0,0:0:0:0:
192,192,147431,1,0,0:0:0:0:
64,192,147477,1,0,0:0:0:0:
448,192,147477,1,0,0:0:0:0:
320,192,147477,1,0,0:0:0:0:
192,192,147522,1,0,0:0:0:0:
64,192,147568,1,0,0:0:0:0:
320,192,147568,1,0,0:0:0:0:
448,192,147568,1,0,0:0:0:0:
192,192,147614,1,0,0:0:0:0:
320,192,147660,1,0,0:0:0:0:
448,192,147660,1,0,0:0:0:0:
192,192,147706,1,0,0:0:0:0:
64,192,147752,1,0,0:0:0:0:
448,192,147752,1,0,0:0:0:0:
320,192,147798,1,0,0:0:0:0:
192,192,147844,1,0,0:0:0:0:
64,192,147844,1,0,0:0:0:0:
320,192,147889,1,0,0:0:0:0:
192,192,147935,1,0,0:0:0:0:
64,192,147935,1,0,0:0:0:0:
448,192,147935,1,0,0:0:0:0:
320,192,147981,1,0,0:0:0:0:
192,192,148027,1,0,0:0:0:0:
64,192,148027,1,0,0:0:0:0:
320,192,148119,1,0,0:0:0:0:
448,192,148119,1,0,0:0:0:0:
192,192,148165,1,0,0:0:0:0:
64,192,148165,1,0,0:0:0:0:
320,192,148211,1,0,0:0:0:0:
448,192,148211,1,0,0:0:0:0:
192,192,148256,1,0,0:0:0:0:
448,192,148302,1,0,0:0:0:0:
320,192,148302,1,0,0:0:0:0:
192,192,148348,1,0,0:0:0:0:
64,192,148348,1,0,0:0:0:0:
320,192,148394,1,0,0:0:0:0:
192,192,148440,1,0,0:0:0:0:
64,192,148440,1,0,0:0:0:0:
320,192,148486,1,0,0:0:0:0:
448,192,148486,1,0,0:0:0:0:
64,192,148532,1,0,0:0:0:0:
320,192,148577,1,0,0:0:0:0:
448,192,148577,1,0,0:0:0:0:
192,192,148623,1,0,0:0:0:0:
64,192,148669,1,0,0:0:0:0:
448,192,148669,1,0,0:0:0:0:
320,192,148715,1,0,0:0:0:0:
192,192,148761,1,0,0:0:0:0:
64,192,148761,1,0,0:0:0:0:
448,192,148853,128,0,149707:0:0:0:0:
320,192,149569,128,0,150326:0:0:0:0:
192,192,149885,128,0,150326:0:0:0:0:
64,192,150229,128,0,152018:0:0:0:0:
192,192,150395,128,0,152018:0:0:0:0:
320,192,150395,128,0,150877:0:0:0:0:
320,192,150946,128,0,151771:0:0:0:0:
448,192,151261,128,0,151427:0:0:0:0:
448,192,151496,128,0,153354:0:0:0:0:
320,192,151840,128,0,152597:0:0:0:0:
192,192,152087,128,0,153079:0:0:0:0:
64,192,152087,128,0,152844:0:0:0:0:
320,192,152666,128,0,153600:0:0:0:0:
64,192,152912,128,0,153738:0:0:0:0:
192,192,153147,128,0,153738:0:0:0:0:
448,192,153423,128,0,153600:0:0:0:0:
320,192,153669,128,0,154042:0:0:0:0:
448,192,153669,128,0,154042:0:0:0:0:
192,192,153807,128,0,153904:0:0:0:0:
64,192,153807,128,0,153904:0:0:0:0:
192,192,153973,128,0,154180:0:0:0:0:
64,192,153973,128,0,154495:0:0:0:0:
320,192,154111,128,0,154180:0:0:0:0:
448,192,154111,128,0,154495:0:0:0:0:
320,192,154248,128,0,154317:0:0:0:0:
192,192,154248,128,0,154317:0:0:0:0:
192,192,154386,128,0,154495:0:0:0:0:
320,192,154386,128,0,154495:0:0:0:0:
64,192,154564,128,0,154770:0:0:0:0:
192,192,154564,128,0,154633:0:0:0:0:
320,192,154564,128,0,154633:0:0:0:0:
448,192,154564,128,0,154770:0:0:0:0:
192,192,154701,128,0,154770:0:0:0:0:
320,192,154701,128,0,154770:0:0:0:0:
64,192,154839,128,0,154908:0:0:0:0:
192,192,154839,128,0,154908:0:0:0:0:
320,192,154839,128,0,155005:0:0:0:0:
448,192,154839,128,0,155005:0:0:0:0:
192,192,154977,128,0,155280:0:0:0:0:
64,192,154977,128,0,156657:0:0:0:0:
320,192,155074,128,0,155280:0:0:0:0:
448,192,155074,128,0,156037:0:0:0:0:
192,192,155349,128,0,156381:0:0:0:0:
320,192,155349,128,0,156932:0:0:0:0:
448,192,156106,128,0,158899:0:0:0:0:
192,192,156450,128,0,156932:0:0:0:0:
64,192,156725,128,0,158308:0:0:0:0:
192,192,157001,128,0,158033:0:0:0:0:
320,192,157001,128,0,157758:0:0:0:0:
320,192,157826,128,0,158761:0:0:0:0:
192,192,158102,128,0,158623:0:0:0:0:
64,192,158377,128,0,159862:0:0:0:0:
192,192,158692,128,0,159174:0:0:0:0:
320,192,158830,128,0,159036:0:0:0:0:
448,192,158967,128,0,159449:0:0:0:0:
320,192,159105,128,0,159449:0:0:0:0:
192,192,159243,128,0,159655:0:0:0:0:
320,192,159518,128,0,159655:0:0:0:0:
448,192,159518,128,0,160481:0:0:0:0:
320,192,159724,128,0,160206:0:0:0:0:
192,192,159724,128,0,159862:0:0:0:0:
192,192,159931,128,0,160206:0:0:0:0:
64,192,159931,128,0,160481:0:0:0:0:
320,192,160275,128,0,160344:0:0:0:0:
192,192,160275,128,0,160344:0:0:0:0:
320,192,160412,128,0,160756:0:0:0:0:
192,192,160412,128,0,160756:0:0:0:0:
64,192,160550,128,0,160619:0:0:0:0:
448,192,160550,128,0,160619:0:0:0:0:
64,192,160688,128,0,161404:0:0:0:0:
448,192,160688,128,0,161032:0:0:0:0:
192,192,160825,128,0,160894:0:0:0:0:
320,192,160825,128,0,160894:0:0:0:0:
320,192,160963,128,0,161032:0:0:0:0:
192,192,160963,128,0,161032:0:0:0:0:
320,192,161100,128,0,161198:0:0:0:0:
448,192,161100,128,0,161267:0:0:0:0:
192,192,161100,128,0,161198:0:0:0:0:
192,192,161284,128,0,161376:0:0:0:0:
320,192,161284,128,0,161376:0:0:0:0:
448,192,161330,128,0,161422:0:0:0:0:
192,192,161467,128,0,161513:0:0:0:0:
320,192,161467,128,0,161513:0:0:0:0:
64,192,161513,128,0,161605:0:0:0:0:
448,192,161513,128,0,161605:0:0:0:0:
192,192,161605,128,0,161651:0:0:0:0:
320,192,161605,128,0,161651:0:0:0:0:
64,192,161651,128,0,161743:0:0:0:0:
448,192,161651,128,0,161743:0:0:0:0:
192,192,161743,128,0,161788:0:0:0:0:
320,192,161743,128,0,161788:0:0:0:0:
192,192,161926,1,0,0:0:0:0:
320,192,161926,1,0,0:0:0:0:
64,192,161926,1,0,0:0:0:0:
448,192,161926,1,0,0:0:0:0:
192,192,162018,1,0,0:0:0:0:
320,192,162018,128,0,162110:0:0:0:0:
64,192,162018,128,0,162110:0:0:0:0:
448,192,162110,1,0,0:0:0:0:
192,192,162110,128,0,162293:0:0:0:0:
64,192,162201,1,0,0:0:0:0:
448,192,162293,1,0,0:0:0:0:
320,192,162293,128,0,162431:0:0:0:0:
64,192,162293,1,0,0:0:0:0:
192,192,162431,1,0,0:0:0:0:
320,192,162522,1,0,0:0:0:0:
64,192,162522,1,0,0:0:0:0:
448,192,162522,128,0,162614:0:0:0:0:
320,192,162614,1,0,0:0:0:0:
64,192,162614,1,0,0:0:0:0:
192,192,162614,128,0,162706:0:0:0:0:
64,192,162706,128,0,162844:0:0:0:0:
192,192,162844,1,0,0:0:0:0:
320,192,162844,1,0,0:0:0:0:
448,192,162844,1,0,0:0:0:0:
192,192,162935,1,0,0:0:0:0:
320,192,162935,128,0,163027:0:0:0:0:
448,192,163027,1,0,0:0:0:0:
64,192,163027,1,0,0:0:0:0:
448,192,163119,1,0,0:0:0:0:
192,192,163119,128,0,163211:0:0:0:0:
320,192,163211,1,0,0:0:0:0:
64,192,163211,1,0,0:0:0:0:
448,192,163302,1,0,0:0:0:0:
320,192,163302,128,0,163394:0:0:0:0:
448,192,163394,1,0,0:0:0:0:
64,192,163394,1,0,0:0:0:0:
192,192,163394,128,0,163486:0:0:0:0:
64,192,163486,128,0,163669:0:0:0:0:
320,192,163486,1,0,0:0:0:0:
448,192,163486,128,0,163669:0:0:0:0:
320,192,163669,1,0,0:0:0:0:
192,192,163669,1,0,0:0:0:0:
448,192,163761,1,0,0:0:0:0:
64,192,163761,1,0,0:0:0:0:
192,192,163761,128,0,163853:0:0:0:0:
320,192,163761,1,0,0:0:0:0:
64,192,163853,128,0,163944:0:0:0:0:
320,192,163853,128,0,163944:0:0:0:0:
192,192,163944,1,0,0:0:0:0:
448,192,163944,1,0,0:0:0:0:
64,192,164036,1,0,0:0:0:0:
320,192,164036,1,0,0:0:0:0:
192,192,164036,128,0,164128:0:0:0:0:
448,192,164036,128,0,164128:0:0:0:0:
320,192,164128,1,0,0:0:0:0:
64,192,164128,128,0,164220:0:0:0:0:
192,192,164220,1,0,0:0:0:0:
448,192,164220,1,0,0:0:0:0:
64,192,164311,1,0,0:0:0:0:
192,192,164311,128,0,164403:0:0:0:0:
320,192,164311,1,0,0:0:0:0:
448,192,164311,128,0,164403:0:0:0:0:
64,192,164403,128,0,164495:0:0:0:0:
320,192,164403,1,0,0:0:0:0:
448,192,164495,1,0,0:0:0:0:
64,192,164587,1,0,0:0:0:0:
192,192,164587,1,0,0:0:0:0:
320,192,164587,128,0,164678:0:0:0:0:
448,192,164587,1,0,0:0:0:0:
192,192,164678,1,0,0:0:0:0:
64,192,164678,128,0,164770:0:0:0:0:
448,192,164678,128,0,164770:0:0:0:0:
320,192,164770,1,0,0:0:0:0:
192,192,164770,128,0,164862:0:0:0:0:
448,192,164862,1,0,0:0:0:0:
64,192,164862,1,0,0:0:0:0:
448,192,164954,1,0,0:0:0:0:
192,192,164954,128,0,165045:0:0:0:0:
320,192,164954,1,0,0:0:0:0:
448,192,165045,128,0,165137:0:0:0:0:
320,192,165045,1,0,0:0:0:0:
64,192,165045,128,0,165137:0:0:0:0:
192,192,165137,1,0,0:0:0:0:
320,192,165229,1,0,0:0:0:0:
64,192,165229,1,0,0:0:0:0:
448,192,165229,128,0,165321:0:0:0:0:
64,192,165321,1,0,0:0:0:0:
320,192,165321,1,0,0:0:0:0:
64,192,165412,1,0,0:0:0:0:
448,192,165412,1,0,0:0:0:0:
192,192,165412,1,0,0:0:0:0:
320,192,165412,1,0,0:0:0:0:
448,192,165504,1,0,0:0:0:0:
64,192,165504,1,0,0:0:0:0:
448,192,165596,1,0,0:0:0:0:
64,192,165596,1,0,0:0:0:0:
192,192,165596,1,0,0:0:0:0:
320,192,165596,1,0,0:0:0:0:
192,192,165688,1,0,0:0:0:0:
448,192,165688,1,0,0:0:0:0:
320,192,165688,1,0,0:0:0:0:
64,192,165688,1,0,0:0:0:0:
192,192,165779,1,0,0:0:0:0:
320,192,165779,1,0,0:0:0:0:
192,192,165871,1,0,0:0:0:0:
320,192,165871,1,0,0:0:0:0:
64,192,165963,1,0,0:0:0:0:
448,192,165963,1,0,0:0:0:0:
192,192,166055,1,0,0:0:0:0:
320,192,166055,1,0,0:0:0:0:
448,192,166055,1,0,0:0:0:0:
64,192,166055,1,0,0:0:0:0:
192,192,166146,1,0,0:0:0:0:
320,192,166146,1,0,0:0:0:0:
64,192,166146,1,0,0:0:0:0:
448,192,166146,1,0,0:0:0:0:
64,192,166238,1,0,0:0:0:0:
448,192,166238,1,0,0:0:0:0:
448,192,166330,1,0,0:0:0:0:
64,192,166330,1,0,0:0:0:0:
192,192,166422,1,0,0:0:0:0:
320,192,166422,1,0,0:0:0:0:
64,192,166513,1,0,0:0:0:0:
448,192,166513,1,0,0:0:0:0:
192,192,166513,1,0,0:0:0:0:
320,192,166513,1,0,0:0:0:0:
448,192,166605,1,0,0:0:0:0:
192,192,166605,1,0,0:0:0:0:
64,192,166605,1,0,0:0:0:0:
64,192,166697,1,0,0:0:0:0:
320,192,166697,1,0,0:0:0:0:
448,192,166697,128,0,166788:0:0:0:0:
320,192,166788,1,0,0:0:0:0:
64,192,166788,1,0,0:0:0:0:
192,192,166788,128,0,166880:0:0:0:0:
320,192,166880,1,0,0:0:0:0:
64,192,166880,128,0,166972:0:0:0:0:
448,192,166972,1,0,0:0:0:0:
192,192,166972,1,0,0:0:0:0:
320,192,166972,128,0,167064:0:0:0:0:
448,192,167064,1,0,0:0:0:0:
64,192,167155,1,0,0:0:0:0:
320,192,167155,1,0,0:0:0:0:
192,192,167155,128,0,167247:0:0:0:0:
64,192,167247,1,0,0:0:0:0:
448,192,167247,1,0,0:0:0:0:
192,192,167339,1,0,0:0:0:0:
320,192,167339,1,0,0:0:0:0:
448,192,167339,1,0,0:0:0:0:
448,192,167431,1,0,0:0:0:0:
192,192,167431,1,0,0:0:0:0:
64,192,167431,128,0,167522:0:0:0:0:
192,192,167522,1,0,0:0:0:0:
448,192,167522,1,0,0:0:0:0:
320,192,167522,128,0,167614:0:0:0:0:
64,192,167614,1,0,0:0:0:0:
192,192,167614,128,0,167706:0:0:0:0:
448,192,167706,128,0,167798:0:0:0:0:
192,192,167798,1,0,0:0:0:0:
64,192,167798,1,0,0:0:0:0:
320,192,167798,1,0,0:0:0:0:
448,192,167889,1,0,0:0:0:0:
192,192,167889,1,0,0:0:0:0:
64,192,167889,128,0,167981:0:0:0:0:
320,192,167981,1,0,0:0:0:0:
320,192,168073,1,0,0:0:0:0:
64,192,168073,1,0,0:0:0:0:
448,192,168073,128,0,168165:0:0:0:0:
320,192,168165,1,0,0:0:0:0:
192,192,168165,1,0,0:0:0:0:
64,192,168256,1,0,0:0:0:0:
448,192,168256,128,0,168348:0:0:0:0:
192,192,168256,128,0,168348:0:0:0:0:
320,192,168348,1,0,0:0:0:0:
64,192,168348,1,0,0:0:0:0:
320,192,168440,1,0,0:0:0:0:
448,192,168440,1,0,0:0:0:0:
64,192,168440,128,0,168532:0:0:0:0:
192,192,168532,1,0,0:0:0:0:
320,192,168532,128,0,168623:0:0:0:0:
448,192,168623,1,0,0:0:0:0:
64,192,168623,1,0,0:0:0:0:
192,192,168623,128,0,168715:0:0:0:0:
320,192,168715,1,0,0:0:0:0:
448,192,168715,128,0,168807:0:0:0:0:
320,192,168807,1,0,0:0:0:0:
64,192,168807,1,0,0:0:0:0:
320,192,168899,1,0,0:0:0:0:
192,192,168899,1,0,0:0:0:0:
320,192,168990,1,0,0:0:0:0:
448,192,168990,1,0,0:0:0:0:
64,192,168990,128,0,169082:0:0:0:0:
192,192,169082,1,0,0:0:0:0:
448,192,169082,1,0,0:0:0:0:
320,192,169082,128,0,169174:0:0:0:0:
64,192,169174,1,0,0:0:0:0:
320,192,169266,1,0,0:0:0:0:
192,192,169266,1,0,0:0:0:0:
320,192,169357,1,0,0:0:0:0:
64,192,169357,1,0,0:0:0:0:
192,192,169357,1,0,0:0:0:0:
448,192,169357,1,0,0:0:0:0:
320,192,169449,128,0,169541:0:0:0:0:
64,192,169449,1,0,0:0:0:0:
192,192,169449,1,0,0:0:0:0:
64,192,169541,128,0,169633:0:0:0:0:
192,192,169541,1,0,0:0:0:0:
448,192,169541,128,0,169633:0:0:0:0:
192,192,169633,128,0,169724:0:0:0:0:
320,192,169633,1,0,0:0:0:0:
320,192,169724,1,0,0:0:0:0:
64,192,169724,1,0,0:0:0:0:
448,192,169724,1,0,0:0:0:0:
320,192,169816,128,0,169908:0:0:0:0:
448,192,169816,1,0,0:0:0:0:
64,192,169816,1,0,0:0:0:0:
448,192,169908,128,0,169999:0:0:0:0:
192,192,169908,1,0,0:0:0:0:
64,192,169908,128,0,169999:0:0:0:0:
192,192,169999,128,0,170091:0:0:0:0:
320,192,169999,1,0,0:0:0:0:
64,192,170091,1,0,0:0:0:0:
448,192,170091,128,0,170183:0:0:0:0:
320,192,170183,1,0,0:0:0:0:
192,192,170183,1,0,0:0:0:0:
64,192,170183,128,0,170275:0:0:0:0:
320,192,170275,1,0,0:0:0:0:
448,192,170275,1,0,0:0:0:0:
192,192,170275,128,0,170366:0:0:0:0:
448,192,170366,1,0,0:0:0:0:
64,192,170366,1,0,0:0:0:0:
192,192,170458,1,0,0:0:0:0:
320,192,170458,1,0,0:0:0:0:
192,192,170550,1,0,0:0:0:0:
64,192,170550,1,0,0:0:0:0:
448,192,170550,128,0,170642:0:0:0:0:
320,192,170642,1,0,0:0:0:0:
64,192,170642,1,0,0:0:0:0:
192,192,170642,128,0,170733:0:0:0:0:
320,192,170733,1,0,0:0:0:0:
64,192,170733,128,0,170825:0:0:0:0:
448,192,170733,128,0,170825:0:0:0:0:
192,192,170825,1,0,0:0:0:0:
320,192,170825,128,0,170917:0:0:0:0:
64,192,170917,1,0,0:0:0:0:
192,192,170917,128,0,171009:0:0:0:0:
320,192,171009,1,0,0:0:0:0:
448,192,171009,128,0,171100:0:0:0:0:
64,192,171009,1,0,0:0:0:0:
192,192,171100,1,0,0:0:0:0:
64,192,171100,128,0,171192:0:0:0:0:
320,192,171100,1,0,0:0:0:0:
448,192,171192,1,0,0:0:0:0:
320,192,171192,128,0,171284:0:0:0:0:
64,192,171284,1,0,0:0:0:0:
192,192,171284,1,0,0:0:0:0:
320,192,171376,1,0,0:0:0:0:
64,192,171376,1,0,0:0:0:0:
448,192,171376,1,0,0:0:0:0:
192,192,171467,128,0,171559:0:0:0:0:
64,192,171467,1,0,0:0:0:0:
448,192,171467,128,0,171559:0:0:0:0:
320,192,171559,1,0,0:0:0:0:
64,192,171559,128,0,171651:0:0:0:0:
320,192,171651,128,0,171743:0:0:0:0:
192,192,171651,1,0,0:0:0:0:
448,192,171651,1,0,0:0:0:0:
448,192,171743,1,0,0:0:0:0:
320,192,171834,1,0,0:0:0:0:
64,192,171834,1,0,0:0:0:0:
64,192,171926,1,0,0:0:0:0:
448,192,171926,1,0,0:0:0:0:
192,192,171926,1,0,0:0:0:0:
320,192,172018,1,0,0:0:0:0:
448,192,172018,1,0,0:0:0:0:
320,192,172110,128,0,172201:0:0:0:0:
64,192,172110,128,0,172201:0:0:0:0:
448,192,172201,1,0,0:0:0:0:
192,192,172201,1,0,0:0:0:0:
320,192,172293,1,0,0:0:0:0:
64,192,172293,1,0,0:0:0:0:
448,192,172293,128,0,172385:0:0:0:0:
64,192,172385,1,0,0:0:0:0:
320,192,172385,1,0,0:0:0:0:
192,192,172477,1,0,0:0:0:0:
320,192,172477,128,0,172568:0:0:0:0:
192,192,172568,1,0,0:0:0:0:
448,192,172568,1,0,0:0:0:0:
64,192,172568,128,0,172660:0:0:0:0:
192,192,172660,1,0,0:0:0:0:
192,192,172752,128,0,172844:0:0:0:0:
320,192,172752,1,0,0:0:0:0:
448,192,172752,128,0,172844:0:0:0:0:
320,192,172844,1,0,0:0:0:0:
64,192,172844,1,0,0:0:0:0:
448,192,172935,128,0,173027:0:0:0:0:
192,192,172935,1,0,0:0:0:0:
64,192,173027,1,0,0:0:0:0:
320,192,173027,1,0,0:0:0:0:
192,192,173027,128,0,173119:0:0:0:0:
64,192,173119,128,0,173211:0:0:0:0:
448,192,173119,1,0,0:0:0:0:
320,192,173119,1,0,0:0:0:0:
320,192,173211,128,0,173302:0:0:0:0:
192,192,173211,1,0,0:0:0:0:
192,192,173302,128,0,173394:0:0:0:0:
64,192,173302,1,0,0:0:0:0:
448,192,173302,1,0,0:0:0:0:
448,192,173394,128,0,173577:0:0:0:0:
320,192,173394,1,0,0:0:0:0:
64,192,173486,1,0,0:0:0:0:
320,192,173486,1,0,0:0:0:0:
192,192,173577,128,0,173669:0:0:0:0:
64,192,173577,1,0,0:0:0:0:
448,192,173669,1,0,0:0:0:0:
320,192,173669,1,0,0:0:0:0:
64,192,173669,128,0,173761:0:0:0:0:
320,192,173761,128,0,173853:0:0:0:0:
448,192,173761,1,0,0:0:0:0:
192,192,173761,1,0,0:0:0:0:
192,192,173853,128,0,173944:0:0:0:0:
64,192,173853,1,0,0:0:0:0:
64,192,173944,1,0,0:0:0:0:
320,192,173944,1,0,0:0:0:0:
448,192,173944,128,0,174036:0:0:0:0:
320,192,174036,1,0,0:0:0:0:
192,192,174036,1,0,0:0:0:0:
64,192,174128,1,0,0:0:0:0:
192,192,174128,1,0,0:0:0:0:
448,192,174128,1,0,0:0:0:0:
448,192,174220,1,0,0:0:0:0:
64,192,174220,1,0,0:0:0:0:
320,192,174311,1,0,0:0:0:0:
192,192,174311,128,0,174403:0:0:0:0:
448,192,174403,1,0,0:0:0:0:
64,192,174403,1,0,0:0:0:0:
320,192,174403,1,0,0:0:0:0:
192,192,174495,1,0,0:0:0:0:
448,192,174495,1,0,0:0:0:0:
320,192,174495,128,0,174587:0:0:0:0:
192,192,174587,1,0,0:0:0:0:
448,192,174587,128,0,174678:0:0:0:0:
64,192,174587,128,0,174678:0:0:0:0:
320,192,174678,1,0,0:0:0:0:
192,192,174678,128,0,174770:0:0:0:0:
448,192,174770,128,0,174862:0:0:0:0:
320,192,174770,1,0,0:0:0:0:
64,192,174770,1,0,0:0:0:0:
64,192,174862,128,0,174954:0:0:0:0:
192,192,174862,1,0,0:0:0:0:
320,192,174862,1,0,0:0:0:0:
448,192,174954,1,0,0:0:0:0:
320,192,174954,1,0,0:0:0:0:
192,192,175137,128,0,175215:0:0:0:0:
320,192,175176,128,0,175333:0:0:0:0:
64,192,175215,128,0,175294:0:0:0:0:
192,192,175254,128,0,175372:0:0:0:0:
448,192,175254,128,0,175333:0:0:0:0:
64,192,175333,128,0,175412:0:0:0:0:
448,192,175372,128,0,175451:0:0:0:0:
320,192,175412,128,0,175569:0:0:0:0:
192,192,175451,128,0,175647:0:0:0:0:
64,192,175451,128,0,175530:0:0:0:0:
448,192,175490,128,0,175569:0:0:0:0:
64,192,175569,128,0,175647:0:0:0:0:
448,192,175608,128,0,175688:0:0:0:0:
320,192,175647,128,0,175726:0:0:0:0:
64,192,175688,128,0,175844:0:0:0:0:
448,192,175726,128,0,175805:0:0:0:0:
192,192,175726,128,0,175805:0:0:0:0:
320,192,175805,128,0,175884:0:0:0:0:
192,192,175844,128,0,176080:0:0:0:0:
448,192,175844,128,0,176080:0:0:0:0:
64,192,175923,128,0,176002:0:0:0:0:
320,192,175963,128,0,176041:0:0:0:0:
64,192,176041,128,0,176119:0:0:0:0:
320,192,176080,128,0,176238:0:0:0:0:
448,192,176119,128,0,176198:0:0:0:0:
192,192,176159,128,0,176316:0:0:0:0:
64,192,176159,128,0,176277:0:0:0:0:
448,192,176238,128,0,176316:0:0:0:0:
320,192,176316,128,0,176395:0:0:0:0:
64,192,176355,128,0,176591:0:0:0:0:
192,192,176355,128,0,176473:0:0:0:0:
448,192,176395,128,0,176513:0:0:0:0:
320,192,176434,128,0,176591:0:0:0:0:
192,192,176552,128,0,176788:0:0:0:0:
448,192,176552,128,0,176631:0:0:0:0:
320,192,176631,128,0,176709:0:0:0:0:
64,192,176670,128,0,176748:0:0:0:0:
448,192,176709,128,0,176867:0:0:0:0:
320,192,176748,128,0,176827:0:0:0:0:
64,192,176788,128,0,176867:0:0:0:0:
320,192,176867,128,0,177102:0:0:0:0:
192,192,176867,128,0,176945:0:0:0:0:
64,192,176906,128,0,176985:0:0:0:0:
448,192,176906,128,0,176985:0:0:0:0:
192,192,176985,128,0,177064:0:0:0:0:
64,192,177024,128,0,177260:0:0:0:0:
448,192,177024,128,0,177102:0:0:0:0:
192,192,177102,128,0,177181:0:0:0:0:
448,192,177142,128,0,177496:0:0:0:0:
320,192,177181,128,0,177260:0:0:0:0:
192,192,177220,128,0,177299:0:0:0:0:
320,192,177299,128,0,177378:0:0:0:0:
64,192,177339,128,0,177417:0:0:0:0:
192,192,177378,128,0,177456:0:0:0:0:
320,192,177456,128,0,177653:0:0:0:0:
64,192,177456,128,0,177535:0:0:0:0:
192,192,177496,128,0,177574:0:0:0:0:
448,192,177535,128,0,177692:0:0:0:0:
64,192,177574,128,0,177692:0:0:0:0:
192,192,177614,128,0,177928:0:0:0:0:
320,192,177692,128,0,177771:0:0:0:0:
64,192,177732,128,0,177771:0:0:0:0:
448,192,177732,128,0,177810:0:0:0:0:
320,192,177810,128,0,177889:0:0:0:0:
64,192,177810,128,0,178046:0:0:0:0:
448,192,177849,128,0,177928:0:0:0:0:
320,192,177928,128,0,178007:0:0:0:0:
192,192,177967,128,0,178321:0:0:0:0:
448,192,178007,128,0,178085:0:0:0:0:
320,192,178085,128,0,178165:0:0:0:0:
64,192,178124,128,0,178203:0:0:0:0:
448,192,178165,128,0,178243:0:0:0:0:
320,192,178203,128,0,178282:0:0:0:0:
64,192,178243,128,0,178361:0:0:0:0:
320,192,178321,128,0,178597:0:0:0:0:
448,192,178321,128,0,178400:0:0:0:0:
192,192,178361,128,0,178440:0:0:0:0:
64,192,178400,128,0,178479:0:0:0:0:
448,192,178440,128,0,178518:0:0:0:0:
192,192,178479,128,0,178557:0:0:0:0:
64,192,178518,128,0,178636:0:0:0:0:
448,192,178597,128,0,178675:0:0:0:0:
192,192,178636,128,0,178715:0:0:0:0:
320,192,178675,128,0,178911:0:0:0:0:
64,192,178675,128,0,178754:0:0:0:0:
448,192,178715,128,0,178793:0:0:0:0:
192,192,178754,128,0,178832:0:0:0:0:
64,192,178832,128,0,179068:0:0:0:0:
448,192,178832,128,0,178911:0:0:0:0:
192,192,178872,128,0,178950:0:0:0:0:
320,192,178950,128,0,179029:0:0:0:0:
448,192,178990,128,0,179068:0:0:0:0:
192,192,179029,128,0,179344:0:0:0:0:
320,192,179068,128,0,179147:0:0:0:0:
448,192,179108,128,0,179225:0:0:0:0:
64,192,179108,128,0,179186:0:0:0:0:
320,192,179186,128,0,179266:0:0:0:0:
64,192,179225,128,0,179344:0:0:0:0:
320,192,179304,128,0,179619:0:0:0:0:
448,192,179344,128,0,179816:0:0:0:0:
64,192,179383,128,0,179462:0:0:0:0:
192,192,179422,128,0,179501:0:0:0:0:
64,192,179501,128,0,179580:0:0:0:0:
192,192,179541,128,0,179619:0:0:0:0:
64,192,179619,128,0,179697:0:0:0:0:
320,192,179658,128,0,179737:0:0:0:0:
192,192,179737,128,0,179933:0:0:0:0:
64,192,179776,128,0,179855:0:0:0:0:
320,192,179816,128,0,179933:0:0:0:0:
448,192,179894,128,0,179973:0:0:0:0:
64,192,179933,128,0,180248:0:0:0:0:
320,192,179973,128,0,180051:0:0:0:0:
192,192,180012,128,0,180091:0:0:0:0:
448,192,180051,128,0,180130:0:0:0:0:
320,192,180091,128,0,180326:0:0:0:0:
192,192,180130,128,0,180209:0:0:0:0:
448,192,180169,128,0,180248:0:0:0:0:
192,192,180248,128,0,180326:0:0:0:0:
448,192,180287,128,0,180642:0:0:0:0:
64,192,180287,128,0,180366:0:0:0:0:
192,192,180366,128,0,180445:0:0:0:0:
320,192,180405,128,0,180484:0:0:0:0:
64,192,180405,128,0,180523:0:0:0:0:
192,192,180484,128,0,180602:0:0:0:0:
320,192,180523,128,0,180759:0:0:0:0:
64,192,180562,128,0,180642:0:0:0:0:
192,192,180680,128,0,180798:0:0:0:0:
448,192,180680,128,0,180720:0:0:0:0:
64,192,180720,128,0,180798:0:0:0:0:
448,192,180759,128,0,180838:0:0:0:0:
320,192,180798,128,0,180917:0:0:0:0:
64,192,180838,128,0,181152:0:0:0:0:
192,192,180877,128,0,181034:0:0:0:0:
448,192,180877,128,0,180956:0:0:0:0:
320,192,180995,128,0,181074:0:0:0:0:
448,192,181034,128,0,181113:0:0:0:0:
192,192,181074,128,0,181152:0:0:0:0:
320,192,181152,128,0,181427:0:0:0:0:
448,192,181192,128,0,181270:0:0:0:0:
192,192,181231,128,0,181310:0:0:0:0:
64,192,181270,128,0,181349:0:0:0:0:
448,192,181310,128,0,181506:0:0:0:0:
192,192,181349,128,0,181427:0:0:0:0:
64,192,181388,128,0,181467:0:0:0:0:
192,192,181467,128,0,181545:0:0:0:0:
320,192,181467,128,0,181743:0:0:0:0:
64,192,181545,128,0,181624:0:0:0:0:
192,192,181585,128,0,181663:0:0:0:0:
448,192,181624,128,0,181702:0:0:0:0:
192,192,181702,128,0,182096:0:0:0:0:
64,192,181702,128,0,181821:0:0:0:0:
448,192,181743,128,0,181821:0:0:0:0:
320,192,181781,128,0,181899:0:0:0:0:
448,192,181860,128,0,181978:0:0:0:0:
64,192,181860,128,0,181978:0:0:0:0:
320,192,181939,128,0,182018:0:0:0:0:
64,192,182018,128,0,182096:0:0:0:0:
448,192,182018,128,0,182175:0:0:0:0:
320,192,182135,128,0,182371:0:0:0:0:
64,192,182135,128,0,182214:0:0:0:0:
192,192,182175,128,0,182253:0:0:0:0:
448,192,182214,128,0,182293:0:0:0:0:
64,192,182253,128,0,182371:0:0:0:0:
192,192,182332,128,0,182764:0:0:0:0:
448,192,182332,128,0,182410:0:0:0:0:
64,192,182410,128,0,182489:0:0:0:0:
320,192,182450,128,0,182528:0:0:0:0:
448,192,182489,128,0,182568:0:0:0:0:
64,192,182568,128,0,182686:0:0:0:0:
320,192,182568,128,0,182646:0:0:0:0:
448,192,182646,128,0,183079:0:0:0:0:
320,192,182686,128,0,182764:0:0:0:0:
64,192,182725,128,0,182844:0:0:0:0:
192,192,182803,128,0,182882:0:0:0:0:
64,192,182882,128,0,182961:0:0:0:0:
320,192,182922,128,0,183000:0:0:0:0:
192,192,182961,128,0,183275:0:0:0:0:
64,192,183040,128,0,183119:0:0:0:0:
320,192,183079,128,0,183158:0:0:0:0:
448,192,183119,128,0,183236:0:0:0:0:
64,192,183197,128,0,183551:0:0:0:0:
320,192,183197,128,0,183275:0:0:0:0:
448,192,183275,128,0,183354:0:0:0:0:
320,192,183354,128,0,183551:0:0:0:0:
192,192,183354,128,0,183433:0:0:0:0:
448,192,183394,128,0,183472:0:0:0:0:
192,192,183472,128,0,183551:0:0:0:0:
448,192,183511,128,0,183904:0:0:0:0:
320,192,183590,128,0,183747:0:0:0:0:
192,192,183629,128,0,183708:0:0:0:0:
64,192,183669,128,0,183747:0:0:0:0:
192,192,183747,128,0,183826:0:0:0:0:
320,192,183787,128,0,184023:0:0:0:0:
64,192,183787,128,0,183865:0:0:0:0:
192,192,183865,128,0,183944:0:0:0:0:
64,192,183904,128,0,183983:0:0:0:0:
448,192,183944,128,0,184062:0:0:0:0:
192,192,183983,128,0,184337:0:0:0:0:
64,192,184023,128,0,184101:0:0:0:0:
320,192,184062,128,0,184140:0:0:0:0:
448,192,184101,128,0,184180:0:0:0:0:
64,192,184180,128,0,184652:0:0:0:0:
320,192,184180,128,0,184258:0:0:0:0:
448,192,184220,128,0,184337:0:0:0:0:
320,192,184298,128,0,184376:0:0:0:0:
448,192,184376,128,0,184455:0:0:0:0:
192,192,184376,128,0,184455:0:0:0:0:
320,192,184416,128,0,184534:0:0:0:0:
448,192,184495,128,0,184612:0:0:0:0:
192,192,184534,128,0,184612:0:0:0:0:
320,192,184573,128,0,184888:0:0:0:0:
448,192,184652,128,0,184730:0:0:0:0:
192,192,184652,128,0,184730:0:0:0:0:
64,192,184691,128,0,184770:0:0:0:0:
448,192,184770,128,0,184848:0:0:0:0:
192,192,184770,128,0,184848:0:0:0:0:
64,192,184848,128,0,185045:0:0:0:0:
448,192,184888,128,0,184966:0:0:0:0:
320,192,184927,128,0,185005:0:0:0:0:
192,192,184966,128,0,185399:0:0:0:0:
448,192,185005,128,0,185084:0:0:0:0:
320,192,185045,128,0,185163:0:0:0:0:
448,192,185123,128,0,185202:0:0:0:0:
64,192,185123,128,0,185202:0:0:0:0:
320,192,185202,128,0,185280:0:0:0:0:
448,192,185241,128,0,185438:0:0:0:0:
64,192,185241,128,0,185321:0:0:0:0:
320,192,185321,128,0,185359:0:0:0:0:
64,192,185359,128,0,185713:0:0:0:0:
320,192,185438,128,0,185517:0:0:0:0:
448,192,185477,128,0,185556:0:0:0:0:
192,192,185477,128,0,185596:0:0:0:0:
320,192,185556,128,0,185635:0:0:0:0:
448,192,185596,128,0,185674:0:0:0:0:
192,192,185674,128,0,186106:0:0:0:0:
320,192,185674,128,0,185792:0:0:0:0:
448,192,185713,128,0,185831:0:0:0:0:
64,192,185753,128,0,185831:0:0:0:0:
320,192,185831,128,0,185910:0:0:0:0:
448,192,185871,128,0,185949:0:0:0:0:
64,192,185871,128,0,185949:0:0:0:0:
320,192,185949,128,0,186028:0:0:0:0:
448,192,185988,128,0,186106:0:0:0:0:
64,192,185988,128,0,186106:0:0:0:0:
320,192,186067,128,0,186422:0:0:0:0:
448,192,186146,128,0,186224:0:0:0:0:
192,192,186146,128,0,186224:0:0:0:0:
64,192,186185,128,0,186264:0:0:0:0:
192,192,186264,128,0,186342:0:0:0:0:
448,192,186303,128,0,186578:0:0:0:0:
64,192,186342,128,0,186422:0:0:0:0:
192,192,186381,128,0,186460:0:0:0:0:
64,192,186460,128,0,186539:0:0:0:0:
192,192,186500,128,0,186618:0:0:0:0:
320,192,186539,128,0,186735:0:0:0:0:
64,192,186578,128,0,186657:0:0:0:0:
448,192,186618,128,0,186697:0:0:0:0:
192,192,186735,128,0,187011:0:0:0:0:
448,192,186735,128,0,186814:0:0:0:0:
64,192,186775,128,0,186853:0:0:0:0:
320,192,186814,128,0,186893:0:0:0:0:
448,192,186853,128,0,186972:0:0:0:0:
64,192,186893,128,0,186972:0:0:0:0:
320,192,186972,128,0,187168:0:0:0:0:
448,192,187011,128,0,187089:0:0:0:0:
64,192,187050,128,0,187129:0:0:0:0:
192,192,187089,128,0,187207:0:0:0:0:
448,192,187129,128,0,187247:0:0:0:0:
64,192,187168,128,0,187482:0:0:0:0:
320,192,187207,128,0,187286:0:0:0:0:
192,192,187247,128,0,187325:0:0:0:0:
448,192,187286,128,0,187443:0:0:0:0:
320,192,187365,128,0,187482:0:0:0:0:
192,192,187404,128,0,187482:0:0:0:0:
448,192,187477,128,0,187568:0:0:0:0:
320,192,187522,128,0,187614:0:0:0:0:
192,192,187568,128,0,187660:0:0:0:0:
64,192,187568,128,0,187660:0:0:0:0:
448,192,187614,128,0,187706:0:0:0:0:
320,192,187660,128,0,187752:0:0:0:0:
192,192,187706,128,0,187798:0:0:0:0:
64,192,187706,128,0,187798:0:0:0:0:
320,192,187798,128,0,187889:0:0:0:0:
448,192,187798,128,0,187889:0:0:0:0:
192,192,187844,128,0,187935:0:0:0:0:
64,192,187844,128,0,187935:0:0:0:0:
320,192,187935,128,0,188027:0:0:0:0:
448,192,187935,128,0,188027:0:0:0:0:
192,192,187981,128,0,188073:0:0:0:0:
64,192,187981,128,0,188073:0:0:0:0:
320,192,188073,128,0,188165:0:0:0:0:
448,192,188073,128,0,188165:0:0:0:0:
192,192,188119,128,0,188256:0:0:0:0:
64,192,188119,128,0,188256:0:0:0:0:
320,192,188394,128,0,188922:0:0:0:0:
448,192,188394,128,0,188922:0:0:0:0:
192,192,188922,128,0,189266:0:0:0:0:
64,192,188922,128,0,189266:0:0:0:0:
192,192,189357,128,0,189388:0:0:0:0:
64,192,189357,1,0,0:0:0:0:
448,192,189418,1,0,0:0:0:0:
320,192,189449,128,0,189480:0:0:0:0:
64,192,189449,1,0,0:0:0:0:
192,192,189510,128,0,189541:0:0:0:0:
448,192,189541,1,0,0:0:0:0:
320,192,189571,1,0,0:0:0:0:
64,192,189571,1,0,0:0:0:0:
192,192,189602,128,0,189633:0:0:0:0:
448,192,189633,128,0,189663:0:0:0:0:
320,192,189694,1,0,0:0:0:0:
64,192,189694,1,0,0:0:0:0:
192,192,189755,128,0,189785:0:0:0:0:
448,192,189785,128,0,189816:0:0:0:0:
64,192,189816,1,0,0:0:0:0:
320,192,189847,1,0,0:0:0:0:
192,192,189877,128,0,189908:0:0:0:0:
320,192,189938,128,0,189969:0:0:0:0:
64,192,189969,1,0,0:0:0:0:
448,192,189999,1,0,0:0:0:0:
192,192,190030,128,0,190061:0:0:0:0:
64,192,190091,1,0,0:0:0:0:
320,192,190091,128,0,190122:0:0:0:0:
448,192,190152,1,0,0:0:0:0:
192,192,190183,128,0,190214:0:0:0:0:
64,192,190244,1,0,0:0:0:0:
320,192,190244,128,0,190275:0:0:0:0:
448,192,190305,1,0,0:0:0:0:
192,192,190336,1,0,0:0:0:0:
64,192,190366,128,0,190397:0:0:0:0:
320,192,190397,1,0,0:0:0:0:
448,192,190428,128,0,190458:0:0:0:0:
192,192,190458,1,0,0:0:0:0:
64,192,190489,1,0,0:0:0:0:
192,192,190519,128,0,190550:0:0:0:0:
320,192,190581,1,0,0:0:0:0:
448,192,190611,128,0,190642:0:0:0:0:
320,192,190672,1,0,0:0:0:0:
64,192,190703,128,0,190733:0:0:0:0:
192,192,190733,1,0,0:0:0:0:
448,192,190764,128,0,190795:0:0:0:0:
320,192,190795,1,0,0:0:0:0:
192,192,190825,128,0,190856:0:0:0:0:
320,192,190886,1,0,0:0:0:0:
64,192,190917,1,0,0:0:0:0:
448,192,190948,128,0,190978:0:0:0:0:
192,192,191009,1,0,0:0:0:0:
320,192,191039,128,0,191070:0:0:0:0:
192,192,191131,1,0,0:0:0:0:
64,192,191192,128,0,191223:0:0:0:0:
192,192,191253,1,0,0:0:0:0:
320,192,191314,128,0,191345:0:0:0:0:
448,192,191406,1,0,0:0:0:0:
192,192,191437,1,0,0:0:0:0:
320,192,191467,128,0,191498:0:0:0:0:
192,192,191559,1,0,0:0:0:0:
64,192,191620,1,0,0:0:0:0:
448,192,191681,128,0,192048:0:0:0:0:
320,192,191681,1,0,0:0:0:0:
192,192,191773,1,0,0:0:0:0:
64,192,191865,1,0,0:0:0:0:
192,192,191957,1,0,0:0:0:0:
64,192,192048,128,0,192446:0:0:0:0:
320,192,192048,1,0,0:0:0:0:
448,192,192140,1,0,0:0:0:0:
320,192,192232,1,0,0:0:0:0:
192,192,192324,1,0,0:0:0:0:
320,192,192446,128,0,192844:0:0:0:0:
192,192,192446,1,0,0:0:0:0:
448,192,192568,1,0,0:0:0:0:
192,192,192691,1,0,0:0:0:0:
64,192,192782,1,0,0:0:0:0:
64,192,192844,128,0,193149:0:0:0:0:
448,192,192844,128,0,193180:0:0:0:0:
320,192,192905,1,0,0:0:0:0:
192,192,192996,1,0,0:0:0:0:
320,192,193058,1,0,0:0:0:0:
192,192,193149,1,0,0:0:0:0:
320,192,193241,128,0,193669:0:0:0:0:
192,192,193302,128,0,193440:0:0:0:0:
64,192,193394,128,0,193532:0:0:0:0:
192,192,193486,128,0,193577:0:0:0:0:
448,192,193532,128,0,193669:0:0:0:0:
192,192,193623,128,0,193715:0:0:0:0:
64,192,193669,128,0,193853:0:0:0:0:
320,192,193715,128,0,193899:0:0:0:0:
192,192,193761,128,0,194189:0:0:0:0:
448,192,193807,128,0,193944:0:0:0:0:
64,192,193899,128,0,194036:0:0:0:0:
320,192,193944,128,0,194082:0:0:0:0:
448,192,193990,128,0,194128:0:0:0:0:
64,192,194082,128,0,194220:0:0:0:0:
320,192,194128,128,0,194266:0:0:0:0:
448,192,194189,128,0,194678:0:0:0:0:
192,192,194220,128,0,194357:0:0:0:0:
64,192,194266,128,0,194449:0:0:0:0:
320,192,194311,128,0,194495:0:0:0:0:
192,192,194403,128,0,194587:0:0:0:0:
64,192,194495,128,0,194587:0:0:0:0:
320,192,194541,128,0,194724:0:0:0:0:
64,192,194617,128,0,195198:0:0:0:0:
192,192,194633,128,0,194816:0:0:0:0:
448,192,194724,128,0,194908:0:0:0:0:
320,192,194770,128,0,194954:0:0:0:0:
192,192,194862,128,0,195045:0:0:0:0:
320,192,194999,128,0,195091:0:0:0:0:
448,192,195045,128,0,195412:0:0:0:0:
192,192,195091,128,0,195321:0:0:0:0:
320,192,195168,128,0,195565:0:0:0:0:
192,192,195474,128,0,195840:0:0:0:0:
448,192,195810,128,0,196238:0:0:0:0:
320,192,195932,128,0,196483:0:0:0:0:
192,192,196009,128,0,196100:0:0:0:0:
192,192,196146,128,0,196330:0:0:0:0:
64,192,196207,128,0,196788:0:0:0:0:
448,192,196284,128,0,196422:0:0:0:0:
192,192,196376,128,0,196880:0:0:0:0:
448,192,196605,128,0,197155:0:0:0:0:
320,192,196605,128,0,197155:0:0:0:0:
64,192,197003,128,0,197400:0:0:0:0:
192,192,197003,128,0,197400:0:0:0:0:
448,192,197492,128,0,197737:0:0:0:0:
320,192,197568,128,0,197706:0:0:0:0:
192,192,197614,128,0,197844:0:0:0:0:
320,192,197737,128,0,198103:0:0:0:0:
64,192,197752,128,0,197935:0:0:0:0:
448,192,197798,128,0,198027:0:0:0:0:
192,192,197889,128,0,198318:0:0:0:0:
64,192,198012,128,0,198134:0:0:0:0:
320,192,198165,128,0,198226:0:0:0:0:
64,192,198256,128,0,198348:0:0:0:0:
320,192,198348,128,0,198501:0:0:0:0:
448,192,198348,128,0,198532:0:0:0:0:
192,192,198562,128,0,198623:0:0:0:0:
448,192,198623,128,0,198929:0:0:0:0:
192,192,198685,128,0,198746:0:0:0:0:
64,192,198868,128,0,198990:0:0:0:0:
320,192,198990,128,0,199082:0:0:0:0:
64,192,199051,128,0,199296:0:0:0:0:
448,192,199113,128,0,199174:0:0:0:0:
320,192,199204,128,0,199785:0:0:0:0:
64,192,199418,128,0,199724:0:0:0:0:
192,192,199449,128,0,199724:0:0:0:0:
448,192,199633,128,0,199862:0:0:0:0:
64,192,199816,128,0,200045:0:0:0:0:
448,192,199908,128,0,200275:0:0:0:0:
192,192,199908,128,0,200122:0:0:0:0:
320,192,199954,128,0,200275:0:0:0:0:
64,192,200091,128,0,200504:0:0:0:0:
192,192,200183,128,0,200366:0:0:0:0:
448,192,200321,128,0,200504:0:0:0:0:
320,192,200397,128,0,200795:0:0:0:0:
192,192,200412,128,0,200596:0:0:0:0:
448,192,200550,128,0,200779:0:0:0:0:
64,192,200550,128,0,200688:0:0:0:0:
192,192,200642,128,0,200733:0:0:0:0:
64,192,200764,128,0,200978:0:0:0:0:
192,192,200764,128,0,200886:0:0:0:0:
320,192,200825,128,0,201055:0:0:0:0:
448,192,200917,128,0,201146:0:0:0:0:
192,192,200963,128,0,201651:0:0:0:0:
64,192,201009,128,0,201192:0:0:0:0:
320,192,201100,128,0,201330:0:0:0:0:
448,192,201192,128,0,201376:0:0:0:0:
64,192,201238,128,0,201697:0:0:0:0:
320,192,201376,128,0,201605:0:0:0:0:
448,192,201498,128,0,204892:0:0:0:0:
320,192,202415,128,0,204159:0:0:0:0:
64,192,203180,128,0,204525:0:0:0:0:
192,192,203883,128,0,204159:0:0:0:0:
320,192,204220,128,0,205657:0:0:0:0:
192,192,204220,128,0,204892:0:0:0:0:
64,192,204587,128,0,206207:0:0:0:0:
192,192,204954,128,0,205932:0:0:0:0:
448,192,204954,128,0,206941:0:0:0:0:
320,192,205718,128,0,206513:0:0:0:0:
192,192,205993,128,0,206513:0:0:0:0:
64,192,206269,128,0,208226:0:0:0:0:
192,192,206574,128,0,207859:0:0:0:0:
320,192,206574,128,0,207400:0:0:0:0:
448,192,207003,128,0,209510:0:0:0:0:
320,192,207461,128,0,209266:0:0:0:0:
192,192,207920,128,0,208715:0:0:0:0:
64,192,208287,128,0,209051:0:0:0:0:
192,192,208776,128,0,209051:0:0:0:0:
64,192,209113,128,0,209816:0:0:0:0:
192,192,209113,128,0,209755:0:0:0:0:
320,192,209327,128,0,210336:0:0:0:0:
448,192,209571,128,0,210489:0:0:0:0:
192,192,209816,128,0,210275:0:0:0:0:
64,192,209877,128,0,210917:0:0:0:0:
192,192,210336,128,0,210886:0:0:0:0:
320,192,210397,128,0,210733:0:0:0:0:
448,192,210550,128,0,211498:0:0:0:0:
320,192,210795,128,0,211100:0:0:0:0:
192,192,210948,128,0,211834:0:0:0:0:
64,192,210978,128,0,211223:0:0:0:0:
320,192,211162,128,0,211681:0:0:0:0:
64,192,211284,128,0,211834:0:0:0:0:
448,192,211559,128,0,212293:0:0:0:0:
320,192,211743,128,0,213088:0:0:0:0:
64,192,211896,128,0,218012:0:0:0:0:
192,192,211896,128,0,217278:0:0:0:0:
448,192,212354,128,0,213822:0:0:0:0:
320,192,213149,128,0,214709:0:0:0:0:
448,192,213883,128,0,216360:0:0:0:0:
320,192,214770,128,0,215565:0:0:0:0:
320,192,215626,128,0,220458:0:0:0:0:
448,192,216422,128,0,219633:0:0:0:0:
192,192,217339,128,0,218776:0:0:0:0:
64,192,218073,128,0,222079:0:0:0:0:
192,192,218837,128,0,221253:0:0:0:0:
448,192,219694,128,0,227064:0:0:0:0:
320,192,220519,128,0,223761:0:0:0:0:
192,192,221314,128,0,222324:0:0:0:0:
64,192,222140,128,0,224556:0:0:0:0:
192,192,222385,128,0,222966:0:0:0:0:
192,192,223027,128,0,225351:0:0:0:0:
320,192,223822,128,0,226207:0:0:0:0:
64,192,224617,128,0,229449:0:0:0:0:
192,192,225412,128,0,228562:0:0:0:0:
320,192,226269,128,0,227859:0:0:0:0:
448,192,227125,128,0,231192:0:0:0:0:
320,192,227920,128,0,230764:0:0:0:0:
192,192,228623,128,0,230305:0:0:0:0:
64,192,229510,128,0,232568:0:0:0:0:
192,192,230366,128,0,232140:0:0:0:0:
320,192,230825,128,0,231620:0:0:0:0:
