osu file format v14

[General]
AudioFilename: audio.mp3
AudioLeadIn: 0
PreviewTime: 90017
Countdown: 0
SampleSet: Soft
StackLeniency: 0.7
Mode: 0
LetterboxInBreaks: 0
WidescreenStoryboard: 1

[Editor]
Bookmarks: 12144,18102,24059,30017,35974,38953,44910,50868,56825,62783,76400,90017,103634,110442,117251,130868,133847,139804,145761,151719,157676,171293,184804
DistanceSpacing: 1.7
BeatDivisor: 4
GridSize: 8
TimelineZoom: 2.199999

[Metadata]
Title:Shelf Life
TitleUnicode:Shelf Life
Artist:Dance Gavin Dance
ArtistUnicode:Dance Gavin Dance
Creator:Dilectus
Version:Xenon's Hard
Source:
Tags:Xenon- Jian Artificial Selection
BeatmapID:1800762
BeatmapSetID:833958

[Difficulty]
HPDrainRate:5
CircleSize:3.5
OverallDifficulty:6
ApproachRate:7
SliderMultiplier:1.5
SliderTickRate:1

[Events]
//Background and Video events
0,0,"bg.jpg",0,0
//Break Periods
2,36174,38053
2,131067,132946
//Storyboard Layer 0 (Background)
//Storyboard Layer 1 (Fail)
//Storyboard Layer 2 (Pass)
//Storyboard Layer 3 (Foreground)
//Storyboard Sound Samples

[TimingPoints]
230,425.531914893617,7,2,1,60,1,0
12144,-125,7,2,1,60,0,0
18102,-125,7,2,1,70,0,0
24059,-125,7,2,1,60,0,0
30017,-125,7,2,1,70,0,0
35974,-125,7,2,1,30,0,0
38953,-125,7,2,1,60,0,0
44910,-125,7,2,1,70,0,0
50868,-125,7,2,1,60,0,0
56825,-125,7,2,1,70,0,0
62783,425.531914893617,4,2,1,70,1,0
62783,-111.111111111111,7,2,1,70,0,0
76400,-100,4,2,1,80,0,1
90017,-166.666666666667,4,2,1,60,0,0
99591,-142.857142857143,4,2,1,60,0,0
103634,-142.857142857143,4,2,1,60,0,0
109165,-142.857142857143,4,2,1,60,0,0
130868,425.531914893617,7,2,1,60,1,0
133846,-125,7,2,1,60,0,0
139804,-125,7,2,1,70,0,0
145761,-125,7,2,1,60,0,0
151719,-125,7,2,1,70,0,0
157676,425.531914893617,4,2,1,70,1,0
157676,-111.111111111111,7,2,1,70,0,0
171293,-100,4,2,1,80,0,1
184803,-125,4,2,1,80,0,0

[Colours]
Combo1 : 232,166,121
Combo2 : 99,228,102
Combo3 : 147,214,236
Combo4 : 222,215,63

[HitObjects]
212,349,12144,6,0,L|215:317,1,30,2|2,0:3|0:3,0:0:0:0:
202,278,12357,1,8,0:3:0:0:
268,226,12570,2,0,P|270:190|277:146,1,60,4|2,0:3|0:0,0:0:0:0:
353,127,12995,2,0,P|357:156|358:186,1,60,8|0,0:0|0:0,0:0:0:0:
407,255,13421,2,0,L|438:251,2,30,2|2|8,0:3|0:3|0:3,0:0:0:0:
357,323,13847,5,4,0:3:0:0:
273,313,14059,1,2,0:0:0:0:
239,235,14272,2,0,P|209:236|179:240,1,60,8|0,0:0|0:0,0:0:0:0:
132,310,14698,2,0,L|135:341,2,30,2|2|8,0:3|0:3|0:3,0:0:0:0:
96,233,15123,1,2,0:3:0:0:
96,233,15230,1,2,0:3:0:0:
96,233,15336,1,0,0:0:0:0:
146,165,15549,6,0,L|149:133,2,30,8|2|2,0:3|0:3|0:0,0:0:0:0:
179,240,15974,2,0,P|208:235|238:234,1,60,8|0,0:0|0:0,0:0:0:0:
318,261,16400,2,0,L|321:229,1,30,2|2,0:3|0:3,0:0:0:0:
308,190,16612,2,0,P|303:160|302:130,1,60,8|4,0:3|0:3,0:0:0:0:
362,71,17038,1,2,0:0:0:0:
421,130,17251,6,0,P|420:160|416:190,1,60,8|0,0:0|0:0,0:0:0:0:
367,257,17676,2,0,L|369:286,2,30,2|2|8,0:3|0:3|0:3,0:0:0:0:
308,190,18102,2,0,L|228:180,1,60,6|2,0:0|0:0,0:0:0:0:
204,111,18527,2,0,L|144:118,1,60,2|0,1:2|0:0,0:0:0:0:
83,59,18953,5,8,1:2:0:0:
62,140,19166,1,0,0:0:0:0:
123,198,19378,1,2,1:2:0:0:
102,279,19591,2,0,B|134:304|134:304|229:292,1,120,2|0,0:0|0:0,0:0:0:0:
258,222,20230,2,0,L|318:215,1,60,0|0,0:0|0:0,0:0:0:0:
389,258,20655,5,8,0:0:0:0:
389,174,20868,2,0,L|392:144,2,30,8|8|6,0:0|0:0|0:0,0:0:0:0:
317,215,21293,1,2,0:0:0:0:
317,131,21506,2,0,L|310:71,1,60,2|0,1:2|0:0,0:0:0:0:
250,11,21932,1,8,1:2:0:0:
167,32,22144,1,0,0:0:0:0:
144,118,22357,5,2,1:2:0:0:
204,179,22570,2,0,B|214:208|204:237|204:237|193:266|204:295,1,120,2|0,0:0|0:0,0:0:0:0:
267,351,23208,2,0,L|327:344,1,60,0|0,1:2|0:0,0:0:0:0:
386,284,23634,2,0,L|389:252,3,30,8|8|8|8,0:0|0:0|0:0|0:0,0:0:0:0:
376,213,24059,6,0,L|379:181,3,30,2|2|8|8,0:3|0:3|0:3|0:3,0:0:0:0:
366,142,24485,2,0,L|334:145,1,30,4|8,0:3|0:3,0:0:0:0:
295,132,24698,1,2,0:0:0:0:
253,204,24910,2,0,P|223:209|193:210,1,60,8|0,0:0|0:0,0:0:0:0:
135,148,25336,2,0,L|105:150,2,30,2|2|8,0:3|0:3|0:3,0:0:0:0:
193,85,25761,6,0,P|222:86|252:91,1,60,4|2,0:3|0:0,0:0:0:0:
312,151,26187,2,0,P|341:149|371:144,1,60,8|0,0:0|0:0,0:0:0:0:
425,80,26612,2,0,L|428:48,2,30,2|2|8,0:3|0:3|0:3,0:0:0:0:
459,157,27038,2,0,L|491:160,2,30,2|2|8,0:3|0:3|0:3,0:0:0:0:
377,150,27464,5,4,0:3:0:0:
377,150,27570,1,8,0:3:0:0:
377,150,27676,1,2,0:0:0:0:
341,225,27889,2,0,P|311:229|281:231,1,60,8|0,0:0|0:0,0:0:0:0:
209,187,28315,2,0,L|179:190,3,30,2|2|8|0,0:3|0:3|0:3|0:0,0:0:0:0:
148,162,28740,2,0,P|152:132|154:102,1,60,4|2,0:3|0:0,0:0:0:0:
101,34,29166,6,0,P|161:17|217:46,1,120,8|2,0:0|0:3,0:0:0:0:
211,39,29698,1,2,0:3:0:0:
211,39,29804,1,8,0:3:0:0:
241,131,30017,2,0,L|321:141,1,60,6|2,0:0|0:0,0:0:0:0:
345,210,30442,2,0,L|405:203,1,60,2|0,1:2|0:0,0:0:0:0:
466,262,30868,5,8,1:2:0:0:
487,181,31081,1,0,0:0:0:0:
426,123,31293,1,2,1:2:0:0:
447,42,31506,2,0,B|415:17|415:17|320:29,1,120,2|0,0:0|0:0,0:0:0:0:
280,90,32144,2,0,L|220:97,1,60,0|0,1:2|0:0,0:0:0:0:
149,54,32570,5,8,0:0:0:0:
149,138,32783,2,0,L|146:168,2,30,8|8|6,0:0|0:0|0:0,0:0:0:0:
74,98,33208,1,0,0:0:0:0:
63,181,33421,2,0,L|56:241,1,60,2|0,1:2|0:0,0:0:0:0:
72,323,33847,1,8,1:2:0:0:
150,350,34059,1,2,0:0:0:0:
212,295,34272,5,2,1:2:0:0:
196,213,34485,2,0,B|186:184|196:155|196:155|207:126|196:97,1,120,2|0,0:0|0:0,0:0:0:0:
142,30,35123,2,0,L|82:37,1,60,0|0,1:0|0:0,0:0:0:0:
23,97,35549,2,0,L|20:129,3,30,8|8|8|8,0:0|0:0|0:0|0:0,0:0:0:0:
34,166,35974,5,0,0:0:0:0:
245,87,38953,6,0,L|241:118,3,30,2|2|8|8,0:3|0:3|0:3|0:3,0:0:0:0:
211,145,39378,2,0,L|179:148,1,30,4|8,0:3|0:3,0:0:0:0:
153,179,39591,1,2,0:0:0:0:
222,226,39804,2,0,P|227:255|228:285,1,60,8|0,0:0|0:0,0:0:0:0:
279,355,40230,2,0,L|281:384,2,30,2|2|8,0:3|0:3|0:3,0:0:0:0:
318,279,40655,2,0,P|347:274|377:273,1,60,4|2,0:3|0:0,0:0:0:0:
443,326,41081,5,8,0:0:0:0:
455,242,41293,1,0,0:0:0:0:
388,189,41506,1,2,0:3:0:0:
388,189,41612,1,2,0:3:0:0:
388,189,41719,1,8,0:3:0:0:
400,105,41932,2,0,L|397:73,3,30,2|2|8|8,0:3|0:3|0:3|0:3,0:0:0:0:
371,42,42357,2,0,L|339:45,1,30,4|8,0:3|0:3,0:0:0:0:
306,20,42570,1,2,0:0:0:0:
271,96,42783,6,0,P|211:113|155:84,1,120,8|2,0:0|0:3,0:0:0:0:
157,87,43315,1,2,0:3:0:0:
154,83,43421,1,8,0:3:0:0:
82,48,43634,1,4,0:3:0:0:
15,92,43847,1,2,0:0:0:0:
21,172,44059,2,0,P|26:201|27:231,1,60,8|0,0:0|0:0,0:0:0:0:
90,286,44485,6,0,L|88:315,2,30,2|2|8,0:3|0:3|0:3,0:0:0:0:
147,224,44910,1,6,0:0:0:0:
230,234,45123,1,2,0:0:0:0:
287,172,45336,2,0,L|294:109,1,60,2|0,1:2|0:0,0:0:0:0:
354,53,45761,2,0,L|417:60,1,60,8|0,1:2|0:0,0:0:0:0:
497,69,46187,5,2,1:2:0:0:
449,138,46400,2,0,B|454:186|454:186|466:204|466:204|472:252,1,120,2|0,0:0|0:0,0:0:0:0:
398,295,47038,2,0,L|390:235,1,60,0|0,1:2|0:0,0:0:0:0:
331,175,47464,1,8,0:0:0:0:
271,235,47676,2,0,L|239:238,1,30,8|0,0:0|0:0,0:0:0:0:
200,225,47889,6,0,L|140:233,1,60,6|0,0:0|0:0,0:0:0:0:
107,310,48315,2,0,L|47:318,1,60,2|0,1:2|0:0,0:0:0:0:
0,249,48740,1,0,0:0:0:0:
33,172,48953,2,0,L|93:164,1,60,2|2,0:0|1:2,0:0:0:0:
140,232,49378,6,0,B|188:237|188:237|206:249|206:249|254:255,1,120,2|0,0:0|0:0,0:0:0:0:
321,202,50017,2,0,L|381:210,1,60,0|0,1:2|0:0,0:0:0:0:
453,167,50442,2,0,L|456:135,3,30,8|8|8|8,0:0|0:0|0:0|0:0,0:0:0:0:
443,96,50868,2,0,L|446:64,3,30,2|2|8|8,0:3|0:3|0:3|0:3,0:0:0:0:
433,25,51293,6,0,L|401:28,1,30,4|8,0:3|0:3,0:0:0:0:
370,55,51506,1,2,0:0:0:0:
295,19,51719,2,0,P|266:14|236:13,1,60,8|0,0:0|0:0,0:0:0:0:
219,101,52144,2,0,L|222:133,2,30,2|2|8,0:3|0:3|0:3,0:0:0:0:
145,51,52570,2,0,P|116:56|86:57,1,60,4|2,0:3|0:0,0:0:0:0:
20,4,52995,5,8,0:0:0:0:
8,88,53208,1,0,0:0:0:0:
81,147,53421,1,2,0:3:0:0:
81,147,53527,1,2,0:3:0:0:
81,147,53634,1,8,0:3:0:0:
65,227,53847,2,0,L|68:259,3,30,2|2|8|0,0:3|0:3|0:3|0:0,0:0:0:0:
94,290,54272,2,0,L|126:287,1,30,4|0,0:3|0:0,0:0:0:0:
159,312,54485,1,0,0:0:0:0:
241,269,54698,6,0,P|301:252|357:281,1,120,8|2,0:0|0:3,0:0:0:0:
355,278,55230,1,2,0:3:0:0:
358,282,55336,1,8,0:3:0:0:
430,317,55549,1,0,0:0:0:0:
497,273,55761,1,2,0:0:0:0:
491,193,55974,2,0,P|486:164|485:134,1,60,0|0,0:0|0:0,0:0:0:0:
422,79,56400,6,0,L|424:50,2,30,2|2|8,0:3|0:3|0:3,0:0:0:0:
365,141,56825,1,6,0:0:0:0:
282,131,57038,1,2,0:0:0:0:
225,193,57251,2,0,L|218:256,1,60,2|0,1:2|0:0,0:0:0:0:
158,312,57676,2,0,L|95:305,1,60,8|0,1:2|0:0,0:0:0:0:
15,296,58102,5,2,1:2:0:0:
63,227,58315,2,0,B|58:179|58:179|46:161|46:161|40:113,1,120,2|0,0:0|0:0,0:0:0:0:
114,70,58953,2,0,L|122:130,1,60,0|0,1:2|0:0,0:0:0:0:
181,190,59378,1,8,0:0:0:0:
241,130,59591,2,0,L|273:127,1,30,8|0,0:0|0:0,0:0:0:0:
312,140,59804,6,0,L|372:132,1,60,6|2,0:0|0:0,0:0:0:0:
405,55,60230,2,0,L|465:47,1,60,2|0,1:2|0:0,0:0:0:0:
512,116,60655,1,8,1:2:0:0:
479,193,60868,2,0,L|419:201,1,60,0|2,0:0|1:2,0:0:0:0:
372,133,61293,6,0,B|324:128|324:128|306:116|306:116|258:110,1,120,2|0,0:0|0:0,0:0:0:0:
191,163,61932,2,0,L|131:155,1,60,0|0,1:2|0:0,0:0:0:0:
59,198,62357,2,0,L|56:230,3,30,8|8|8|0,0:0|0:0|0:0|0:0,0:0:0:0:
69,269,62783,6,0,L|103:272,3,33.7499989700318,12|2|2|8,0:0|0:0|0:0|0:0,0:0:0:0:
214,202,63421,2,0,P|268:202|306:172,1,101.249996910095,8|8,0:0|0:0,0:0:0:0:
331,144,63846,1,0,0:0:0:0:
402,192,64059,2,0,B|389:295|389:295|409:265,1,134.999995880127,8|0,0:0|0:0,0:0:0:0:
488,225,64697,5,8,0:0:0:0:
470,139,64910,1,2,0:0:0:0:
409,199,65123,1,0,0:0:0:0:
409,199,65229,1,0,0:0:0:0:
409,199,65336,2,0,P|363:207|322:195,1,67.4999979400635,8|8,0:0|0:0,0:0:0:0:
297,129,65761,2,0,L|302:81,2,33.7499989700318,8|8|2,0:0|0:0|0:0,0:0:0:0:
254,205,66187,5,8,0:0:0:0:
245,214,66293,1,2,0:0:0:0:
235,205,66400,1,2,0:0:0:0:
245,195,66506,2,0,P|199:187|158:199,1,67.4999979400635,8|0,0:0|0:0,0:0:0:0:
155,223,66825,2,0,P|101:229|60:204,1,101.249996910095,8|8,0:0|0:0,0:0:0:0:
31,180,67251,1,0,0:0:0:0:
91,119,67463,2,0,B|93:67|78:15|78:15|93:36|105:44,1,134.999995880127,8|0,0:0|0:0,0:0:0:0:
178,74,68102,5,8,0:0:0:0:
257,38,68314,1,2,0:0:0:0:
342,80,68527,1,0,0:0:0:0:
342,80,68634,1,0,0:0:0:0:
342,80,68740,2,0,P|350:126|338:167,1,67.4999979400635,8|8,0:0|0:0,0:0:0:0:
278,202,69165,2,0,L|230:196,2,33.7499989700318,8|8|2,0:0|0:0|0:0,0:0:0:0:
362,225,69591,5,8,0:0:0:0:
371,234,69697,1,2,0:0:0:0:
362,244,69804,1,2,0:0:0:0:
352,234,69910,2,0,P|344:280|356:321,1,67.4999979400635,8|0,0:0|0:0,0:0:0:0:
382,328,70229,2,0,P|328:318|286:341,1,101.249996910095,8|8,0:0|0:0,0:0:0:0:
256,364,70655,1,0,0:0:0:0:
188,310,70868,2,0,B|84:322|84:322|114:302,1,134.999995880127,8|0,0:0|0:0,0:0:0:0:
155,230,71506,5,8,0:0:0:0:
241,242,71719,1,2,0:0:0:0:
194,316,71931,1,0,0:0:0:0:
194,316,72038,1,0,0:0:0:0:
194,316,72144,2,0,P|239:327|281:319,1,67.4999979400635,8|8,0:0|0:0,0:0:0:0:
328,271,72570,2,0,L|375:265,2,33.7499989700318,8|8|2,0:0|0:0|0:0,0:0:0:0:
258,217,72995,5,8,0:0:0:0:
249,208,73102,1,2,0:0:0:0:
258,198,73208,1,2,0:0:0:0:
268,208,73314,2,0,P|276:162|264:121,1,67.4999979400635,8|0,0:0|0:0,0:0:0:0:
309,123,73634,2,0,P|255:123|217:93,1,101.249996910095,8|8,0:0|0:0,0:0:0:0:
192,65,74059,1,0,0:0:0:0:
122,13,74272,2,0,B|70:15|18:0|18:0|39:15|41:20,1,134.999995880127,8|0,0:0|0:0,0:0:0:0:
77,100,74910,5,8,0:0:0:0:
41,179,75123,1,2,0:0:0:0:
83,264,75336,1,0,0:0:0:0:
83,264,75442,1,0,0:0:0:0:
83,264,75548,2,0,P|115:271|149:268,1,67.4999979400635,8|8,0:0|0:0,0:0:0:0:
229,230,75974,2,0,L|232:190,1,33.7499989700318,8|8,0:0|0:0,0:0:0:0:
269,182,76187,1,2,0:0:0:0:
253,95,76400,5,6,0:0:0:0:
253,95,76506,1,2,0:0:0:0:
253,95,76612,2,0,L|165:105,1,75,2|4,0:0|0:0,0:0:0:0:
91,87,77038,2,0,P|89:107|92:127,1,37.5,2|2,0:0|0:0,0:0:0:0:
114,163,77251,2,0,P|116:181|114:200,1,37.5,12|0,0:0|0:0,0:0:0:0:
91,238,77463,1,2,0:0:0:0:
174,273,77676,2,0,L|178:312,3,37.5,6|0|2|2,0:0|0:0|0:0|0:0,0:0:0:0:
169,354,78102,1,4,0:0:0:0:
259,352,78314,1,2,0:0:0:0:
259,352,78421,1,2,0:0:0:0:
259,352,78527,6,0,P|298:336|350:346,1,75,6|0,0:0|0:0,0:0:0:0:
412,377,78953,1,12,0:0:0:0:
405,287,79165,1,2,0:0:0:0:
323,248,79378,2,0,L|327:210,3,37.5,6|2|2|2,0:0|0:0|0:0|0:0,0:0:0:0:
363,182,79804,2,0,L|358:144,3,37.5,6|2|2|2,0:0|0:0|0:0|0:0,0:0:0:0:
393,116,80229,5,4,0:0:0:0:
310,81,80442,1,2,0:0:0:0:
310,81,80548,1,2,0:0:0:0:
310,81,80655,2,0,P|291:78|272:80,1,37.5,12|2,0:0|0:0,0:0:0:0:
234,103,80868,1,2,0:0:0:0:
154,60,81080,2,0,L|149:22,3,37.5,6|0|2|0,0:0|0:0|0:0|0:0,0:0:0:0:
110,0,81506,1,4,0:0:0:0:
43,61,81719,1,2,0:0:0:0:
43,61,81825,1,0,0:0:0:0:
43,61,81931,6,0,P|27:100|37:152,1,75,6|0,0:0|0:0,0:0:0:0:
94,195,82357,1,12,0:0:0:0:
117,110,82570,1,2,0:0:0:0:
177,177,82783,2,0,L|214:172,3,37.5,6|2|2|2,0:0|0:0|0:0|0:0,0:0:0:0:
243,137,83208,2,0,L|280:141,3,37.5,6|0|0|0,0:0|0:0|0:0|0:0,0:0:0:0:
309,107,83634,5,4,0:0:0:0:
380,173,83846,1,2,0:0:0:0:
380,173,83953,1,2,0:0:0:0:
380,173,84059,2,0,P|382:191|380:210,1,37.5,12|2,0:0|0:0,0:0:0:0:
358,249,84272,1,0,0:0:0:0:
310,324,84485,2,0,L|314:361,3,37.5,6|0|2|0,0:0|0:0|0:0|0:0,0:0:0:0:
354,384,84910,1,4,0:0:0:0:
435,346,85123,1,2,0:0:0:0:
435,346,85229,1,2,0:0:0:0:
435,346,85336,6,0,P|450:306|440:254,1,75,6|0,0:0|0:0,0:0:0:0:
405,195,85761,1,12,0:0:0:0:
314,192,85974,1,2,0:0:0:0:
265,269,86187,2,0,L|227:264,3,37.5,6|2|2|2,0:0|0:0|0:0|0:0,0:0:0:0:
199,229,86612,2,0,L|161:233,3,37.5,6|2|2|2,0:0|0:0|0:0|0:0,0:0:0:0:
133,199,87038,5,4,0:0:0:0:
155,111,87251,2,0,P|175:109|195:112,1,37.5,2|2,0:0|0:0,0:0:0:0:
231,134,87463,2,0,P|249:136|268:134,1,37.5,12|0,0:0|0:0,0:0:0:0:
306,111,87676,1,0,0:0:0:0:
362,181,87889,2,0,L|357:220,3,37.5,6|0|2|0,0:0|0:0|0:0|0:0,0:0:0:0:
367,262,88314,1,4,0:0:0:0:
277,260,88527,1,2,0:0:0:0:
277,260,88634,1,0,0:0:0:0:
277,260,88740,6,0,P|237:244|185:254,1,75,6|0,0:0|0:0,0:0:0:0:
124,285,89165,1,12,0:0:0:0:
131,195,89378,1,2,0:0:0:0:
213,156,89591,2,0,L|208:118,3,37.5,6|2|2|2,0:0|0:0|0:0|0:0,0:0:0:0:
227,75,90017,1,6,0:0:0:0:
383,100,90442,6,0,P|426:168|381:251,1,179.999994506836,6|0,0:0|0:0,0:0:0:0:
343,175,91506,2,0,B|262:165|262:165|246:154|246:154|165:144|165:144|198:175,1,224.999993133545,6|0,0:0|0:0,0:0:0:0:
241,242,92783,6,0,L|304:249,2,44.999998626709,6|6|6,0:0|0:0|0:0,0:0:0:0:
186,302,93421,2,0,P|161:303|132:314,1,44.999998626709,6|0,0:0|0:0,0:0:0:0:
102,384,93846,6,0,P|59:316|104:233,1,179.999994506836,6|0,0:0|0:0,0:0:0:0:
175,205,94910,2,0,B|203:174|203:174|191:79,1,134.999995880127,6|0,0:0|0:0,0:0:0:0:
134,23,95761,6,0,P|173:1|221:7,1,89.9999972534181,6|6,0:0|0:0,0:0:0:0:
270,67,96400,2,0,P|294:68|324:59,1,44.999998626709,6|0,0:0|0:0,0:0:0:0:
371,6,96825,2,0,P|393:1|415:3,1,44.999998626709,6|0,0:0|0:0,0:0:0:0:
396,81,97251,6,0,B|387:150|387:150|400:187|400:187|392:256,1,179.999994506836,6|0,0:0|0:0,0:0:0:0:
334,315,98314,2,0,B|262:306|262:306|228:283|228:283|190:297|190:297|119:288,1,224.999993133545,6|0,0:0|0:0,0:0:0:0:
35,262,99591,5,6,0:0:0:0:
100,202,99804,1,6,0:0:0:0:
80,115,100017,2,0,P|82:83|88:43,1,52.4999983978272,6|6,0:0|0:0,0:0:0:0:
174,34,100442,1,2,0:3:0:0:
174,34,100548,1,2,0:3:0:0:
174,34,100655,6,0,P|177:60|178:86,1,52.4999983978272,2|8,0:3|0:3,0:0:0:0:
151,171,101080,2,0,P|147:197|146:223,1,52.4999983978272,4|8,0:3|0:3,0:0:0:0:
145,223,101400,1,8,0:3:0:0:
145,223,101506,1,4,0:3:0:0:
212,298,101719,2,0,B|237:306|262:298|262:298|288:288|313:298,1,104.999996795654,6|0,0:0|0:0,0:0:0:0:
387,246,102357,6,0,L|391:206,3,26.2499991989136,8|8|8|8,0:0|0:0|0:0|0:0,0:0:0:0:
371,179,102783,2,0,P|369:152|366:126,1,52.4999983978272,0|2,0:0|0:3,0:0:0:0:
280,101,103208,2,0,P|276:126|275:153,1,52.4999983978272,8|4,0:3|0:3,0:0:0:0:
300,239,103634,6,0,P|242:238|202:208,1,104.999996795654,6|0,0:0|0:0,0:0:0:0:
187,123,104272,1,2,0:0:0:0:
275,153,104485,2,0,P|329:149|381:143,1,104.999996795654,8|0,0:0|0:0,0:0:0:0:
457,99,105123,1,2,0:0:0:0:
456,188,105336,6,0,P|452:213|451:240,1,52.4999983978272,2|0,0:0|0:0,0:0:0:0:
371,281,105761,2,0,P|370:254|366:228,1,52.4999983978272,0|2,0:0|0:0,0:0:0:0:
351,140,106187,2,0,P|307:111|255:112,1,104.999996795654,8|0,0:0|0:0,0:0:0:0:
281,199,106825,1,2,0:0:0:0:
193,180,107038,6,0,B|167:171|142:180|142:180|116:190|91:180,1,104.999996795654,2|0,0:0|0:0,0:0:0:0:
21,122,107676,1,2,0:0:0:0:
4,209,107889,1,8,0:0:0:0:
73,266,108102,2,0,P|76:291|77:318,1,52.4999983978272,0|0,0:0|0:0,0:0:0:0:
158,356,108527,2,0,P|158:329|162:303,1,52.4999983978272,2|0,0:0|0:0,0:0:0:0:
253,315,108953,6,0,P|252:288|248:262,1,52.4999983978272,0|6,0:0|0:0,0:0:0:0:
170,218,109378,1,0,0:0:0:0:
248,173,109591,1,0,0:0:0:0:
170,128,109804,1,8,0:0:0:0:
170,128,109910,1,8,0:0:0:0:
170,128,110017,2,0,P|171:101|175:75,1,52.4999983978272,8|8,0:0|0:3,0:0:0:0:
225,3,110442,6,0,P|176:-13|126:0,1,104.999996795654,6|0,0:0|0:0,0:0:0:0:
92,85,111080,1,2,0:0:0:0:
170,128,111293,2,0,P|176:178|178:232,1,104.999996795654,8|0,0:0|0:0,0:0:0:0:
146,316,111931,1,2,0:0:0:0:
234,302,112144,6,0,P|261:303|287:307,1,52.4999983978272,2|0,0:0|0:0,0:0:0:0:
315,217,112570,2,0,P|289:220|262:221,1,52.4999983978272,0|2,0:0|0:0,0:0:0:0:
182,183,112995,2,0,P|165:133|179:83,1,104.999996795654,8|0,0:0|0:0,0:0:0:0:
262,48,113634,1,2,0:0:0:0:
306,127,113846,6,0,L|401:115,2,78.7499975967408,6|0|8,0:0|0:0|0:0,0:0:0:0:
251,249,114804,2,0,L|156:237,1,78.7499975967408,0|0,0:0|0:0,0:0:0:0:
112,173,115336,2,0,P|112:146|116:120,1,52.4999983978272,6|0,0:0|0:0,0:0:0:0:
187,67,115761,1,8,0:0:0:0:
187,67,115868,1,8,0:0:0:0:
187,67,115974,5,8,0:0:0:0:
258,120,116187,2,0,P|285:120|311:116,1,52.4999983978272,2|8,0:3|0:3,0:0:0:0:
378,59,116612,1,4,0:3:0:0:
393,146,116825,1,8,0:0:0:0:
223,201,117251,6,0,B|232:227|223:252|223:252|213:278|223:303,1,104.999996795654,6|0,0:0|0:0,0:0:0:0:
295,355,117889,1,2,0:0:0:0:
367,303,118102,1,8,0:0:0:0:
439,355,118314,2,0,P|456:305|442:255,1,104.999996795654,0|2,0:0|0:0,0:0:0:0:
376,196,118953,5,0,0:0:0:0:
461,167,119165,2,0,P|455:117|453:63,1,104.999996795654,0|2,0:0|0:0,0:0:0:0:
387,1,119804,1,0,0:0:0:0:
325,67,120017,2,0,P|273:68|221:75,1,104.999996795654,0|2,0:0|0:0,0:0:0:0:
168,147,120655,5,2,0:0:0:0:
220,218,120868,2,0,P|272:225|325:226,1,104.999996795654,0|2,0:0|0:0,0:0:0:0:
413,218,121506,1,8,0:0:0:0:
360,145,121719,2,0,P|360:118|364:92,1,52.4999983978272,0|0,0:0|0:0,0:0:0:0:
272,64,122144,2,0,P|275:89|275:116,1,52.4999983978272,2|6,0:0|0:0,0:0:0:0:
227,191,122570,5,8,0:0:0:0:
227,191,122676,1,8,0:0:0:0:
227,191,122783,1,8,0:0:0:0:
137,185,122995,1,2,0:3:0:0:
96,103,123208,2,0,P|96:76|100:50,1,52.4999983978272,8|4,0:3|0:3,0:0:0:0:
189,54,123634,2,0,P|192:79|192:106,1,52.4999983978272,8|2,0:0|0:0,0:0:0:0:
137,185,124059,6,0,B|146:211|137:236|137:236|127:262|137:287,1,104.999996795654,6|0,0:0|0:0,0:0:0:0:
209,339,124697,1,2,0:0:0:0:
281,287,124910,1,8,0:0:0:0:
353,339,125123,2,0,P|370:289|356:239,1,104.999996795654,0|2,0:0|0:0,0:0:0:0:
278,196,125761,5,0,0:0:0:0:
281,287,125974,2,0,P|231:281|177:279,1,104.999996795654,0|2,0:0|0:0,0:0:0:0:
115,213,126612,1,0,0:0:0:0:
181,151,126825,2,0,P|182:99|189:47,1,104.999996795654,0|2,0:0|0:0,0:0:0:0:
267,3,127463,5,2,0:0:0:0:
343,48,127676,2,0,P|350:99|351:152,1,104.999996795654,0|8,0:0|0:0,0:0:0:0:
342,240,128314,1,0,0:0:0:0:
269,187,128527,1,8,0:0:0:0:
269,187,128634,1,8,0:0:0:0:
269,187,128740,1,8,0:0:0:0:
208,252,128953,2,0,P|181:252|155:248,1,52.4999983978272,6|0,0:0|0:0,0:0:0:0:
78,204,129378,5,8,0:0:0:0:
78,204,129485,1,8,0:0:0:0:
78,204,129591,1,8,0:0:0:0:
76,114,129804,1,2,0:3:0:0:
152,67,130017,2,0,P|177:63|204:63,1,52.4999983978272,8|4,0:3|0:3,0:0:0:0:
256,135,130442,6,0,P|306:152|356:138,1,104.999996795654,8|6,0:0|0:0,0:0:0:0:
267,297,133846,6,0,L|271:266,3,30,2|2|8|0,0:3|0:3|0:3|0:3,0:0:0:0:
301,239,134272,6,0,L|333:236,1,30,4|0,0:3|0:0,0:0:0:0:
359,205,134485,1,2,0:0:0:0:
290,158,134697,2,0,P|285:129|284:99,1,60,8|0,0:0|0:0,0:0:0:0:
233,29,135123,2,0,L|231:0,2,30,2|0|0,0:3|0:0|0:0,0:0:0:0:
194,105,135548,2,0,P|165:110|135:111,1,60,4|2,0:3|0:0,0:0:0:0:
69,58,135974,5,8,0:0:0:0:
57,142,136187,1,0,0:0:0:0:
130,201,136399,1,2,0:3:0:0:
130,201,136506,1,2,0:3:0:0:
130,201,136612,1,8,0:3:0:0:
112,279,136825,2,0,L|115:311,3,30,2|0|0|0,0:3|0:0|0:0|0:0,0:0:0:0:
141,342,137250,2,0,L|173:339,1,30,4|8,0:3|0:3,0:0:0:0:
206,364,137463,1,2,0:0:0:0:
241,288,137676,6,0,P|301:271|357:300,1,120,8|2,0:0|0:3,0:0:0:0:
351,293,138208,1,2,0:3:0:0:
351,293,138314,1,8,0:3:0:0:
430,336,138527,1,4,0:3:0:0:
497,292,138740,1,2,0:0:0:0:
491,212,138953,2,0,P|486:183|485:153,1,60,8|0,0:0|0:0,0:0:0:0:
422,98,139378,6,0,L|424:69,2,30,2|0|0,0:3|0:0|0:0,0:0:0:0:
365,160,139804,1,6,0:0:0:0:
282,150,140016,1,2,0:0:0:0:
225,212,140229,2,0,L|218:275,1,60,2|0,1:2|0:0,0:0:0:0:
158,331,140655,2,0,L|95:324,1,60,8|0,1:2|0:0,0:0:0:0:
15,315,141080,5,2,1:2:0:0:
63,246,141293,2,0,B|58:198|58:198|46:180|46:180|40:132,1,120,2|0,0:0|0:0,0:0:0:0:
114,89,141931,2,0,L|122:149,1,60,0|0,0:0|0:0,0:0:0:0:
181,209,142357,1,8,0:0:0:0:
241,149,142570,2,0,L|273:146,1,30,8|0,0:0|0:0,0:0:0:0:
312,159,142782,6,0,L|372:151,1,60,6|2,0:0|0:0,0:0:0:0:
405,74,143208,2,0,L|465:66,1,60,2|0,1:2|0:0,0:0:0:0:
512,135,143633,1,8,1:2:0:0:
479,212,143846,2,0,L|419:220,1,60,0|2,0:0|1:2,0:0:0:0:
372,152,144272,6,0,B|324:147|324:147|306:135|306:135|258:129,1,120,2|0,0:0|0:0,0:0:0:0:
191,182,144910,2,0,L|131:174,1,60,2|0,1:2|0:0,0:0:0:0:
59,217,145336,2,0,L|56:249,3,30,8|8|8|8,0:0|0:0|0:0|0:0,0:0:0:0:
69,288,145761,2,0,L|66:320,3,30,2|2|8|8,0:3|0:3|0:3|0:3,0:0:0:0:
79,359,146187,6,0,L|111:356,1,30,4|8,0:3|0:3,0:0:0:0:
142,329,146399,1,2,0:0:0:0:
217,365,146612,2,0,P|246:370|276:371,1,60,8|0,0:0|0:0,0:0:0:0:
293,283,147038,2,0,L|290:251,2,30,2|2|8,0:3|0:3|0:3,0:0:0:0:
367,333,147463,2,0,P|396:328|426:327,1,60,4|2,0:3|0:0,0:0:0:0:
492,380,147889,5,8,0:0:0:0:
504,296,148102,1,0,0:0:0:0:
443,244,148314,1,2,0:3:0:0:
443,244,148421,1,2,0:3:0:0:
443,244,148527,1,8,0:3:0:0:
447,157,148740,2,0,L|444:125,3,30,2|0|0|0,0:3|0:0|0:0|0:0,0:0:0:0:
418,94,149165,2,0,L|386:97,1,30,4|8,0:3|0:3,0:0:0:0:
353,72,149378,1,2,0:0:0:0:
271,115,149591,6,0,P|211:132|155:103,1,120,8|2,0:0|0:3,0:0:0:0:
157,106,150123,1,2,0:3:0:0:
154,102,150229,1,8,0:3:0:0:
82,67,150442,1,4,0:3:0:0:
15,111,150655,1,2,0:0:0:0:
21,191,150868,2,0,P|26:220|27:250,1,60,8|0,0:0|0:0,0:0:0:0:
90,305,151293,6,0,L|88:334,2,30,2|0|0,0:3|0:0|0:0,0:0:0:0:
147,243,151719,1,6,0:0:0:0:
230,253,151931,1,2,0:0:0:0:
287,191,152144,2,0,L|294:128,1,60,2|0,1:2|0:0,0:0:0:0:
354,72,152570,2,0,L|417:79,1,60,8|0,1:2|0:0,0:0:0:0:
497,88,152995,5,2,1:2:0:0:
449,157,153208,2,0,B|454:205|454:205|466:223|466:223|472:271,1,120,2|0,0:0|0:0,0:0:0:0:
398,314,153846,2,0,L|390:254,1,60,2|0,1:2|0:0,0:0:0:0:
331,194,154272,1,8,0:0:0:0:
271,254,154485,2,0,L|239:257,1,30,8|0,0:0|0:0,0:0:0:0:
200,244,154697,6,0,L|140:252,1,60,6|0,0:0|0:0,0:0:0:0:
107,329,155123,2,0,L|47:337,1,60,2|0,1:2|0:0,0:0:0:0:
0,268,155548,1,8,1:2:0:0:
33,191,155761,2,0,L|93:183,1,60,2|2,0:0|1:2,0:0:0:0:
140,251,156187,6,0,B|188:256|188:256|206:268|206:268|254:274,1,120,2|0,0:0|0:0,0:0:0:0:
321,221,156825,2,0,L|381:229,1,60,2|0,1:2|0:0,0:0:0:0:
453,186,157250,2,0,L|456:154,3,30,8|8|8|8,0:0|0:0|0:0|0:0,0:0:0:0:
443,115,157676,6,0,L|409:112,3,33.7499989700318,6|2|2|0,0:0|0:0|0:0|0:0,0:0:0:0:
298,182,158314,2,0,P|244:182|206:212,1,101.249996910095,8|8,0:0|0:0,0:0:0:0:
181,240,158739,1,0,0:0:0:0:
110,192,158952,2,0,B|123:89|123:89|103:119,1,134.999995880127,8|0,0:0|0:0,0:0:0:0:
30,159,159590,5,8,0:0:0:0:
42,245,159803,1,0,0:0:0:0:
116,198,160016,1,0,0:0:0:0:
116,198,160122,1,0,0:0:0:0:
116,198,160229,2,0,P|162:190|203:202,1,67.4999979400635,8|8,0:0|0:0,0:0:0:0:
233,264,160654,2,0,L|228:312,2,33.7499989700318,8|8|2,0:0|0:0|0:0,0:0:0:0:
258,179,161080,5,8,0:0:0:0:
267,170,161186,1,2,0:0:0:0:
277,179,161293,1,2,0:0:0:0:
267,189,161399,2,0,P|313:197|354:185,1,67.4999979400635,8|0,0:0|0:0,0:0:0:0:
357,161,161718,2,0,P|411:155|452:180,1,101.249996910095,8|0,0:0|0:0,0:0:0:0:
481,204,162144,1,0,0:0:0:0:
421,265,162356,2,0,B|419:317|434:369|434:369|419:348|407:340,1,134.999995880127,8|0,0:0|0:0,0:0:0:0:
334,310,162995,5,8,0:0:0:0:
255,346,163207,1,2,0:0:0:0:
180,309,163420,1,0,0:0:0:0:
180,309,163527,1,0,0:0:0:0:
180,309,163633,2,0,P|168:263|176:221,1,67.4999979400635,8|8,0:0|0:0,0:0:0:0:
234,182,164058,2,0,L|282:188,2,33.7499989700318,8|8|2,0:0|0:0|0:0,0:0:0:0:
150,159,164484,5,8,0:0:0:0:
141,150,164590,1,2,0:0:0:0:
150,140,164697,1,2,0:0:0:0:
160,150,164803,2,0,P|168:104|156:63,1,67.4999979400635,8|0,0:0|0:0,0:0:0:0:
130,56,165122,2,0,P|184:66|226:43,1,101.249996910095,8|0,0:0|0:0,0:0:0:0:
256,20,165548,1,0,0:0:0:0:
324,74,165761,2,0,B|428:62|428:62|398:82,1,134.999995880127,8|0,0:0|0:0,0:0:0:0:
372,161,166399,5,8,0:0:0:0:
285,153,166612,1,2,0:0:0:0:
331,81,166824,1,0,0:0:0:0:
331,81,166931,1,0,0:0:0:0:
331,81,167037,2,0,P|286:70|244:78,1,67.4999979400635,8|8,0:0|0:0,0:0:0:0:
184,113,167463,2,0,L|137:119,2,33.7499989700318,8|8|2,0:0|0:0|0:0,0:0:0:0:
254,167,167888,5,8,0:0:0:0:
263,176,167995,1,2,0:0:0:0:
254,186,168101,1,2,0:0:0:0:
244,176,168207,2,0,P|236:222|248:263,1,67.4999979400635,8|0,0:0|0:0,0:0:0:0:
203,261,168527,2,0,P|257:261|295:291,1,101.249996910095,8|0,0:0|0:0,0:0:0:0:
320,319,168952,1,0,0:0:0:0:
390,371,169165,2,0,B|442:369|494:384|494:384|473:369|471:364,1,134.999995880127,8|0,0:0|0:0,0:0:0:0:
435,284,169803,5,8,0:0:0:0:
471,205,170016,1,2,0:0:0:0:
429,126,170229,1,0,0:0:0:0:
429,126,170335,1,0,0:0:0:0:
429,126,170441,2,0,P|397:116|363:116,1,67.4999979400635,8|8,0:0|0:0,0:0:0:0:
286,149,170867,2,0,L|283:189,1,33.7499989700318,8|8,0:0|0:0,0:0:0:0:
246,197,171080,1,2,0:0:0:0:
259,289,171293,5,6,0:0:0:0:
259,289,171399,1,2,0:0:0:0:
259,289,171505,2,0,L|347:279,1,75,2|4,0:0|0:0,0:0:0:0:
421,297,171931,2,0,P|423:277|420:257,1,37.5,2|2,0:0|0:0,0:0:0:0:
398,221,172144,2,0,P|396:203|398:184,1,37.5,12|0,0:0|0:0,0:0:0:0:
421,146,172356,1,2,0:0:0:0:
338,111,172569,2,0,L|334:72,3,37.5,6|0|2|2,0:0|0:0|0:0|0:0,0:0:0:0:
343,30,172995,1,4,0:0:0:0:
253,32,173207,1,2,0:0:0:0:
253,32,173314,1,2,0:0:0:0:
253,32,173420,6,0,P|214:48|162:38,1,75,6|0,0:0|0:0,0:0:0:0:
100,7,173846,1,12,0:0:0:0:
107,97,174058,1,2,0:0:0:0:
189,136,174271,2,0,L|185:174,3,37.5,6|2|2|0,0:0|0:0|0:0|0:0,0:0:0:0:
149,202,174697,2,0,L|154:240,3,37.5,6|2|2|2,0:0|0:0|0:0|0:0,0:0:0:0:
119,268,175122,5,4,0:0:0:0:
198,324,175335,1,2,0:0:0:0:
198,324,175441,1,2,0:0:0:0:
198,324,175548,2,0,P|217:327|236:325,1,37.5,12|2,0:0|0:0,0:0:0:0:
274,302,175761,1,2,0:0:0:0:
358,324,175973,2,0,L|363:362,3,37.5,6|0|2|0,0:0|0:0|0:0|0:0,0:0:0:0:
402,384,176399,1,4,0:0:0:0:
469,323,176612,1,2,0:0:0:0:
469,323,176718,1,0,0:0:0:0:
469,323,176824,6,0,P|485:284|475:232,1,75,6|0,0:0|0:0,0:0:0:0:
418,189,177250,1,12,0:0:0:0:
395,274,177463,1,2,0:0:0:0:
335,207,177676,2,0,L|298:212,3,37.5,6|0|2|0,0:0|0:0|0:0|0:0,0:0:0:0:
269,247,178101,2,0,L|232:243,3,37.5,6|0|0|0,0:0|0:0|0:0|0:0,0:0:0:0:
203,277,178527,5,4,0:0:0:0:
138,216,178739,1,2,0:0:0:0:
138,216,178846,1,2,0:0:0:0:
138,216,178952,2,0,P|137:197|141:179,1,37.5,12|0,0:0|0:0,0:0:0:0:
166,142,179165,1,2,0:0:0:0:
202,60,179378,2,0,L|198:23,3,37.5,6|0|2|2,0:0|0:0|0:0|0:0,0:0:0:0:
158,0,179803,1,4,0:0:0:0:
77,38,180016,1,0,0:0:0:0:
77,38,180122,1,0,0:0:0:0:
77,38,180229,6,0,P|62:78|72:130,1,75,4|0,0:0|0:0,0:0:0:0:
107,189,180654,1,12,0:0:0:0:
198,192,180867,1,2,0:0:0:0:
247,115,181080,2,0,L|285:120,3,37.5,6|2|0|0,0:0|0:0|0:0|0:0,0:0:0:0:
313,155,181505,2,0,L|351:151,3,37.5,6|2|2|2,0:0|0:0|0:0|0:0,0:0:0:0:
379,185,181931,5,4,0:0:0:0:
357,273,182144,2,0,P|337:275|317:272,1,37.5,2|2,0:0|0:0,0:0:0:0:
281,250,182356,2,0,P|263:248|244:250,1,37.5,12|2,0:0|0:0,0:0:0:0:
206,273,182569,1,2,0:0:0:0:
150,203,182782,2,0,L|155:164,3,37.5,6|2|2|2,0:0|0:0|0:0|0:0,0:0:0:0:
145,122,183207,1,4,0:0:0:0:
235,124,183420,1,2,0:0:0:0:
235,124,183527,1,2,0:0:0:0:
235,124,183633,6,0,P|275:140|327:130,1,75,6|0,0:0|0:0,0:0:0:0:
388,99,184058,1,12,0:0:0:0:
381,189,184271,1,2,0:0:0:0:
299,228,184484,2,0,L|304:266,3,37.5,6|2|2|2,0:0|0:0|0:0|0:0,0:0:0:0:
