osu file format v14

[General]
AudioFilename: audio.mp3
AudioLeadIn: 0
PreviewTime: 90017
Countdown: 0
SampleSet: Soft
StackLeniency: 0.4
Mode: 0
LetterboxInBreaks: 0
WidescreenStoryboard: 1

[Editor]
Bookmarks: 12144,18102,24059,30017,35974,38953,44910,50868,56825,62783,76400,90017,103634,110442,117251,130868,133847,139804,145761,151719,157676,171293,184804
DistanceSpacing: 1
BeatDivisor: 4
GridSize: 32
TimelineZoom: 2.799999

[Metadata]
Title:Shelf Life
TitleUnicode:Shelf Life
Artist:Dance Gavin Dance
ArtistUnicode:Dance Gavin Dance
Creator:Dilectus
Version:Normal
Source:
Tags:Xenon- Jian Artificial Selection
BeatmapID:1765821
BeatmapSetID:833958

[Difficulty]
HPDrainRate:3
CircleSize:3
OverallDifficulty:4
ApproachRate:5
SliderMultiplier:1
SliderTickRate:1

[Events]
//Background and Video events
0,0,"bg.jpg",0,0
//Break Periods
2,36174,37753
2,131068,132646
//Storyboard Layer 0 (Background)
//Storyboard Layer 1 (Fail)
//Storyboard Layer 2 (Pass)
//Storyboard Layer 3 (Foreground)
//Storyboard Sound Samples

[TimingPoints]
230,425.531914893617,7,2,1,60,1,0
18102,-100,7,2,1,70,0,0
24059,-100,7,2,1,60,0,0
30017,-100,7,2,1,70,0,0
35974,-100,7,2,1,30,0,0
38953,-100,7,2,1,60,0,0
44910,-100,7,2,1,70,0,0
50868,-100,7,2,1,60,0,0
56825,-100,7,2,1,70,0,0
62783,425.531914893617,4,2,1,70,1,0
76400,-90.9090909090909,4,2,1,80,0,1
90017,-100,4,2,1,60,0,0
103634,-100,4,2,1,60,0,0
109166,-100,4,2,1,60,0,0
130868,425.531914893617,7,2,1,60,1,0
133846,-100,7,2,1,60,0,0
139804,-100,7,2,1,70,0,0
145761,-100,7,2,1,60,0,0
151719,-100,7,2,1,70,0,0
157676,425.531914893617,4,2,1,70,1,0
171293,-90.9090909090909,4,2,1,80,0,1
184803,-100,4,2,1,80,0,0

[Colours]
Combo1 : 232,166,121
Combo2 : 99,228,102
Combo3 : 147,214,236
Combo4 : 222,215,63

[HitObjects]
67,272,12144,6,0,P|116:282|177:276,1,100,2|4,0:3|0:3,0:0:0:0:
259,244,12995,1,8,0:0:0:0:
354,214,13421,2,0,P|378:212|403:217,2,50,2|8|4,0:3|0:3|0:3,0:0:0:0:
259,244,14272,2,0,P|249:195|252:145,1,100,8|2,0:0|0:3,0:0:0:0:
264,46,15123,6,0,P|214:49|165:39,2,100,2|8|8,0:3|0:3|0:0,0:0:0:0:
343,105,16400,2,0,P|367:103|392:108,2,50,2|8|4,0:3|0:3|0:3,0:0:0:0:
252,145,17251,1,8,0:0:0:0:
161,185,17676,2,0,P|136:186|111:181,1,50,2|8,0:3|0:3,0:0:0:0:
62,169,18102,6,0,P|52:217|55:267,1,100,6|2,0:0|1:2,0:0:0:0:
131,332,18953,2,0,P|179:322|229:325,1,100,8|2,1:2|1:2,0:0:0:0:
277,339,19591,2,0,B|319:351|319:351|374:339,2,100,2|0|0,0:0|0:0|0:0,0:0:0:0:
229,325,20655,1,8,0:0:0:0:
135,288,21081,6,0,P|131:238|141:189,1,100,6|2,0:0|1:2,0:0:0:0:
113,93,21932,2,0,P|163:97|212:87,1,100,8|2,1:2|1:2,0:0:0:0:
258,70,22570,1,2,0:0:0:0:
323,145,22995,2,0,P|347:140|372:142,2,50,0|0|0,0:0|1:2|0:0,0:0:0:0:
276,165,23634,1,8,0:0:0:0:
186,209,24059,6,0,P|176:257|180:307,1,100,2|4,0:3|0:3,0:0:0:0:
261,365,24910,1,8,0:0:0:0:
353,327,25336,2,0,P|377:322|402:324,2,50,2|8|4,0:3|0:3|0:3,0:0:0:0:
272,267,26187,1,8,0:0:0:0:
180,307,26612,6,0,P|132:317|82:313,1,100,2|2,0:3|0:3,0:0:0:0:
33,296,27251,1,8,0:3:0:0:
64,201,27676,2,0,P|40:196|15:198,2,50,2|8|0,0:0|0:0|0:0,0:0:0:0:
110,220,28315,2,0,P|143:182|164:137,1,100,2|4,0:3|0:3,0:0:0:0:
194,42,29166,1,8,0:0:0:0:
286,80,29591,2,0,P|310:85|335:83,1,50,2|8,0:3|0:3,0:0:0:0:
385,76,30017,6,0,P|382:51|387:26,2,50,6|2|2,0:0|0:0|1:2,0:0:0:0:
423,168,30868,2,0,P|433:216|429:266,1,100,8|2,1:2|1:2,0:0:0:0:
415,314,31506,2,0,B|457:326|457:326|512:314,2,100,2|0|0,0:0|0:0|0:0,0:0:0:0:
366,301,32570,1,8,0:0:0:0:
274,341,32995,6,0,P|226:351|176:347,1,100,6|2,0:0|1:2,0:0:0:0:
133,318,33634,2,0,P|123:270|127:220,1,100,0|2,0:0|0:0,0:0:0:0:
155,179,34272,2,0,P|204:168|254:173,1,100,2|0,1:2|0:0,0:0:0:0:
347,210,35123,1,0,1:0:0:0:
440,246,35549,2,0,P|465:250|490:247,2,50,8|8|0,0:0|0:0|0:0,0:0:0:0:
256,96,38953,6,0,P|247:119|245:144,1,50,2|8,0:3|0:3,0:0:0:0:
268,188,39378,2,0,P|276:211|278:236,1,50,4|2,0:3|0:0,0:0:0:0:
259,282,39804,2,0,B|221:297|221:297|160:282,1,100,8|2,0:0|0:3,0:0:0:0:
116,265,40442,1,8,0:3:0:0:
68,281,40655,2,0,P|55:302|50:327,2,50,4|2|8,0:3|0:0|0:0,0:0:0:0:
118,194,41506,6,0,P|112:169|100:147,1,50,2|8,0:3|0:3,0:0:0:0:
73,105,41932,2,0,P|97:99|119:87,1,50,2|8,0:3|0:3,0:0:0:0:
162,60,42357,2,0,P|167:84|179:106,1,50,4|2,0:3|0:0,0:0:0:0:
207,149,42783,2,0,P|256:138|306:143,1,100,8|2,0:0|0:3,0:0:0:0:
352,159,43421,1,8,0:3:0:0:
399,143,43634,2,0,P|401:118|397:93,2,50,4|2|8,0:3|0:0|0:0,0:0:0:0:
353,231,44485,2,0,P|349:255|351:280,1,50,2|8,0:3|0:3,0:0:0:0:
362,329,44910,6,0,B|322:332|322:332|303:325|303:325|262:328,1,100,6|2,0:0|1:2,0:0:0:0:
166,352,45761,2,0,B|162:312|162:312|169:293|169:293|166:253,1,100,8|2,1:2|1:2,0:0:0:0:
160,203,46400,2,0,P|110:198|61:209,2,100,2|0|0,0:0|0:0|0:0,0:0:0:0:
207,219,47464,1,8,0:0:0:0:
301,251,47889,6,0,P|349:261|399:257,1,100,6|2,0:0|1:2,0:0:0:0:
445,239,48527,2,0,B|433:197|433:197|444:142,1,100,0|2,0:0|0:0,0:0:0:0:
493,54,49378,2,0,B|451:42|451:42|396:53,1,100,2|0,0:0|0:0,0:0:0:0:
347,67,50017,2,0,P|323:71|298:69,1,50,0|0,1:2|0:0,0:0:0:0:
249,54,50442,1,8,0:0:0:0:
175,121,50868,6,0,P|179:145|177:170,1,50,2|8,0:3|0:3,0:0:0:0:
150,212,51293,2,0,P|146:236|148:261,1,50,4|2,0:3|0:0,0:0:0:0:
186,293,51719,2,0,B|236:311|236:274|285:293,1,100,8|2,0:0|0:3,0:0:0:0:
331,306,52357,2,0,P|431:307|405:193,1,250,8|2,0:3|0:3,0:0:0:0:
329,127,53847,5,2,0:3:0:0:
400,56,54272,1,4,0:3:0:0:
329,127,54698,2,0,P|281:137|231:133,1,100,8|2,0:0|0:3,0:0:0:0:
182,119,55336,2,0,B|139:107|139:107|84:119,2,100,8|2|0,0:3|0:0|0:0,0:0:0:0:
230,132,56400,1,2,0:3:0:0:
178,217,56825,6,0,P|168:264|172:314,1,100,6|2,0:0|1:2,0:0:0:0:
267,345,57676,2,0,P|299:309|320:263,1,100,8|2,1:2|1:2,0:0:0:0:
340,216,58315,2,0,B|383:204|383:204|438:216,2,100,2|0|0,0:0|0:0|0:0,0:0:0:0:
291,227,59378,2,0,P|267:231|242:229,1,50,8|8,0:0|0:0,0:0:0:0:
191,222,59804,6,0,P|175:240|164:263,2,50,6|2|2,0:0|0:0|1:2,0:0:0:0:
231,130,60655,2,0,P|209:84|178:46,1,100,8|2,1:2|1:2,0:0:0:0:
128,45,61293,2,0,P|96:83|75:128,1,100,2|0,0:0|0:0,0:0:0:0:
60,176,61932,1,0,1:2:0:0:
33,272,62357,2,0,P|57:276|82:274,1,50,8|8,0:0|0:0,0:0:0:0:
130,259,62783,6,0,B|165:245|165:245|199:258,1,75,12|8,0:0|0:0,0:0:0:0:
268,287,63421,2,0,B|303:301|303:301|337:288,1,75,8|8,0:0|0:0,0:0:0:0:
405,255,64059,2,0,P|415:222|403:183,1,75,8|8,0:0|0:0,0:0:0:0:
362,121,64697,2,0,P|350:85|360:50,1,75,8|8,0:0|0:0,0:0:0:0:
429,22,65336,2,0,L|486:18,2,50,8|8|8,0:0|0:0|0:0,0:0:0:0:
333,51,66187,6,0,P|296:58|258:55,1,75,8|8,0:0|0:0,0:0:0:0:
186,37,66825,2,0,P|148:34|112:41,1,75,8|8,0:0|0:0,0:0:0:0:
48,81,67463,2,0,B|37:117|37:117|53:149,1,75,8|8,0:0|0:0,0:0:0:0:
124,172,68102,2,0,P|162:175|198:168,1,75,8|8,0:0|0:0,0:0:0:0:
265,135,68740,2,0,L|260:83,2,50,8|8|8,0:0|0:0|0:0,0:0:0:0:
347,192,69591,6,0,L|354:278,1,75,8|8,0:0|0:0,0:0:0:0:
398,327,70229,2,0,L|311:334,1,75,8|8,0:0|0:0,0:0:0:0:
263,378,70868,2,0,L|255:291,1,75,8|8,0:0|0:0,0:0:0:0:
212,243,71506,2,0,L|299:235,1,75,8|8,0:0|0:0,0:0:0:0:
361,232,72144,2,0,P|367:256|367:281,2,50,8|8|8,0:0|0:0|0:0,0:0:0:0:
313,143,72995,6,0,P|306:106|309:68,1,75,8|8,0:0|0:0,0:0:0:0:
249,22,73634,2,0,P|212:29|174:26,1,75,8|8,0:0|0:0,0:0:0:0:
127,84,74272,2,0,P|134:121|131:159,1,75,8|8,0:0|0:0,0:0:0:0:
188,206,74910,2,0,P|225:199|263:202,1,75,8|0,0:0|0:0,0:0:0:0:
336,213,75548,2,0,P|340:188|350:165,2,50,8|8|8,0:0|0:0|0:0,0:0:0:0:
337,312,76400,6,0,B|290:298|290:298|230:312,1,110.000003356934,6|4,0:0|0:0,0:0:0:0:
182,324,77038,1,2,0:0:0:0:
133,311,77251,2,0,P|114:290|102:264,1,55.0000016784668,12|2,0:0|0:0,0:0:0:0:
82,220,77676,2,0,P|55:226|32:240,2,55.0000016784668,6|2|4,0:0|0:0|0:0,0:0:0:0:
120,188,78314,1,2,0:0:0:0:
120,188,78527,2,0,P|146:181|169:167,1,55.0000016784668,6|0,0:0|0:0,0:0:0:0:
203,129,78953,2,0,P|188:105|181:79,2,55.0000016784668,12|2|6,0:0|0:0|0:0,0:0:0:0:
286,182,79804,6,0,L|357:178,1,55.0000016784668,6|2,0:0|0:0,0:0:0:0:
390,178,80229,1,4,0:0:0:0:
434,198,80442,2,0,P|449:222|456:248,2,55.0000016784668,2|12|2,0:0|0:0|0:0,0:0:0:0:
429,148,81080,2,0,P|442:123|461:103,2,55.0000016784668,6|2|4,0:0|0:0|0:0,0:0:0:0:
390,178,81719,2,0,P|361:178|335:172,2,55.0000016784668,2|6|0,0:0|0:0|0:0,0:0:0:0:
434,198,82357,2,0,P|455:251|460:305,1,110.000003356934,12|6,0:0|0:0,0:0:0:0:
379,361,83208,6,0,P|351:358|326:347,1,55.0000016784668,6|2,0:0|0:0,0:0:0:0:
284,321,83634,1,4,0:0:0:0:
243,348,83846,2,0,P|217:358|190:361,2,55.0000016784668,2|12|0,0:0|0:0|0:0,0:0:0:0:
284,321,84485,1,6,0:0:0:0:
284,271,84697,2,0,P|278:216|257:165,1,110.000003356934,2|2,0:0|0:0,0:0:0:0:
230,123,85336,1,6,0:0:0:0:
139,83,85761,2,0,P|111:86|85:81,2,55.0000016784668,12|2|6,0:0|0:0|0:0,0:0:0:0:
218,23,86612,5,6,0:0:0:0:
218,23,86825,2,0,P|244:17|272:20,1,55.0000016784668,2|4,0:0|0:0,0:0:0:0:
317,40,87251,1,2,0:0:0:0:
362,58,87463,2,0,P|388:64|416:61,1,55.0000016784668,12|0,0:0|0:0,0:0:0:0:
465,56,87889,1,6,0:0:0:0:
465,56,88102,2,0,L|471:131,1,55.0000016784668,2|4,0:0|0:0,0:0:0:0:
438,149,88527,1,2,0:0:0:0:
406,186,88740,2,0,L|412:261,1,55.0000016784668,6|0,0:0|0:0,0:0:0:0:
416,290,89165,2,0,P|442:296|470:293,2,55.0000016784668,12|2|6,0:0|0:0|0:0,0:0:0:0:
368,261,89804,1,0,0:0:0:0:
317,270,90017,5,6,0:0:0:0:
231,321,90442,2,0,P|136:338|54:284,1,200,6|0,0:0|0:0,0:0:0:0:
68,235,91506,2,0,B|96:154|55:88|55:88|88:41|152:54,1,250,6|0,0:0|0:0,0:0:0:0:
189,54,92783,2,0,P|213:40|231:20,2,50,6|6|6,0:0|0:0|0:0,0:0:0:0:
166,87,93421,5,6,0:0:0:0:
257,128,93846,2,0,B|330:136|372:87|372:87|416:82|440:119,1,200,6|0,0:0|0:0,0:0:0:0:
447,161,94910,2,0,P|413:221|447:287,1,150,6|0,0:0|0:0,0:0:0:0:
491,310,95761,1,6,0:0:0:0:
421,381,96187,1,6,0:0:0:0:
421,381,96400,1,6,0:0:0:0:
333,332,96825,5,6,0:0:0:0:
399,257,97251,2,0,P|420:162|368:68,1,200,6|0,0:0|0:0,0:0:0:0:
334,44,98314,2,0,B|212:98|214:-11|94:41,1,250,6|0,0:0|0:0,0:0:0:0:
45,53,99591,2,0,P|31:28|25:2,2,50,6|6|6,0:0|0:0|0:0,0:0:0:0:
80,88,100229,6,0,P|93:112|94:201,1,100,6|0,0:0|0:0,0:0:0:0:
72,279,101080,2,0,L|16:283,2,50,4|8|0,0:3|0:3|0:0,0:0:0:0:
109,311,101719,2,0,P|155:326|207:317,1,100,6|0,0:0|0:0,0:0:0:0:
246,289,102357,2,0,L|301:293,2,50,8|8|0,0:0|0:0|0:0,0:0:0:0:
163,232,103208,1,8,0:3:0:0:
78,175,103634,6,0,P|63:128|72:79,1,100,6|0,0:0|0:0,0:0:0:0:
157,27,104485,2,0,P|204:39|252:26,1,100,8|0,0:0|0:0,0:0:0:0:
300,41,105123,1,2,0:0:0:0:
330,80,105336,2,0,P|345:126|336:178,1,100,2|0,0:0|0:0,0:0:0:0:
278,257,106187,2,0,P|253:263|232:276,2,50,8|0|0,0:0|0:0|0:0,0:0:0:0:
325,271,106825,1,2,0:0:0:0:
373,284,107038,6,0,P|398:278|419:265,1,50,2|0,0:0|0:0,0:0:0:0:
480,186,107676,2,0,P|458:173|434:167,1,50,2|8,0:0|0:0,0:0:0:0:
384,171,108102,2,0,P|359:165|338:152,1,50,0|0,0:0|0:0,0:0:0:0:
305,115,108527,2,0,B|270:99|270:99|211:114,1,100,2|0,0:0|0:0,0:0:0:0:
161,126,109165,1,6,0:0:0:0:
65,96,109591,2,0,P|54:73|50:48,2,50,0|8|8,0:0|0:0|0:0,0:0:0:0:
88,195,110442,6,0,P|80:244|58:289,1,100,6|0,0:0|0:0,0:0:0:0:
129,360,111293,2,0,P|175:342|225:338,1,100,8|0,0:0|0:0,0:0:0:0:
274,347,111931,1,2,0:0:0:0:
274,347,112144,2,0,P|298:345|322:336,1,50,2|0,0:0|0:0,0:0:0:0:
354,297,112570,2,0,P|345:273|343:248,1,50,0|2,0:0|0:0,0:0:0:0:
371,207,112995,2,0,P|394:198|419:196,2,50,8|0|0,0:0|0:0|0:0,0:0:0:0:
320,207,113634,1,2,0:0:0:0:
274,187,113846,6,0,B|247:176|247:176|198:186,1,75,6|0,0:0|0:0,0:0:0:0:
128,201,114485,1,8,0:0:0:0:
62,164,114697,2,0,P|39:109|52:47,1,125,0|6,0:0|0:0,0:0:0:0:
137,98,115761,2,0,L|192:94,1,50,8|8,0:0|0:0,0:0:0:0:
236,89,116187,2,0,P|234:64|225:40,2,50,2|8|4,0:3|0:3|0:3,0:0:0:0:
220,136,116825,1,8,0:0:0:0:
309,180,117251,5,6,0:0:0:0:
401,217,117676,2,0,P|425:215|449:206,1,50,0|2,0:0|0:0,0:0:0:0:
481,167,118102,1,8,0:0:0:0:
481,167,118314,2,0,P|477:142|466:119,1,50,0|0,0:0|0:0,0:0:0:0:
420,99,118740,2,0,P|370:103|323:121,1,100,2|0,0:0|0:0,0:0:0:0:
226,95,119591,2,0,P|230:145|248:192,1,100,2|0,0:0|0:0,0:0:0:0:
222,289,120442,6,0,P|272:285|319:267,1,100,2|0,0:0|0:0,0:0:0:0:
416,293,121293,2,0,P|412:243|394:196,1,100,2|0,0:0|0:0,0:0:0:0:
347,108,122144,1,2,0:0:0:0:
310,142,122357,2,0,P|285:145|260:143,2,50,6|8|8,0:0|0:0|0:0,0:0:0:0:
394,196,123208,2,0,P|418:193|443:197,1,50,8|4,0:3|0:3,0:0:0:0:
486,223,123634,1,8,0:0:0:0:
414,292,124059,6,0,P|367:309|317:313,1,100,6|0,0:0|0:0,0:0:0:0:
220,289,124910,1,8,0:0:0:0:
220,289,125123,2,0,P|196:280|171:278,1,50,0|0,0:0|0:0,0:0:0:0:
121,284,125548,2,0,B|117:244|117:244|124:225|124:225|121:185,1,100,2|0,0:0|0:0,0:0:0:0:
92,89,126400,2,0,B|132:85|132:85|151:92|151:92|191:89,1,100,2|0,0:0|0:0,0:0:0:0:
287,60,127251,6,0,B|291:100|291:100|283:119|283:119|287:159,1,100,2|0,0:0|0:0,0:0:0:0:
316,255,128102,2,0,B|276:259|276:259|257:251|257:251|217:255,1,100,8|8,0:0|0:0,0:0:0:0:
172,276,128740,1,8,0:0:0:0:
123,263,128953,2,0,P|114:239|112:214,1,50,6|0,0:0|0:0,0:0:0:0:
115,164,129378,1,8,0:0:0:0:
115,164,129591,2,0,P|90:161|65:166,2,50,8|2|8,0:0|0:3|0:3,0:0:0:0:
162,180,130229,1,4,0:3:0:0:
204,154,130442,1,8,0:0:0:0:
145,72,130868,5,6,0:0:0:0:
64,146,133846,6,0,P|113:156|163:152,1,100,2|4,0:3|0:3,0:0:0:0:
256,192,134697,1,8,0:0:0:0:
348,230,135123,2,0,P|372:228|397:233,2,50,2|8|4,0:3|0:3|0:3,0:0:0:0:
269,290,135974,1,8,0:0:0:0:
177,252,136399,2,0,P|163:232|155:208,1,50,2|8,0:3|0:3,0:0:0:0:
151,157,136825,6,0,P|102:166|52:163,1,100,2|4,0:3|0:3,0:0:0:0:
97,73,137676,2,0,P|145:63|195:66,1,100,8|2,0:0|0:3,0:0:0:0:
241,87,138314,1,8,0:3:0:0:
287,105,138527,2,0,P|311:110|336:110,2,50,4|2|8,0:3|0:0|0:0,0:0:0:0:
230,187,139378,2,0,P|216:207|208:231,1,50,2|8,0:3|0:3,0:0:0:0:
192,279,139804,6,0,P|167:278|142:284,2,50,6|2|2,0:0|0:0|1:2,0:0:0:0:
275,333,140655,2,0,P|324:342|374:339,1,100,8|2,1:2|1:2,0:0:0:0:
415,311,141293,2,0,B|457:299|457:299|512:311,2,100,2|0|0,0:0|0:0|0:0,0:0:0:0:
373,339,142357,1,8,0:0:0:0:
285,290,142782,6,0,P|279:265|280:240,1,50,6|2,0:0|0:0,0:0:0:0:
292,192,143208,1,2,1:2:0:0:
347,108,143633,2,0,P|298:99|248:102,1,100,8|2,1:2|1:2,0:0:0:0:
209,133,144272,2,0,P|160:142|110:139,1,100,2|0,0:0|0:0,0:0:0:0:
60,134,144910,2,0,P|54:159|55:184,1,50,2|0,1:2|0:0,0:0:0:0:
80,226,145336,2,0,P|86:251|85:276,1,50,8|8,0:0|0:0,0:0:0:0:
58,317,145761,6,0,P|33:316|8:322,2,50,2|8|4,0:3|0:3|0:3,0:0:0:0:
155,340,146612,2,0,P|204:349|253:347,1,100,8|2,0:0|0:3,0:0:0:0:
298,324,147250,1,8,0:3:0:0:
342,300,147463,2,0,P|366:295|391:296,2,50,4|2|8,0:3|0:0|0:0,0:0:0:0:
268,232,148314,6,0,P|241:189|224:142,1,100,2|2,0:3|0:3,0:0:0:0:
209,95,148953,1,8,0:3:0:0:
111,75,149378,2,0,P|118:51|132:30,2,50,2|8|0,0:0|0:0|0:0,0:0:0:0:
89,120,150016,2,0,P|116:163|133:210,1,100,2|4,0:3|0:3,0:0:0:0:
89,299,150868,2,0,B|131:310|131:310|185:297,1,100,8|2,0:0|0:3,0:0:0:0:
234,283,151506,1,8,0:3:0:0:
281,297,151719,6,0,P|294:317|301:341,2,50,6|2|2,0:0|0:0|1:2,0:0:0:0:
286,197,152570,2,0,P|303:150|329:107,1,100,8|2,1:2|1:2,0:0:0:0:
361,69,153208,2,0,B|403:80|403:80|458:69,2,100,2|0|0,0:0|0:0|0:0,0:0:0:0:
311,65,154272,2,0,P|287:60|262:61,1,50,8|8,0:0|0:0,0:0:0:0:
215,81,154697,6,0,P|166:90|117:88,1,100,6|0,0:0|0:0,0:0:0:0:
76,118,155336,2,0,P|85:167|82:216,1,100,0|2,0:0|0:0,0:0:0:0:
125,243,155974,2,0,P|174:233|223:236,1,100,2|0,1:2|0:0,0:0:0:0:
312,281,156825,1,2,1:2:0:0:
388,216,157250,2,0,P|389:191|385:166,1,50,8|8,0:0|0:0,0:0:0:0:
366,120,157676,6,0,B|332:134|332:134|296:121,1,75,6|8,0:0|0:0,0:0:0:0:
227,90,158314,2,0,B|193:76|193:76|157:89,1,75,8|8,0:0|0:0,0:0:0:0:
89,122,158952,2,0,P|118:150|133:186,1,75,8|8,0:0|0:0,0:0:0:0:
183,235,159590,2,0,P|154:263|139:299,1,75,8|8,0:0|0:0,0:0:0:0:
89,349,160229,2,0,P|64:350|39:346,2,50,8|8|8,0:0|0:0|0:0,0:0:0:0:
187,368,161080,6,0,P|226:361|266:363,1,75,8|8,0:0|0:0,0:0:0:0:
324,321,161718,2,0,P|329:286|321:248,1,75,8|8,0:0|0:0,0:0:0:0:
260,202,162356,2,0,P|251:165|256:128,1,75,8|8,0:0|0:0,0:0:0:0:
317,84,162995,2,0,P|354:85|391:78,1,75,8|8,0:0|0:0,0:0:0:0:
462,55,163633,2,0,P|458:29|464:5,2,50,8|8|8,0:0|0:0|0:0,0:0:0:0:
451,154,164484,6,0,B|453:183|453:183|448:197|448:197|451:227,1,75,8|8,0:0|0:0,0:0:0:0:
459,302,165122,2,0,B|429:304|429:304|415:299|415:299|385:302,1,75,8|8,0:0|0:0,0:0:0:0:
311,310,165761,2,0,B|308:280|308:280|313:266|313:266|311:236,1,75,8|8,0:0|0:0,0:0:0:0:
303,162,166399,2,0,B|332:159|332:159|346:164|346:164|376:162,1,75,8|8,0:0|0:0,0:0:0:0:
451,154,167037,2,0,P|466:134|478:112,2,50,8|8|8,0:0|0:0|0:0,0:0:0:0:
422,250,167888,6,0,P|391:287|368:330,1,75,8|8,0:0|0:0,0:0:0:0:
315,352,168527,2,0,P|267:343|218:345,1,75,8|8,0:0|0:0,0:0:0:0:
175,305,169165,2,0,P|203:269|229:225,1,75,8|8,0:0|0:0,0:0:0:0:
282,203,169803,2,0,P|330:212|379:210,1,75,8|8,0:0|0:0,0:0:0:0:
430,209,170441,2,0,P|439:231|443:256,2,50,8|8|8,0:0|0:0|0:0,0:0:0:0:
385,120,171293,6,0,P|362:68|354:13,1,110.000003356934,6|4,0:0|0:0,0:0:0:0:
305,25,171931,1,2,0:0:0:0:
263,52,172144,2,0,P|236:57|208:55,1,55.0000016784668,12|2,0:0|0:0,0:0:0:0:
160,41,172569,2,0,P|133:35|105:37,2,55.0000016784668,6|2|4,0:0|0:0|0:0,0:0:0:0:
177,87,173207,1,2,0:0:0:0:
177,87,173420,2,0,L|182:146,1,55.0000016784668,6|0,0:0|0:0,0:0:0:0:
202,187,173846,2,0,P|228:192|256:190,2,55.0000016784668,12|2|6,0:0|0:0|0:0,0:0:0:0:
116,237,174697,6,0,P|88:234|61:239,2,55.0000016784668,6|2|4,0:0|0:0|0:0,0:0:0:0:
151,271,175335,2,0,P|160:296|163:323,1,55.0000016784668,2|12,0:0|0:0,0:0:0:0:
142,369,175761,1,2,0:0:0:0:
191,364,175973,2,0,L|252:358,1,55.0000016784668,6|2,0:0|0:0,0:0:0:0:
267,313,176399,1,4,0:0:0:0:
316,308,176612,2,0,L|377:302,1,55.0000016784668,2|6,0:0|0:0,0:0:0:0:
392,257,177037,1,0,0:0:0:0:
441,252,177250,2,0,L|502:246,2,55.0000016784668,12|2|6,0:0|0:0|0:0,0:0:0:0:
354,203,178101,6,0,P|331:151|323:96,1,110.000003356934,6|4,0:0|0:0,0:0:0:0:
328,49,178739,2,0,P|353:39|381:37,2,55.0000016784668,2|12|2,0:0|0:0|0:0,0:0:0:0:
282,69,179378,2,0,P|254:67|228:57,1,55.0000016784668,6|2,0:0|0:0,0:0:0:0:
184,34,179803,1,4,0:0:0:0:
141,59,180016,2,0,P|115:68|87:70,2,55.0000016784668,2|6|0,0:0|0:0|0:0,0:0:0:0:
186,78,180654,2,0,P|199:133|197:188,1,110.000003356934,12|6,0:0|0:0,0:0:0:0:
153,275,181505,5,6,0:0:0:0:
153,275,181718,2,0,P|177:285|209:285,1,55.0000016784668,2|4,0:0|0:0,0:0:0:0:
254,275,182144,1,2,0:0:0:0:
302,264,182356,2,0,P|329:264|354:274,1,55.0000016784668,12|2,0:0|0:0,0:0:0:0:
402,289,182782,1,6,0:0:0:0:
402,289,182995,2,0,L|407:226,1,55.0000016784668,2|4,0:0|0:0,0:0:0:0:
441,199,183420,1,2,0:0:0:0:
441,199,183633,2,0,L|435:136,1,55.0000016784668,6|0,0:0|0:0,0:0:0:0:
429,94,184058,2,0,P|454:84|481:84,2,55.0000016784668,12|2|6,0:0|0:0|0:0,0:0:0:0:
386,120,184697,5,2,0:0:0:0:
