osu file format v14

[General]
AudioFilename: audio.mp3
AudioLeadIn: 0
PreviewTime: 90017
Countdown: 0
SampleSet: Soft
StackLeniency: 0.4
Mode: 0
LetterboxInBreaks: 0
WidescreenStoryboard: 1

[Editor]
Bookmarks: 12144,18102,24059,30017,35974,38953,44910,50868,56825,62783,76400,90017,103634,110442,117251,130868,133847,139804,145761,151719,157676,171293,184804
DistanceSpacing: 1.1
BeatDivisor: 2
GridSize: 32
TimelineZoom: 2.799999

[Metadata]
Title:Shelf Life
TitleUnicode:Shelf Life
Artist:Dance Gavin Dance
ArtistUnicode:Dance Gavin Dance
Creator:Dilectus
Version:Jian's Easy
Source:
Tags:Xenon- Jian Artificial Selection
BeatmapID:1804088
BeatmapSetID:833958

[Difficulty]
HPDrainRate:2
CircleSize:2
OverallDifficulty:2.4
ApproachRate:4
SliderMultiplier:1
SliderTickRate:1

[Events]
//Background and Video events
0,0,"bg.jpg",0,0
//Break Periods
2,36174,37633
2,131068,132526
//Storyboard Layer 0 (Background)
//Storyboard Layer 1 (Fail)
//Storyboard Layer 2 (Pass)
//Storyboard Layer 3 (Foreground)
//Storyboard Sound Samples

[TimingPoints]
230,425.531914893617,7,2,1,60,1,0
18102,-100,7,2,1,70,0,0
24059,-100,7,2,1,60,0,0
30017,-100,7,2,1,70,0,0
35974,-100,7,2,1,30,0,0
38953,-100,7,2,1,60,0,0
44910,-100,7,2,1,70,0,0
50868,-100,7,2,1,60,0,0
56825,-100,7,2,1,70,0,0
62783,425.531914893617,4,2,1,70,1,0
76400,-100,4,2,1,80,0,1
90017,-100,4,2,1,60,0,0
103634,-100,4,2,1,60,0,0
130868,425.531914893617,7,2,1,60,1,0
133846,-100,7,2,1,60,0,0
139804,-100,7,2,1,70,0,0
145761,-100,7,2,1,60,0,0
151719,-100,7,2,1,70,0,0
157676,425.531914893617,4,2,1,70,1,0
171293,-100,4,2,1,80,0,1
184803,-100,4,2,1,80,0,0

[Colours]
Combo1 : 232,166,121
Combo2 : 99,228,102
Combo3 : 147,214,236
Combo4 : 222,215,63

[HitObjects]
512,315,12144,6,0,P|442:282|409:286,1,100,2|4,0:3|0:3,0:0:0:0:
342,221,12995,2,0,P|301:159|230:143,1,150,8|8,0:0|0:3,0:0:0:0:
214,191,13847,2,0,L|201:253,1,50,4|0,0:3|0:0,0:0:0:0:
173,279,14272,1,8,0:0:0:0:
173,279,15123,6,0,P|120:291|64:259,2,100,2|8|8,0:3|0:3|0:0,0:0:0:0:
131,187,16400,2,0,L|125:123,1,50,2|8,0:3|0:3,0:0:0:0:
117,37,17038,2,0,L|166:35,1,50,0|8,0:0|0:0,0:0:0:0:
257,77,17676,1,2,0:3:0:0:
330,3,18102,6,0,P|358:58|354:113,1,100,6|2,0:0|1:2,0:0:0:0:
292,171,18953,2,0,L|302:274,1,100,8|2,1:2|1:2,0:0:0:0:
331,311,19591,2,0,P|376:338|441:335,1,100,2|0,0:0|0:0,0:0:0:0:
500,272,20442,1,0,0:0:0:0:
405,238,20868,1,0,0:0:0:0:
405,238,21932,6,0,B|410:186|410:186,1,50,8|0,1:2|0:0,0:0:0:0:
442,150,22357,2,0,L|464:99,1,50,2|2,1:2|0:0,0:0:0:0:
408,20,22995,2,0,B|357:15|357:15,1,50,0|0,0:0|1:2,0:0:0:0:
266,56,23634,1,8,0:0:0:0:
167,48,24059,6,0,P|171:95|222:146,1,100,2|4,0:3|0:3,0:0:0:0:
301,152,24910,1,8,0:0:0:0:
366,75,25336,1,2,0:3:0:0:
400,168,25761,2,0,L|411:270,1,100,4|8,0:3|0:0,0:0:0:0:
340,339,26612,6,0,P|248:301|152:355,1,200,2|0,0:3|0:0,0:0:0:0:
66,312,27889,2,0,P|55:256|29:213,1,100,8|2,0:0|0:3,0:0:0:0:
127,180,28740,2,0,P|138:124|164:81,1,100,4|8,0:3|0:0,0:0:0:0:
233,23,29591,1,2,0:3:0:0:
308,89,30017,6,0,P|332:132|341:181,2,100,6|2|8,0:0|1:2|1:2,0:0:0:0:
233,23,31293,1,2,1:2:0:0:
155,85,31719,2,0,P|114:57|52:50,2,100,0|0|8,0:0|0:0|0:0,0:0:0:0:
188,179,32995,2,0,L|180:278,1,100,6|2,0:0|1:2,0:0:0:0:
86,247,33847,2,0,L|78:147,1,100,0|2,0:0|1:2,0:0:0:0:
12,59,34698,2,0,P|85:38|179:107,1,200,0|8,0:0|0:0,0:0:0:0:
257,183,35974,5,0,0:0:0:0:
66,48,38953,6,0,L|178:57,1,100,2|4,0:3|0:3,0:0:0:0:
237,126,39804,2,0,L|336:117,1,100,8|2,0:0|0:3,0:0:0:0:
436,110,40655,1,4,0:3:0:0:
398,202,41081,2,0,L|389:301,1,100,8|2,0:0|0:3,0:0:0:0:
388,301,42357,5,4,0:3:0:0:
300,339,42783,2,0,B|250:348|250:348|200:333,1,100,8|2,0:0|0:3,0:0:0:0:
103,344,43634,2,0,B|112:294|112:294|97:246,1,100,4|8,0:3|0:0,0:0:0:0:
58,154,44485,1,2,0:3:0:0:
133,89,44910,2,0,P|214:115|327:73,1,200,6|8,0:0|1:2,0:0:0:0:
342,178,46187,2,0,L|333:293,1,100,2|0,1:2|0:0,0:0:0:0:
334,277,47889,6,0,P|271:319|238:318,1,100,6|2,0:0|1:2,0:0:0:0:
207,292,48527,2,0,P|202:216|219:188,1,100,0|2,0:0|0:0,0:0:0:0:
282,125,49378,2,0,L|347:117,1,50,2|0,0:0|0:0,0:0:0:0:
391,196,50017,2,0,P|429:247|429:303,2,100,0|8|2,1:2|0:0|0:3,0:0:0:0:
379,96,51293,5,4,0:3:0:0:
297,154,51719,2,0,P|248:161|194:136,1,100,8|2,0:0|0:3,0:0:0:0:
168,105,52357,1,8,0:3:0:0:
168,105,54272,5,4,0:3:0:0:
104,182,54698,1,8,0:0:0:0:
104,182,55336,2,0,L|99:239,1,50,8|0,0:3|0:0,0:0:0:0:
128,272,55761,2,0,P|169:332|209:355,1,100,2|0,0:0|0:0,0:0:0:0:
239,359,56400,1,2,0:3:0:0:
325,309,56825,6,0,P|344:249|369:210,1,100,6|2,0:0|1:2,0:0:0:0:
429,143,57676,2,0,L|416:92,1,50,8|0,1:2|0:0,0:0:0:0:
319,73,58315,1,2,0:0:0:0:
235,18,58740,2,0,B|192:86|252:113|197:176,1,150,0|8,0:0|0:0,0:0:0:0:
141,236,59804,1,6,0:0:0:0:
141,236,60655,6,0,L|136:306,1,50,8|0,1:2|0:0,0:0:0:0:
207,357,61293,2,0,L|312:353,1,100,2|0,0:0|0:0,0:0:0:0:
353,334,61932,1,0,1:2:0:0:
290,256,62357,2,0,L|294:187,1,50,8|8,0:0|0:0,0:0:0:0:
317,162,62783,6,0,P|352:151|389:155,1,75,12|8,0:0|0:0,0:0:0:0:
460,132,63421,2,0,P|461:76|444:45,1,75,8|8,0:0|0:0,0:0:0:0:
380,46,64059,2,0,P|344:56|307:52,1,75,8|8,0:0|0:0,0:0:0:0:
236,25,64697,2,0,P|198:21|163:31,1,75,8|8,0:0|0:0,0:0:0:0:
92,56,65336,2,0,L|29:49,2,50,8|8|8,0:0|0:0|0:0,0:0:0:0:
161,127,66187,6,0,L|155:220,1,75,8|8,0:0|0:0,0:0:0:0:
98,249,66825,2,0,L|102:323,1,75,8|8,0:0|0:0,0:0:0:0:
158,374,67463,2,0,L|232:369,1,75,8|8,0:0|0:0,0:0:0:0:
286,316,68102,2,0,L|360:320,1,75,8|8,0:0|0:0,0:0:0:0:
435,325,68740,2,0,L|498:348,2,50,8|8|8,0:0|0:0|0:0,0:0:0:0:
402,230,69591,6,0,L|407:154,1,75,8|8,0:0|0:0,0:0:0:0:
361,95,70229,2,0,P|331:126|291:136,1,75,8|8,0:0|0:0,0:0:0:0:
226,141,70868,2,0,L|231:65,1,75,8|8,0:0|0:0,0:0:0:0:
185,9,71506,2,0,P|155:40|115:50,1,75,8|8,0:0|0:0,0:0:0:0:
50,48,72144,2,0,L|-3:14,2,50,8|8|8,0:0|0:0|0:0,0:0:0:0:
92,138,72995,6,0,B|102:179|102:179|94:225,1,75,8|8,0:0|0:0,0:0:0:0:
37,258,73634,2,0,B|31:290|31:290|41:331,1,75,8|8,0:0|0:0,0:0:0:0:
105,370,74272,2,0,B|137:375|137:375|178:365,1,75,8|8,0:0|0:0,0:0:0:0:
221,304,74910,2,0,B|262:294|262:294|308:302,1,75,8|0,0:0|0:0,0:0:0:0:
351,347,75548,2,0,L|390:377,2,50,8|8|8,0:0|0:0|0:0,0:0:0:0:
374,239,76400,6,0,L|383:129,1,100,6|4,0:0|0:0,0:0:0:0:
353,98,77038,2,0,L|366:42,2,50,2|12|2,0:0|0:0|0:0,0:0:0:0:
323,138,77676,2,0,L|204:132,1,100,6|4,0:0|0:0,0:0:0:0:
183,163,78314,2,0,L|71:190,1,100,2|0,0:0|0:0,0:0:0:0:
63,231,78953,2,0,L|52:298,2,50,12|2|6,0:0|0:0|0:0,0:0:0:0:
95,325,79804,6,0,P|149:314|199:329,1,100,6|4,0:0|0:0,0:0:0:0:
240,314,80442,2,0,P|285:282|337:277,1,100,2|2,0:0|0:0,0:0:0:0:
370,248,81080,2,0,L|382:148,1,100,6|4,0:0|0:0,0:0:0:0:
343,116,81719,2,0,P|294:107|254:77,1,100,2|0,0:0|0:0,0:0:0:0:
231,33,82357,2,0,L|165:37,1,50,12|0,0:0|0:0,0:0:0:0:
144,70,82783,1,6,0:0:0:0:
55,115,83208,6,0,L|42:238,1,100,6|4,0:0|0:0,0:0:0:0:
81,248,83846,2,0,P|126:216|178:211,1,100,2|0,0:0|0:0,0:0:0:0:
207,176,84485,2,0,P|255:184|295:214,1,100,6|0,0:0|0:0,0:0:0:0:
338,239,85123,2,0,L|449:235,1,100,2|0,0:0|0:0,0:0:0:0:
479,207,85761,2,0,L|517:158,2,50,12|2|6,0:0|0:0|0:0,0:0:0:0:
472,107,86612,6,0,B|427:80|427:80|371:91,1,100,6|4,0:0|0:0,0:0:0:0:
342,122,87251,2,0,B|297:149|297:149|241:138,1,100,2|0,0:0|0:0,0:0:0:0:
216,102,87889,2,0,B|171:75|171:75|115:86,1,100,6|4,0:0|0:0,0:0:0:0:
92,123,88527,2,0,B|101:169|101:169|74:214,1,100,2|0,0:0|0:0,0:0:0:0:
34,245,89165,2,0,L|24:309,1,50,12|2,0:0|0:0,0:0:0:0:
48,339,89591,1,6,0:0:0:0:
126,276,90017,6,0,L|238:283,1,100,6|6,0:0|0:0,0:0:0:0:
225,282,91506,1,6,0:0:0:0:
225,282,92783,2,0,L|285:286,2,50,6|6|6,0:0|0:0|0:0,0:0:0:0:
184,252,93421,2,0,P|155:204|154:109,1,150,6|0,0:0|0:0,0:0:0:0:
193,20,94485,2,0,L|307:15,1,100,0|6,0:0|0:0,0:0:0:0:
292,15,95761,6,0,L|358:23,1,50,6|0,0:0|0:0,0:0:0:0:
440,39,96400,1,6,0:0:0:0:
447,138,96825,2,0,P|460:206|479:241,1,100,6|6,0:0|0:0,0:0:0:0:
473,232,98102,6,0,L|468:298,1,50,0|6,0:0|0:0,0:0:0:0:
450,380,98740,2,0,P|405:353|340:356,1,100,0|0,0:0|0:0,0:0:0:0:
358,350,99804,6,0,L|152:328,1,200,6|0,0:0|0:0,0:0:0:0:
159,328,101506,1,0,0:0:0:0:
123,292,101719,2,0,P|96:214|76:196,1,100,6|0,0:0|0:0,0:0:0:0:
24,123,102570,1,8,0:0:0:0:
72,112,102783,2,0,P|132:91|166:62,1,100,8|8,0:0|0:3,0:0:0:0:
249,22,103634,6,0,B|398:72|398:72|408:126,1,200,6|8,0:0|0:0,0:0:0:0:
404,113,105123,2,0,B|383:181|463:234|412:320,1,200,2|0,0:0|0:0,0:0:0:0:
418,307,106825,1,2,0:0:0:0:
380,340,107038,2,0,L|318:351,1,50,2|0,0:0|0:0,0:0:0:0:
237,312,107676,2,0,L|136:304,1,100,2|0,0:0|0:0,0:0:0:0:
37,293,108527,1,2,0:0:0:0:
98,213,108953,1,0,0:0:0:0:
197,223,109378,6,0,P|256:203|286:169,1,100
321,84,110229,2,0,P|357:117|468:114,1,150,0|0,0:0|0:0,0:0:0:0:
453,121,111931,1,2,0:0:0:0:
453,121,113634,5,2,0:0:0:0:
461,170,113846,2,0,L|452:264,1,75,6|0,0:0|0:0,0:0:0:0:
420,312,114485,2,0,P|377:312|331:329,1,75,8|0,0:0|0:0,0:0:0:0:
293,374,115123,2,0,L|275:172,1,200,0|8,0:0|0:0,0:0:0:0:
248,132,116187,2,0,P|209:97|157:88,1,100,2|4,0:3|0:3,0:0:0:0:
163,87,118102,6,0,L|99:69,1,50,8|0,0:0|0:0,0:0:0:0:
18,47,118740,2,0,L|27:159,1,100,2|0,0:0|0:0,0:0:0:0:
120,179,119591,2,0,L|111:291,1,100,2|0,0:0|0:0,0:0:0:0:
198,329,120442,2,0,P|262:314|311:332,1,100,2|0,0:0|0:0,0:0:0:0:
386,360,121293,2,0,L|381:251,1,100,2|0,0:0|0:0,0:0:0:0:
454,191,122144,2,0,L|462:91,1,100,2|8,0:0|0:0,0:0:0:0:
417,1,122995,6,0,P|395:69|328:107,1,150,0|8,0:0|0:0,0:0:0:0:
230,120,124059,1,6,0:0:0:0:
230,120,124910,1,8,0:0:0:0:
201,161,125123,2,0,L|193:278,1,100,0|2,0:0|0:0,0:0:0:0:
241,348,125974,2,0,P|188:360|137:341,1,100,0|2,0:0|0:0,0:0:0:0:
96,259,126825,1,0,0:0:0:0:
106,159,127251,2,0,L|112:59,1,100,2|0,0:0|0:0,0:0:0:0:
207,27,128102,6,0,P|247:63|308:66,1,100,8|8,0:0|0:0,0:0:0:0:
376,18,128953,2,0,L|336:224,1,200,6|2,0:0|0:3,0:0:0:0:
295,241,130017,2,0,L|293:314,1,50,8|4,0:3|0:3,0:0:0:0:
269,334,130442,1,8,0:0:0:0:
174,299,130868,5,6,0:0:0:0:
174,299,133846,6,0,P|104:261|68:260,1,100,2|4,0:3|0:3,0:0:0:0:
6,197,134697,2,0,P|59:147|144:131,1,150,8|8,0:0|0:3,0:0:0:0:
183,126,135548,2,0,L|229:93,1,50,4|0,0:3|0:0,0:0:0:0:
273,89,135974,1,8,0:0:0:0:
273,89,136825,6,0,B|345:66|345:66|376:85,2,100,2|4|8,0:3|0:3|0:0,0:0:0:0:
267,188,138102,2,0,L|271:249,1,50,2|8,0:3|0:3,0:0:0:0:
327,320,138740,1,2,0:0:0:0:
369,229,139165,2,0,L|365:179,1,50,0|2,0:0|0:3,0:0:0:0:
455,135,139804,6,0,P|417:90|366:76,1,100,6|2,0:0|1:2,0:0:0:0:
289,119,140655,2,0,L|184:107,1,100,8|2,1:2|1:2,0:0:0:0:
144,130,141293,2,0,P|115:184|68:209,1,100,2|0,0:0|0:0,0:0:0:0:
48,110,142144,1,0,0:0:0:0:
112,33,142570,1,0,0:0:0:0:
112,33,143633,5,8,1:2:0:0:
210,51,144059,2,0,L|259:44,1,50,2|2,1:2|0:0,0:0:0:0:
350,86,144697,2,0,L|399:92,1,50,0|2,0:0|1:2,0:0:0:0:
474,158,145336,1,8,0:0:0:0:
379,190,145761,6,0,P|401:231|467:258,1,100,2|4,0:3|0:3,0:0:0:0:
494,344,146612,1,8,0:0:0:0:
394,339,147038,1,2,0:3:0:0:
294,334,147463,2,0,L|283:234,1,100,4|8,0:3|0:0,0:0:0:0:
287,134,148314,6,0,B|190:129|218:218|95:212,1,200,2|0,0:3|0:0,0:0:0:0:
30,153,149591,2,0,P|13:204|26:266,1,100,8|2,0:0|0:3,0:0:0:0:
97,311,150442,2,0,L|113:197,1,100,4|8,0:3|0:0,0:0:0:0:
121,112,151293,2,0,P|77:64|39:57,1,100,2|6,0:3|0:0,0:0:0:0:
30,153,152144,5,2,1:2:0:0:
110,211,152570,1,8,1:2:0:0:
191,268,152995,1,2,1:2:0:0:
291,264,153421,2,0,P|342:234|390:231,2,100,0|0|8,0:0|0:0|0:0,0:0:0:0:
191,268,154697,2,0,P|214:328|252:353,1,100,6|0,0:0|0:0,0:0:0:0:
331,310,155548,2,0,P|354:250|392:225,1,100,0|2,0:0|1:2,0:0:0:0:
472,188,156399,1,0,0:0:0:0:
472,188,157250,6,0,L|479:123,1,50,8|8,0:0|0:0,0:0:0:0:
453,94,157676,2,0,P|408:109|363:107,1,75,6|8,0:0|0:0,0:0:0:0:
318,67,158314,2,0,P|283:68|233:82,1,75,8|8,0:0|0:0,0:0:0:0:
212,145,158952,2,0,L|205:243,1,75,8|8,0:0|0:0,0:0:0:0:
175,288,159590,2,0,P|106:267|85:271,1,75,8|8,0:0|0:0,0:0:0:0:
37,300,160229,2,0,L|16:361,2,50,8|8|8,0:0|0:0|0:0,0:0:0:0:
37,199,161080,6,0,L|27:107,1,75,8|8,0:0|0:0,0:0:0:0:
46,51,161718,2,0,P|86:38|135:50,1,75,8|8,0:0|0:0,0:0:0:0:
173,92,162356,2,0,L|264:80,1,75,8|8,0:0|0:0,0:0:0:0:
314,49,162995,2,0,P|368:64|406:64,1,75,8|8,0:0|0:0,0:0:0:0:
461,53,163633,2,0,L|488:-7,2,50,8|8|8,0:0|0:0|0:0,0:0:0:0:
433,149,164484,6,0,B|443:186|443:186|426:240,1,75,8|8,0:0|0:0,0:0:0:0:
378,273,165122,2,0,L|289:266,1,75,8|8,0:0|0:0,0:0:0:0:
242,311,165761,2,0,B|207:322|207:322|170:312,1,75,8|8,0:0|0:0,0:0:0:0:
109,266,166399,2,0,L|105:188,1,75,8|8,0:0|0:0,0:0:0:0:
144,127,167037,2,0,L|129:68,1,50,8|8,0:0|0:0,0:0:0:0:
142,29,167463,1,8,0:0:0:0:
233,68,167888,6,0,L|319:61,1,75,8|8,0:0|0:0,0:0:0:0:
380,80,168527,2,0,P|409:129|411:165,1,75,8|8,0:0|0:0,0:0:0:0:
392,218,169165,2,0,L|402:305,1,75,8|8,0:0|0:0,0:0:0:0:
363,357,169803,2,0,P|323:344|273:347,1,75,8|8,0:0|0:0,0:0:0:0:
216,357,170441,2,0,L|149:346,1,50,8|8,0:0|0:0,0:0:0:0:
116,356,170867,1,8,0:0:0:0:
127,256,171293,6,0,P|110:186|86:150,1,100,6|4,0:0|0:0,0:0:0:0:
88,112,171931,2,0,L|39:94,2,50,2|12|2,0:0|0:0|0:0,0:0:0:0:
134,94,172569,2,0,P|207:83|237:68,1,100,6|4,0:0|0:0,0:0:0:0:
278,83,173207,2,0,P|280:132|308:173,1,100,2|0,0:0|0:0,0:0:0:0:
324,220,173846,2,0,L|319:288,2,50,12|2|6,0:0|0:0|0:0,0:0:0:0:
405,161,174697,6,0,P|452:125|476:70,1,100,6|4,0:0|0:0,0:0:0:0:
450,44,175335,2,0,L|344:28,1,100,2|2,0:0|0:0,0:0:0:0:
307,53,175973,2,0,P|216:69|194:62,1,100,6|4,0:0|0:0,0:0:0:0:
170,38,176612,2,0,L|64:58,1,100,2|0,0:0|0:0,0:0:0:0:
32,87,177250,2,0,L|11:144,1,50,12|2,0:0|0:0,0:0:0:0:
15,183,177676,1,6,0:0:0:0:
110,153,178101,6,0,P|141:205|144:257,1,100,6|4,0:0|0:0,0:0:0:0:
129,290,178739,2,0,P|190:287|235:318,1,100,2|2,0:0|0:0,0:0:0:0:
249,262,179378,2,0,L|246:159,1,100,6|4,0:0|0:0,0:0:0:0:
285,130,180016,2,0,P|328:154|384:159,1,100,2|0,0:0|0:0,0:0:0:0:
419,132,180654,2,0,L|462:87,2,50,12|0|6,0:0|0:0|0:0,0:0:0:0:
443,228,181505,6,0,L|436:329,1,100,6|4,0:0|0:0,0:0:0:0:
390,347,182144,2,0,P|321:332|283:348,1,100,2|2,0:0|0:0,0:0:0:0:
255,309,182782,2,0,B|211:282|211:282|151:286,1,100,6|4,0:0|0:0,0:0:0:0:
126,250,183420,2,0,P|113:192|83:161,1,100,2|0,0:0|0:0,0:0:0:0:
56,123,184058,2,0,L|64:59,2,50,12|2|6,0:0|0:0|0:0,0:0:0:0:
86,163,184697,5,2,0:0:0:0:
