osu file format v14

[General]
AudioFilename: audio.mp3
AudioLeadIn: 0
PreviewTime: 92013
Countdown: 0
SampleSet: Normal
StackLeniency: 0.3
Mode: 0
LetterboxInBreaks: 0
WidescreenStoryboard: 1

[Editor]
Bookmarks: 825
DistanceSpacing: 1.1
BeatDivisor: 4
GridSize: 4
TimelineZoom: 2.999999

[Metadata]
Title:Frozen One
TitleUnicode:Frozen One
Artist:Dance Gavin Dance
ArtistUnicode:Dance Gavin Dance
Creator:Bergy
Version:Tragic Life Normal
Source:
Tags:
BeatmapID:1478431
BeatmapSetID:692346

[Difficulty]
HPDrainRate:3.3
CircleSize:3.3
OverallDifficulty:3.8
ApproachRate:3.8
SliderMultiplier:1
SliderTickRate:1

[Events]
//Background and Video events
0,0,"bg.jpg",0,0
//Break Periods
//Storyboard Layer 0 (Background)
//Storyboard Layer 1 (Fail)
//Storyboard Layer 2 (Pass)
//Storyboard Layer 3 (Foreground)
Sprite,Foreground,Centre,"sb/blur.jpg",0,0 S,0,0,,0.4488889 F,0,0,,0.7 M,8,225,,318.16,239.81 M,8,225,262,318.16,239.81,318.2742,239.7592 M,8,262,300,318.2742,239.7592,318.3885,239.7085 M,8,300,337,318.3885,239.7085,318.5027,239.6577 M,8,337,375,318.5027,239.6577,318.6175,239.6108 M,8,375,412,318.6175,239.6108,318.7418,239.6244 M,8,412,450,318.7418,239.6244,318.866,239.6379 M,8,450,487,318.866,239.6379,318.9903,239.6515 M,8,487,525,318.9903,239.6515,319.1146,239.665 M,8,225,825,319.1146,239.665,320.18,239.94 M,8,825,862,320.18,239.94,320.3049,239.9358 M,8,862,900,320.3049,239.9358,320.4299,239.9317 M,8,900,937,320.4299,239.9317,320.5548,239.9275 M,8,937,975,320.5548,239.9275,320.6797,239.9233 M,8,975,1012,320.6797,239.9233,320.803,239.9111 M,8,1012,1050,320.803,239.9111,320.9197,239.8663 M,8,1050,1087,320.9197,239.8663,321.0363,239.8214 M,8,1087,1125,321.0363,239.8214,321.161,239.8151 M,8,1125,1162,321.161,239.8151,321.2859,239.81 M,8,1162,1200,321.2859,239.81,321.4108,239.805 M,8,1200,1237,321.4108,239.805,321.5357,239.7999 M,8,1237,1275,321.5357,239.7999,321.6606,239.7948 M,8,1275,1312,321.6606,239.7948,321.5357,239.7999 M,8,1312,1350,321.5357,239.7999,321.4108,239.805 M,8,1350,1387,321.4108,239.805,321.2859,239.81 M,8,1387,1425,321.2859,239.81,321.161,239.8151 M,8,1425,1462,321.161,239.8151,321.0363,239.8214 M,8,1462,1500,321.0363,239.8214,320.9197,239.8663 M,8,1500,1537,320.9197,239.8663,320.803,239.9111 M,8,1537,1575,320.803,239.9111,320.6797,239.9233 M,8,1575,1612,320.6797,239.9233,320.5548,239.9275 M,8,1612,1650,320.5548,239.9275,320.4299,239.9317 M,8,1650,1687,320.4299,239.9317,320.3049,239.9358 M,8,1687,1725,320.3049,239.9358,320.18,239.94 M,8,825,2025,320.18,239.94,319.37,240.69 M,8,2025,2062,319.37,240.69,319.3192,240.8042 M,8,2062,2100,319.3192,240.8042,319.2685,240.9185 M,8,2100,2137,319.2685,240.9185,319.2177,241.0327 M,8,2137,2175,319.2177,241.0327,319.1708,241.1475 M,8,2175,2212,319.1708,241.1475,319.1844,241.2718 M,8,2212,2250,319.1844,241.2718,319.1979,241.396 M,8,2250,2287,319.1979,241.396,319.2115,241.5203 M,8,2287,2325,319.2115,241.5203,319.225,241.6446 M,8,2025,2625,319.225,241.6446,320.25,241.24 M,8,2625,2662,320.25,241.24,320.3748,241.2339 M,8,2662,2700,320.3748,241.2339,320.4997,241.2279 M,8,2700,2737,320.4997,241.2279,320.6246,241.2218 M,8,2737,2775,320.6246,241.2218,320.7494,241.2158 M,8,2775,2812,320.7494,241.2158,320.8743,241.2097 M,8,2812,2850,320.8743,241.2097,320.9991,241.2036 M,8,2850,2887,320.9991,241.2036,321.124,241.1976 M,8,2887,2925,321.124,241.1976,321.2488,241.1915 M,8,2625,3225,321.2488,241.1915,322.31,241.45 M,8,3225,3262,322.31,241.45,322.3505,241.3317 M,8,3262,3300,322.3505,241.3317,322.391,241.2135 M,8,3300,3337,322.391,241.2135,322.4315,241.0952 M,8,3337,3375,322.4315,241.0952,322.472,240.977 M,8,3375,3412,322.472,240.977,322.5125,240.8587 M,8,3412,3450,322.5125,240.8587,322.553,240.7404 M,8,3450,3487,322.553,240.7404,322.5526,240.6169 M,8,3487,3525,322.5526,240.6169,322.5437,240.4922 M,8,3525,3562,322.5437,240.4922,322.5348,240.3675 M,8,3562,3600,322.5348,240.3675,322.5259,240.2428 M,8,3600,3637,322.5259,240.2428,322.517,240.1181 M,8,3637,3675,322.517,240.1181,322.5081,239.9935 M,8,3675,3712,322.5081,239.9935,322.517,240.1181 M,8,3712,3750,322.517,240.1181,322.5259,240.2428 M,8,3750,3787,322.5259,240.2428,322.5348,240.3675 M,8,3787,3825,322.5348,240.3675,322.5437,240.4922 M,8,3825,3862,322.5437,240.4922,322.5526,240.6169 M,8,3862,3900,322.5526,240.6169,322.553,240.7404 M,8,3900,3937,322.553,240.7404,322.5125,240.8587 M,8,3937,3975,322.5125,240.8587,322.472,240.977 M,8,3975,4012,322.472,240.977,322.4315,241.0952 M,8,4012,4050,322.4315,241.0952,322.391,241.2135 M,8,4050,4087,322.391,241.2135,322.3505,241.3317 M,8,4087,4125,322.3505,241.3317,322.31,241.45 M,8,3225,4425,322.31,241.45,321.25,241.19 M,8,4425,4462,321.25,241.19,321.1992,241.0758 M,8,4462,4500,321.1992,241.0758,321.1485,240.9615 M,8,4500,4537,321.1485,240.9615,321.0977,240.8473 M,8,4537,4575,321.0977,240.8473,321.0508,240.7325 M,8,4575,4612,321.0508,240.7325,321.0644,240.6082 M,8,4612,4650,321.0644,240.6082,321.0779,240.484 M,8,4650,4687,321.0779,240.484,321.0915,240.3597 M,8,4687,4725,321.0915,240.3597,321.105,240.2354 M,8,4425,5025,321.105,240.2354,320.43,239.36 M,8,5025,5062,320.43,239.36,320.3054,239.3497 M,8,5062,5100,320.3054,239.3497,320.1808,239.3394 M,8,5100,5137,320.1808,239.3394,320.0563,239.3291 M,8,5137,5175,320.0563,239.3291,319.9317,239.3189 M,8,5175,5212,319.9317,239.3189,319.8071,239.3086 M,8,5212,5250,319.8071,239.3086,319.6826,239.2983 M,8,5250,5287,319.6826,239.2983,319.558,239.288 M,8,5287,5325,319.558,239.288,319.4334,239.2777 M,8,5025,5625,319.4334,239.2777,318.41,239.69 M,8,5625,5925,318.41,239.69,318.41,240.79 M,8,5925,6225,318.41,240.79,319.35,240.22 M,8,6225,6262,319.35,240.22,319.4741,240.2051 M,8,6262,6300,319.4741,240.2051,319.5982,240.1902 M,8,6300,6337,319.5982,240.1902,319.7223,240.1753 M,8,6337,6375,319.7223,240.1753,319.8464,240.1604 M,8,6375,6412,319.8464,240.1604,319.9609,240.2093 M,8,6412,6450,319.9609,240.2093,320.0752,240.2601 M,8,6450,6487,320.0752,240.2601,320.1894,240.3109 M,8,6487,6525,320.1894,240.3109,320.3,240.36 M,8,6525,6562,320.3,240.36,320.1894,240.3109 M,8,6562,6600,320.1894,240.3109,320.0752,240.2601 M,8,6600,6637,320.0752,240.2601,319.9609,240.2093 M,8,6637,6675,319.9609,240.2093,319.8464,240.1604 M,8,6675,6712,319.8464,240.1604,319.7223,240.1753 M,8,6712,6750,319.7223,240.1753,319.5982,240.1902 M,8,6750,6787,319.5982,240.1902,319.4741,240.2051 M,8,6787,6825,319.4741,240.2051,319.35,240.22 M,8,6225,7125,319.35,240.22,319.35,241.32 M,8,7125,7425,319.35,241.32,320.41,241.58 M,8,7425,7462,320.41,241.58,320.5347,241.5717 M,8,7462,7500,320.5347,241.5717,320.6595,241.5634 M,8,7500,7537,320.6595,241.5634,320.7842,241.5551 M,8,7537,7575,320.7842,241.5551,320.9088,241.5538 M,8,7575,7612,320.9088,241.5538,321.0335,241.5574 M,8,7612,7650,321.0335,241.5574,321.1583,241.5501 M,8,7650,7687,321.1583,241.5501,321.2831,241.5428 M,8,7687,7725,321.2831,241.5428,321.4079,241.5354 M,8,7425,8025,321.4079,241.5354,322.36,240.99 M,8,8025,8325,322.36,240.99,322.36,239.89 M,8,8325,8625,322.36,239.89,321.42,240.46 M,8,8625,8662,321.42,240.46,321.2956,240.4722 M,8,8662,8700,321.2956,240.4722,321.1712,240.4844 M,8,8700,8737,321.1712,240.4844,321.0468,240.4966 M,8,8737,8775,321.0468,240.4966,320.9224,240.5088 M,8,8775,8812,320.9224,240.5088,320.8072,240.4643 M,8,8812,8850,320.8072,240.4643,320.6929,240.4135 M,8,8850,8887,320.6929,240.4135,320.5787,240.3627 M,8,8887,8925,320.5787,240.3627,320.4645,240.312 M,8,8925,8962,320.4645,240.312,320.5787,240.3627 M,8,8962,9000,320.5787,240.3627,320.6929,240.4135 M,8,9000,9037,320.6929,240.4135,320.8072,240.4643 M,8,9037,9075,320.8072,240.4643,320.9224,240.5088 M,8,9075,9112,320.9224,240.5088,321.0468,240.4966 M,8,9112,9150,321.0468,240.4966,321.1712,240.4844 M,8,9150,9187,321.1712,240.4844,321.2956,240.4722 M,8,9187,9225,321.2956,240.4722,321.42,240.46 M,8,8625,9525,321.42,240.46,321.42,239.36 M,8,9525,9825,321.42,239.36,320.54,238.68 M,8,9825,9862,320.54,238.68,320.4153,238.6883 M,8,9862,9900,320.4153,238.6883,320.2906,238.6966 M,8,9900,9937,320.2906,238.6966,320.1658,238.7049 M,8,9937,9975,320.1658,238.7049,320.0411,238.7062 M,8,9975,10012,320.0411,238.7062,319.9165,238.7026 M,8,10012,10050,319.9165,238.7026,319.7917,238.7099 M,8,10050,10087,319.7917,238.7099,319.6669,238.7172 M,8,10087,10125,319.6669,238.7172,319.5421,238.7246 M,8,9825,10425,319.5421,238.7246,318.66,239.38 M,8,10425,10462,318.66,239.38,318.6344,239.5023 M,8,10462,10500,318.6344,239.5023,318.6088,239.6247 M,8,10500,10537,318.6088,239.6247,318.5833,239.7471 M,8,10537,10575,318.5833,239.7471,318.5577,239.8694 M,8,10575,10612,318.5577,239.8694,318.5321,239.9918 M,8,10612,10650,318.5321,239.9918,318.5065,240.1141 M,8,10650,10687,318.5065,240.1141,318.4809,240.2365 M,8,10687,10725,318.4809,240.2365,318.4553,240.3588 M,8,10725,10762,318.4553,240.3588,318.4303,240.4812 M,8,10762,10800,318.4303,240.4812,318.464,240.6015 M,8,10800,10837,318.464,240.6015,318.4977,240.7219 M,8,10837,10875,318.4977,240.7219,318.5314,240.8423 M,8,10875,10912,318.5314,240.8423,318.4977,240.7219 M,8,10912,10950,318.4977,240.7219,318.464,240.6015 M,8,10950,10987,318.464,240.6015,318.4303,240.4812 M,8,10987,11025,318.4303,240.4812,318.4553,240.3588 M,8,11025,11062,318.4553,240.3588,318.4809,240.2365 M,8,11062,11100,318.4809,240.2365,318.5065,240.1141 M,8,11100,11137,318.5065,240.1141,318.5321,239.9918 M,8,11137,11175,318.5321,239.9918,318.5577,239.8694 M,8,11175,11212,318.5577,239.8694,318.5833,239.7471 M,8,11212,11250,318.5833,239.7471,318.6088,239.6247 M,8,11250,11287,318.6088,239.6247,318.6344,239.5023 M,8,11287,11325,318.6344,239.5023,318.66,239.38 M,8,10425,11625,318.66,239.38,319.68,239.77 M,8,11625,11662,319.68,239.77,319.7942,239.8208 M,8,11662,11700,319.7942,239.8208,319.9084,239.8715 M,8,11700,11737,319.9084,239.8715,320.0227,239.9223 M,8,11737,11775,320.0227,239.9223,320.1375,239.9692 M,8,11775,11812,320.1375,239.9692,320.2618,239.9556 M,8,11812,11850,320.2618,239.9556,320.386,239.9421 M,8,11850,11887,320.386,239.9421,320.5103,239.9285 M,8,11887,11925,320.5103,239.9285,320.6346,239.915 M,8,11625,12225,320.6346,239.915,321.63,239.44 M,8,12225,12262,321.63,239.44,321.6237,239.5648 M,8,12262,12300,321.6237,239.5648,321.6173,239.6897 M,8,12300,12337,321.6173,239.6897,321.611,239.8145 M,8,12337,12375,321.611,239.8145,321.6046,239.9394 M,8,12375,12412,321.6046,239.9394,321.5983,240.0642 M,8,12412,12450,321.5983,240.0642,321.5919,240.189 M,8,12450,12487,321.5919,240.189,321.5856,240.3139 M,8,12487,12525,321.5856,240.3139,321.5792,240.4387 M,8,12225,12825,321.5792,240.4387,320.89,241.3 M,8,12825,12862,320.89,241.3,321.004,241.2486 M,8,12862,12900,321.004,241.2486,321.1179,241.1973 M,8,12900,12937,321.1179,241.1973,321.2319,241.1459 M,8,12937,12975,321.2319,241.1459,321.3458,241.0945 M,8,12975,13012,321.3458,241.0945,321.4598,241.0432 M,8,13012,13050,321.4598,241.0432,321.5738,240.9918 M,8,13050,13087,321.5738,240.9918,321.6948,240.9967 M,8,13087,13125,321.6948,240.9967,321.8179,241.0183 M,8,13125,13162,321.8179,241.0183,321.941,241.0399 M,8,13162,13200,321.941,241.0399,322.0641,241.0616 M,8,13200,13237,322.0641,241.0616,322.1872,241.0833 M,8,13237,13275,322.1872,241.0833,322.3103,241.1049 M,8,13275,13312,322.3103,241.1049,322.1872,241.0833 M,8,13312,13350,322.1872,241.0833,322.0641,241.0616 M,8,13350,13387,322.0641,241.0616,321.941,241.0399 M,8,13387,13425,321.941,241.0399,321.8179,241.0183 M,8,13425,13462,321.8179,241.0183,321.6948,240.9967 M,8,13462,13500,321.6948,240.9967,321.5738,240.9918 M,8,13500,13537,321.5738,240.9918,321.4598,241.0432 M,8,13537,13575,321.4598,241.0432,321.3458,241.0945 M,8,13575,13612,321.3458,241.0945,321.2319,241.1459 M,8,13612,13650,321.2319,241.1459,321.1179,241.1973 M,8,13650,13687,321.1179,241.1973,321.004,241.2486 M,8,13687,13725,321.004,241.2486,320.89,241.3 M,8,12825,14025,320.89,241.3,319.91,241.82 M,8,14025,14062,319.91,241.82,319.7853,241.8117 M,8,14062,14100,319.7853,241.8117,319.6606,241.8034 M,8,14100,14137,319.6606,241.8034,319.5358,241.7951 M,8,14137,14175,319.5358,241.7951,319.4111,241.7867 M,8,14175,14212,319.4111,241.7867,319.2864,241.7784 M,8,14212,14250,319.2864,241.7784,319.1617,241.7701 M,8,14250,14287,319.1617,241.7701,319.0369,241.7618 M,8,14287,14325,319.0369,241.7618,318.9122,241.7535 M,8,14025,14625,318.9122,241.7535,318.2,240.9 M,8,14625,14662,318.2,240.9,318.2083,240.7753 M,8,14662,14700,318.2083,240.7753,318.2166,240.6506 M,8,14700,14737,318.2166,240.6506,318.2249,240.5258 M,8,14737,14775,318.2249,240.5258,318.2262,240.4011 M,8,14775,14812,318.2262,240.4011,318.2226,240.2765 M,8,14812,14850,318.2226,240.2765,318.2299,240.1517 M,8,14850,14887,318.2299,240.1517,318.2372,240.0269 M,8,14887,14925,318.2372,240.0269,318.2446,239.9021 M,8,14625,15225,318.2446,239.9021,318.84,238.97 M,8,15225,15525,318.84,238.97,319.94,238.97 M,8,15525,15825,319.94,238.97,319.37,239.91 M,8,15825,15862,319.37,239.91,319.3551,240.0341 M,8,15862,15900,319.3551,240.0341,319.3402,240.1582 M,8,15900,15937,319.3402,240.1582,319.3253,240.2823 M,8,15937,15975,319.3253,240.2823,319.3104,240.4064 M,8,15975,16012,319.3104,240.4064,319.3593,240.521 M,8,16012,16050,319.3593,240.521,319.4101,240.6352 M,8,16050,16087,319.4101,240.6352,319.4608,240.7494 M,8,16087,16125,319.4608,240.7494,319.51,240.86 M,8,16125,16162,319.51,240.86,319.4608,240.7494 M,8,16162,16200,319.4608,240.7494,319.4101,240.6352 M,8,16200,16237,319.4101,240.6352,319.3593,240.521 M,8,16237,16275,319.3593,240.521,319.3104,240.4064 M,8,16275,16312,319.3104,240.4064,319.3253,240.2823 M,8,16312,16350,319.3253,240.2823,319.3402,240.1582 M,8,16350,16387,319.3402,240.1582,319.3551,240.0341 M,8,16387,16425,319.3551,240.0341,319.37,239.91 M,8,15825,16725,319.37,239.91,320.47,239.91 M,8,16725,17025,320.47,239.91,320.41,241 M,8,17025,17062,320.41,241,320.404,241.1249 M,8,17062,17100,320.404,241.1249,320.398,241.2497 M,8,17100,17137,320.398,241.2497,320.392,241.3746 M,8,17137,17175,320.392,241.3746,320.386,241.4994 M,8,17175,17212,320.386,241.4994,320.38,241.6243 M,8,17212,17250,320.38,241.6243,320.374,241.7491 M,8,17250,17287,320.374,241.7491,320.368,241.874 M,8,17287,17325,320.368,241.874,320.362,241.9988 M,8,17025,17625,320.362,241.9988,319.31,241.64 M,8,17625,17662,319.31,241.64,319.1851,241.6358 M,8,17662,17700,319.1851,241.6358,319.0602,241.6317 M,8,17700,17737,319.0602,241.6317,318.9352,241.6275 M,8,17737,17775,318.9352,241.6275,318.8103,241.6233 M,8,17775,17812,318.8103,241.6233,318.687,241.6111 M,8,17812,17850,318.687,241.6111,318.5703,241.5663 M,8,17850,17887,318.5703,241.5663,318.4536,241.5214 M,8,17887,17925,318.4536,241.5214,318.329,241.5151 M,8,17925,17962,318.329,241.5151,318.2041,241.51 M,8,17962,18000,318.2041,241.51,318.0792,241.505 M,8,18000,18037,318.0792,241.505,317.9543,241.4999 M,8,18037,18075,317.9543,241.4999,317.8294,241.4948 M,8,18075,18112,317.8294,241.4948,317.9543,241.4999 M,8,18112,18150,317.9543,241.4999,318.0792,241.505 M,8,18150,18187,318.0792,241.505,318.2041,241.51 M,8,18187,18225,318.2041,241.51,318.329,241.5151 M,8,18225,18262,318.329,241.5151,318.4536,241.5214 M,8,18262,18300,318.4536,241.5214,318.5703,241.5663 M,8,18300,18337,318.5703,241.5663,318.687,241.6111 M,8,18337,18375,318.687,241.6111,318.8103,241.6233 M,8,18375,18412,318.8103,241.6233,318.9352,241.6275 M,8,18412,18450,318.9352,241.6275,319.0602,241.6317 M,8,18450,18487,319.0602,241.6317,319.1851,241.6358 M,8,18487,18525,319.1851,241.6358,319.31,241.64 M,8,17625,18825,319.31,241.64,318.93,240.6 M,8,18825,18862,318.93,240.6,318.9407,240.4755 M,8,18862,18900,318.9407,240.4755,318.9514,240.3509 M,8,18900,18937,318.9514,240.3509,318.962,240.2264 M,8,18937,18975,318.962,240.2264,318.9727,240.1018 M,8,18975,19012,318.9727,240.1018,318.9834,239.9773 M,8,19012,19050,318.9834,239.9773,318.994,239.8527 M,8,19050,19087,318.994,239.8527,319.0047,239.7282 M,8,19087,19125,319.0047,239.7282,319.0154,239.6037 M,8,18825,19425,319.0154,239.6037,318.5,238.63 M,8,19425,19462,318.5,238.63,318.6191,238.592 M,8,19462,19500,318.6191,238.592,318.7398,238.5598 M,8,19500,19537,318.7398,238.5598,318.8624,238.5352 M,8,19537,19575,318.8624,238.5352,318.9865,238.5208 M,8,19575,19612,318.9865,238.5208,319.1114,238.5196 M,8,19612,19650,319.1114,238.5196,319.2354,238.5345 M,8,19650,19687,319.2354,238.5345,319.3564,238.5654 M,8,19687,19725,319.3564,238.5654,319.4744,238.6067 M,8,19725,19762,319.4744,238.6067,319.5923,238.6483 M,8,19762,19800,319.5923,238.6483,319.7132,238.6799 M,8,19800,19837,319.7132,238.6799,319.8371,238.6954 M,8,19837,19875,319.8371,238.6954,319.962,238.6946 M,8,19875,19912,319.962,238.6946,320.0861,238.6801 M,8,19912,19950,320.0861,238.6801,320.2086,238.6553 M,8,19950,19987,320.2086,238.6553,320.3292,238.6227 M,8,19987,20025,320.3292,238.6227,320.4482,238.5841 M,8,19425,20325,320.4482,238.5841,321.47,238.18 M,8,20325,20625,321.47,238.18,322.11,239.07 M,8,20625,20662,322.11,239.07,322.1284,239.1936 M,8,20662,20700,322.1284,239.1936,322.1469,239.3173 M,8,20700,20737,322.1469,239.3173,322.1653,239.4409 M,8,20737,20775,322.1653,239.4409,322.1837,239.5645 M,8,20775,20812,322.1837,239.5645,322.2022,239.6882 M,8,20812,20850,322.2022,239.6882,322.2206,239.8118 M,8,20850,20887,322.2206,239.8118,322.239,239.9354 M,8,20887,20925,322.239,239.9354,322.2575,240.0591 M,8,20625,21225,322.2575,240.0591,321.46,240.82 M,8,21225,21262,321.46,240.82,321.3387,240.8495 M,8,21262,21300,321.3387,240.8495,321.2155,240.8696 M,8,21300,21337,321.2155,240.8696,321.0908,240.8729 M,8,21337,21375,321.0908,240.8729,320.9662,240.8661 M,8,21375,21412,320.9662,240.8661,320.8436,240.843 M,8,21412,21450,320.8436,240.843,320.7235,240.8096 M,8,21450,21487,320.7235,240.8096,320.6085,240.7612 M,8,21487,21525,320.6085,240.7612,320.4984,240.7028 M,8,21225,21825,320.4984,240.7028,319.77,239.87 M,8,21825,21862,319.77,239.87,319.6452,239.8777 M,8,21862,21900,319.6452,239.8777,319.5205,239.8853 M,8,21900,21937,319.5205,239.8853,319.3957,239.893 M,8,21937,21975,319.3957,239.893,319.2709,239.9007 M,8,21975,22012,319.2709,239.9007,319.1462,239.9083 M,8,22012,22050,319.1462,239.9083,319.0214,239.916 M,8,22050,22087,319.0214,239.916,318.8966,239.9236 M,8,22087,22125,318.8966,239.9236,318.7719,239.9313 M,8,22125,22162,318.7719,239.9313,318.8966,239.9236 M,8,22162,22200,318.8966,239.9236,319.0214,239.916 M,8,22200,22237,319.0214,239.916,319.1462,239.9083 M,8,22237,22275,319.1462,239.9083,319.2709,239.9007 M,8,22275,22312,319.2709,239.9007,319.3957,239.893 M,8,22312,22350,319.3957,239.893,319.5205,239.8853 M,8,22350,22387,319.5205,239.8853,319.6452,239.8777 M,8,22387,22425,319.6452,239.8777,319.77,239.87 M,8,21825,22725,319.77,239.87,320.47,239.02 M,8,22725,23025,320.47,239.02,319.53,238.44 M,8,23025,23062,319.53,238.44,319.4087,238.4105 M,8,23062,23100,319.4087,238.4105,319.2856,238.3904 M,8,23100,23137,319.2856,238.3904,319.1608,238.3871 M,8,23137,23175,319.1608,238.3871,319.0362,238.3939 M,8,23175,23212,319.0362,238.3939,318.9136,238.417 M,8,23212,23250,318.9136,238.417,318.7935,238.4504 M,8,23250,23287,318.7935,238.4504,318.6785,238.4988 M,8,23287,23325,318.6785,238.4988,318.5684,238.5572 M,8,23025,23625,318.5684,238.5572,317.94,239.46 M,8,23625,23662,317.94,239.46,317.9477,239.5848 M,8,23662,23700,317.9477,239.5848,317.9553,239.7095 M,8,23700,23737,317.9553,239.7095,317.963,239.8343 M,8,23737,23775,317.963,239.8343,317.9706,239.9591 M,8,23775,23812,317.9706,239.9591,317.9783,240.0838 M,8,23812,23850,317.9783,240.0838,317.986,240.2086 M,8,23850,23887,317.986,240.2086,317.9936,240.3334 M,8,23887,23925,317.9936,240.3334,318.0013,240.4581 M,8,23625,24225,318.0013,240.4581,318.59,241.38 M,8,24225,24262,318.59,241.38,318.4787,241.4365 M,8,24262,24300,318.4787,241.4365,318.3627,241.4822 M,8,24300,24337,318.3627,241.4822,318.243,241.5169 M,8,24337,24375,318.243,241.5169,318.1199,241.537 M,8,24375,24412,318.1199,241.537,317.9956,241.5457 M,8,24412,24450,317.9956,241.5457,317.871,241.5394 M,8,24450,24487,317.871,241.5394,317.7477,241.5217 M,8,24487,24525,317.7477,241.5217,317.6264,241.4918 M,8,24525,24562,317.6264,241.4918,317.7477,241.5217 M,8,24562,24600,317.7477,241.5217,317.871,241.5394 M,8,24600,24637,317.871,241.5394,317.9956,241.5457 M,8,24637,24675,317.9956,241.5457,318.1199,241.537 M,8,24675,24712,318.1199,241.537,318.243,241.5169 M,8,24712,24750,318.243,241.5169,318.3627,241.4822 M,8,24750,24787,318.3627,241.4822,318.4787,241.4365 M,8,24787,24825,318.4787,241.4365,318.59,241.38 M,8,24225,25125,318.59,241.38,319.11,240.41 M,8,25125,25162,319.11,240.41,319.2148,240.4778 M,8,25162,25200,319.2148,240.4778,319.3144,240.5531 M,8,25200,25237,319.3144,240.5531,319.4026,240.6414 M,8,25237,25275,319.4026,240.6414,319.4842,240.7359 M,8,25275,25312,319.4842,240.7359,319.5518,240.8408 M,8,25312,25350,319.5518,240.8408,319.6116,240.9504 M,8,25350,25387,319.6116,240.9504,319.6557,241.0671 M,8,25387,25425,319.6557,241.0671,319.69,241.18 M,8,25425,25462,319.69,241.18,319.6557,241.0671 M,8,25462,25500,319.6557,241.0671,319.6116,240.9504 M,8,25500,25537,319.6116,240.9504,319.5518,240.8408 M,8,25537,25575,319.5518,240.8408,319.4842,240.7359 M,8,25575,25612,319.4842,240.7359,319.4026,240.6414 M,8,25612,25650,319.4026,240.6414,319.3144,240.5531 M,8,25650,25687,319.3144,240.5531,319.2148,240.4778 M,8,25687,25725,319.2148,240.4778,319.11,240.41 M,8,25125,26025,319.11,240.41,318,240.44 M,8,26025,26062,318,240.44,318.0046,240.3153 M,8,26062,26100,318.0046,240.3153,318.0212,240.1917 M,8,26100,26137,318.0212,240.1917,318.0493,240.0703 M,8,26137,26175,318.0493,240.0703,318.092,239.9531 M,8,26175,26212,318.092,239.9531,318.1453,239.8405 M,8,26212,26250,318.1453,239.8405,318.2121,239.7351 M,8,26250,26287,318.2121,239.7351,318.2881,239.6364 M,8,26287,26325,318.2881,239.6364,318.3741,239.5458 M,8,26025,26475,318.3741,239.5458,318.86,239.27 M,8,26475,26512,318.86,239.27,318.9845,239.2813 M,8,26512,26550,318.9845,239.2813,319.109,239.2925 M,8,26550,26587,319.109,239.2925,319.2335,239.3037 M,8,26587,26625,319.2335,239.3037,319.358,239.315 M,8,26625,26662,319.358,239.315,319.4825,239.3262 M,8,26662,26700,319.4825,239.3262,319.607,239.3375 M,8,26700,26737,319.607,239.3375,319.7314,239.3487 M,8,26737,26775,319.7314,239.3487,319.856,239.36 M,8,26775,26812,319.856,239.36,319.9804,239.3712 M,8,26812,26850,319.9804,239.3712,320.1049,239.3824 M,8,26850,26887,320.1049,239.3824,320.2294,239.3937 M,8,26887,26925,320.2294,239.3937,320.3539,239.4049 M,8,26475,27225,320.3539,239.4049,321.3,239.96 M,8,27225,27262,321.3,239.96,321.3498,240.0744 M,8,27262,27300,321.3498,240.0744,321.3905,240.1924 M,8,27300,27337,321.3905,240.1924,321.4146,240.3148 M,8,27337,27375,321.4146,240.3148,321.4286,240.4388 M,8,27375,27412,321.4286,240.4388,321.426,240.5635 M,8,27412,27450,321.426,240.5635,321.4126,240.6875 M,8,27450,27487,321.4126,240.6875,321.3834,240.8088 M,8,27487,27525,321.3834,240.8088,321.3432,240.9267 M,8,27225,27825,321.3432,240.9267,320.5,241.62 M,8,27825,27862,320.5,241.62,320.3755,241.6308 M,8,27862,27900,320.3755,241.6308,320.2509,241.6417 M,8,27900,27937,320.2509,241.6417,320.1264,241.6525 M,8,27937,27975,320.1264,241.6525,320.0019,241.6633 M,8,27975,28012,320.0019,241.6633,319.8773,241.6741 M,8,28012,28050,319.8773,241.6741,319.7528,241.685 M,8,28050,28087,319.7528,241.685,319.6283,241.6958 M,8,28087,28125,319.6283,241.6958,319.5038,241.7066 M,8,27825,28425,319.5038,241.7066,318.21,241.84 M,8,28425,28462,318.21,241.84,318.33,241.805 M,8,28462,28500,318.33,241.805,318.45,241.77 M,8,28500,28537,318.45,241.77,318.5749,241.7752 M,8,28537,28575,318.5749,241.7752,318.69,241.78 M,8,28425,29025,318.69,241.78,318.36,240.16 M,8,29025,29062,318.36,240.16,318.369,240.0353 M,8,29062,29100,318.369,240.0353,318.378,239.9106 M,8,29100,29137,318.378,239.9106,318.387,239.786 M,8,29137,29175,318.387,239.786,318.3959,239.6613 M,8,29175,29212,318.3959,239.6613,318.4049,239.5366 M,8,29212,29250,318.4049,239.5366,318.4139,239.4119 M,8,29250,29287,318.4139,239.4119,318.4229,239.2873 M,8,29287,29325,318.4229,239.2873,318.4319,239.1626 M,8,29025,29625,318.4319,239.1626,319.32,238.52 M,8,29625,29662,319.32,238.52,319.329,238.6447 M,8,29662,29700,319.329,238.6447,319.338,238.7693 M,8,29700,29737,319.338,238.7693,319.347,238.894 M,8,29737,29775,319.347,238.894,319.356,239.0187 M,8,29775,29812,319.356,239.0187,319.3649,239.1434 M,8,29812,29850,319.3649,239.1434,319.3739,239.2681 M,8,29850,29887,319.3739,239.2681,319.3829,239.3927 M,8,29887,29925,319.3829,239.3927,319.3919,239.5174 M,8,29625,30225,319.3919,239.5174,320.01,240.43 M,8,30225,30262,320.01,240.43,320.1241,240.4804 M,8,30262,30300,320.1241,240.4804,320.2429,240.5178 M,8,30300,30337,320.2429,240.5178,320.365,240.5421 M,8,30337,30375,320.365,240.5421,320.4894,240.5489 M,8,30375,30412,320.4894,240.5489,320.6138,240.5425 M,8,30412,30450,320.6138,240.5425,320.736,240.5182 M,8,30450,30487,320.736,240.5182,320.855,240.4814 M,8,30487,30525,320.855,240.4814,320.9674,240.4277 M,8,30225,30825,320.9674,240.4277,321.73,239.63 M,8,30825,30862,321.73,239.63,321.7172,239.5057 M,8,30862,30900,321.7172,239.5057,321.7044,239.3813 M,8,30900,30937,321.7044,239.3813,321.6917,239.257 M,8,30937,30975,321.6917,239.257,321.6789,239.1326 M,8,30975,31012,321.6789,239.1326,321.6661,239.0083 M,8,31012,31050,321.6661,239.0083,321.6533,238.8839 M,8,31050,31087,321.6533,238.8839,321.6405,238.7596 M,8,31087,31125,321.6405,238.7596,321.6277,238.6352 M,8,30825,31425,321.6277,238.6352,320.57,238.32 M,8,31425,31462,320.57,238.32,320.5562,238.4442 M,8,31462,31500,320.5562,238.4442,320.5424,238.5685 M,8,31500,31537,320.5424,238.5685,320.5286,238.6927 M,8,31537,31575,320.5286,238.6927,320.5148,238.8169 M,8,31575,31612,320.5148,238.8169,320.501,238.9412 M,8,31612,31650,320.501,238.9412,320.4872,239.0654 M,8,31650,31687,320.4872,239.0654,320.4734,239.1897 M,8,31687,31725,320.4734,239.1897,320.46,239.31 M,8,31725,31762,320.46,239.31,320.4734,239.1897 M,8,31762,31800,320.4734,239.1897,320.4872,239.0654 M,8,31800,31837,320.4872,239.0654,320.501,238.9412 M,8,31837,31875,320.501,238.9412,320.5148,238.8169 M,8,31875,31912,320.5148,238.8169,320.5286,238.6927 M,8,31912,31950,320.5286,238.6927,320.5424,238.5685 M,8,31950,31987,320.5424,238.5685,320.5562,238.4442 M,8,31987,32025,320.5562,238.4442,320.57,238.32 M,8,31425,32325,320.57,238.32,319.47,238.44 M,8,32325,32625,319.47,238.44,318.69,239.21 M,8,32625,32662,318.69,239.21,318.6368,239.3228 M,8,32662,32700,318.6368,239.3228,318.597,239.4408 M,8,32700,32737,318.597,239.4408,318.5704,239.5624 M,8,32737,32775,318.5704,239.5624,318.5619,239.6867 M,8,32775,32812,318.5619,239.6867,318.5668,239.8111 M,8,32812,32850,318.5668,239.8111,318.5901,239.9335 M,8,32850,32887,318.5901,239.9335,318.6262,240.0527 M,8,32887,32925,318.6262,240.0527,318.6799,240.1651 M,8,32625,33225,318.6799,240.1651,319.54,240.85 M,8,33225,33262,319.54,240.85,319.6649,240.8444 M,8,33262,33300,319.6649,240.8444,319.7897,240.8387 M,8,33300,33337,319.7897,240.8387,319.9146,240.8331 M,8,33337,33375,319.9146,240.8331,320.0395,240.8275 M,8,33375,33412,320.0395,240.8275,320.1644,240.8219 M,8,33412,33450,320.1644,240.8219,320.2892,240.8163 M,8,33450,33487,320.2892,240.8163,320.4141,240.8106 M,8,33487,33525,320.4141,240.8106,320.539,240.805 M,8,33225,33825,320.539,240.805,321.43,240.15 M,8,33825,33862,321.43,240.15,321.4945,240.2568 M,8,33862,33900,321.4945,240.2568,321.5475,240.3696 M,8,33900,33937,321.5475,240.3696,321.5892,240.487 M,8,33937,33975,321.5892,240.487,321.6145,240.609 M,8,33975,34012,321.6145,240.609,321.6284,240.7329 M,8,34012,34050,321.6284,240.7329,321.6248,240.8575 M,8,34050,34087,321.6248,240.8575,321.6101,240.9813 M,8,34087,34125,321.6101,240.9813,321.5776,241.1017 M,8,34125,34162,321.5776,241.1017,321.6101,240.9813 M,8,34162,34200,321.6101,240.9813,321.6248,240.8575 M,8,34200,34237,321.6248,240.8575,321.6284,240.7329 M,8,34237,34275,321.6284,240.7329,321.6145,240.609 M,8,34275,34312,321.6145,240.609,321.5892,240.487 M,8,34312,34350,321.5892,240.487,321.5475,240.3696 M,8,34350,34387,321.5475,240.3696,321.4945,240.2568 M,8,34387,34425,321.4945,240.2568,321.43,240.15 M,8,33825,34725,321.43,240.15,320.65,239.35 M,8,34725,34762,320.65,239.35,320.5855,239.2432 M,8,34762,34800,320.5855,239.2432,320.5325,239.1304 M,8,34800,34837,320.5325,239.1304,320.4908,239.013 M,8,34837,34875,320.4908,239.013,320.4655,238.891 M,8,34875,34912,320.4655,238.891,320.4516,238.7671 M,8,34912,34950,320.4516,238.7671,320.4552,238.6425 M,8,34950,34987,320.4552,238.6425,320.4699,238.5187 M,8,34987,35025,320.4699,238.5187,320.5024,238.3983 M,8,35025,35062,320.5024,238.3983,320.4699,238.5187 M,8,35062,35100,320.4699,238.5187,320.4552,238.6425 M,8,35100,35137,320.4552,238.6425,320.4516,238.7671 M,8,35137,35175,320.4516,238.7671,320.4655,238.891 M,8,35175,35212,320.4655,238.891,320.4908,239.013 M,8,35212,35250,320.4908,239.013,320.5325,239.1304 M,8,35250,35287,320.5325,239.1304,320.5855,239.2432 M,8,35287,35325,320.5855,239.2432,320.65,239.35 M,8,34725,35625,320.65,239.35,320.38,240.41 M,8,35625,35662,320.38,240.41,320.2552,240.4025 M,8,35662,35700,320.2552,240.4025,320.1305,240.3949 M,8,35700,35737,320.1305,240.3949,320.0057,240.3874 M,8,35737,35775,320.0057,240.3874,319.8809,240.3799 M,8,35775,35812,319.8809,240.3799,319.7561,240.3724 M,8,35812,35850,319.7561,240.3724,319.6313,240.3648 M,8,35850,35887,319.6313,240.3648,319.5066,240.3573 M,8,35887,35925,319.5066,240.3573,319.3818,240.3498 M,8,35625,36075,319.3818,240.3498,318.93,240.03 M,8,36075,36112,318.93,240.03,318.8233,239.9656 M,8,36112,36150,318.8233,239.9656,318.7106,239.9121 M,8,36150,36187,318.7106,239.9121,318.5903,239.8796 M,8,36187,36225,318.5903,239.8796,318.4673,239.8598 M,8,36225,36262,318.4673,239.8598,318.3427,239.8617 M,8,36262,36300,318.3427,239.8617,318.2191,239.8772 M,8,36300,36337,318.2191,239.8772,318.0999,239.9132 M,8,36337,36375,318.0999,239.9132,317.9857,239.9627 M,8,36375,36412,317.9857,239.9627,317.881,240.0301 M,8,36412,36450,317.881,240.0301,317.7853,240.1096 M,8,36450,36487,317.7853,240.1096,317.7003,240.201 M,8,36487,36525,317.7003,240.201,317.6336,240.3063 M,8,36075,36825,317.6336,240.3063,317.46,241.4 M,8,36825,36862,317.46,241.4,317.5848,241.3925 M,8,36862,36900,317.5848,241.3925,317.7095,241.3849 M,8,36900,36937,317.7095,241.3849,317.8343,241.3774 M,8,36937,36975,317.8343,241.3774,317.9591,241.3699 M,8,36975,37012,317.9591,241.3699,318.0839,241.3624 M,8,37012,37050,318.0839,241.3624,318.2086,241.3548 M,8,37050,37087,318.2086,241.3548,318.3334,241.3473 M,8,37087,37125,318.3334,241.3473,318.4582,241.3398 M,8,36825,37425,318.4582,241.3398,319.38,240.74 M,8,37425,37462,319.38,240.74,319.2706,240.7997 M,8,37462,37500,319.2706,240.7997,319.1692,240.8721 M,8,37500,37537,319.1692,240.8721,319.0774,240.956 M,8,37537,37575,319.0774,240.956,318.999,241.0528 M,8,37575,37612,318.999,241.0528,318.9328,241.1581 M,8,37612,37650,318.9328,241.1581,318.8831,241.2723 M,8,37650,37687,318.8831,241.2723,318.8475,241.3915 M,8,37687,37725,318.8475,241.3915,318.8301,241.5148 M,8,37725,37762,318.8301,241.5148,318.8276,241.6392 M,8,37762,37800,318.8276,241.6392,318.8438,241.7627 M,8,37800,37837,318.8438,241.7627,318.8746,241.8832 M,8,37837,37875,318.8746,241.8832,318.9198,241.9995 M,8,37875,37912,318.9198,241.9995,318.8746,241.8832 M,8,37912,37950,318.8746,241.8832,318.8438,241.7627 M,8,37950,37987,318.8438,241.7627,318.8276,241.6392 M,8,37987,38025,318.8276,241.6392,318.8301,241.5148 M,8,38025,38062,318.8301,241.5148,318.8475,241.3915 M,8,38062,38100,318.8475,241.3915,318.8831,241.2723 M,8,38100,38137,318.8831,241.2723,318.9328,241.1581 M,8,38137,38175,318.9328,241.1581,318.999,241.0528 M,8,38175,38212,318.999,241.0528,319.0774,240.956 M,8,38212,38250,319.0774,240.956,319.1692,240.8721 M,8,38250,38287,319.1692,240.8721,319.2706,240.7997 M,8,38287,38325,319.2706,240.7997,319.38,240.74 M,8,37425,38625,319.38,240.74,320.38,240.49 M,8,38625,38664,320.38,240.49,320.5047,240.4818 M,8,38664,38704,320.5047,240.4818,320.6295,240.4736 M,8,38704,38744,320.6295,240.4736,320.7542,240.4655 M,8,38744,38784,320.7542,240.4655,320.8789,240.4573 M,8,38784,38824,320.8789,240.4573,321.0037,240.4491 M,8,38824,38864,321.0037,240.4491,321.1284,240.4409 M,8,38864,38904,321.1284,240.4409,321.2531,240.4327 M,8,38904,38944,321.2531,240.4327,321.3779,240.4246 M,8,38625,39263,321.3779,240.4246,322.47,240.34 M,8,39263,39582,322.47,240.34,321.86,239.41 M,8,39582,39621,321.86,239.41,321.7353,239.4018 M,8,39621,39661,321.7353,239.4018,321.6105,239.3936 M,8,39661,39701,321.6105,239.3936,321.4858,239.3855 M,8,39701,39741,321.4858,239.3855,321.3611,239.3773 M,8,39741,39781,321.3611,239.3773,321.2363,239.3691 M,8,39781,39821,321.2363,239.3691,321.1116,239.3609 M,8,39821,39861,321.1116,239.3609,320.9869,239.3528 M,8,39861,39901,320.9869,239.3528,320.8622,239.3446 M,8,39582,40220,320.8622,239.3446,319.77,239.26 M,8,40220,40539,319.77,239.26,318.87,239.89 M,8,40539,40578,318.87,239.89,318.8057,239.9967 M,8,40578,40618,318.8057,239.9967,318.7523,240.1095 M,8,40618,40658,318.7523,240.1095,318.721,240.2301 M,8,40658,40698,318.721,240.2301,318.7022,240.3533 M,8,40698,40738,318.7022,240.3533,318.7065,240.4778 M,8,40738,40778,318.7065,240.4778,318.7239,240.6012 M,8,40778,40818,318.7239,240.6012,318.7634,240.7194 M,8,40818,40858,318.7634,240.7194,318.8149,240.8329 M,8,40539,41178,318.8149,240.8329,319.46,241.72 M,8,41178,41497,319.46,241.72,320.36,241.09 M,8,41497,41536,320.36,241.09,320.4243,240.9833 M,8,41536,41576,320.4243,240.9833,320.4778,240.8705 M,8,41576,41616,320.4778,240.8705,320.509,240.7499 M,8,41616,41656,320.509,240.7499,320.5278,240.6267 M,8,41656,41696,320.5278,240.6267,320.5235,240.5022 M,8,41696,41736,320.5235,240.5022,320.5061,240.3788 M,8,41736,41776,320.5061,240.3788,320.4666,240.2606 M,8,41776,41816,320.4666,240.2606,320.4151,240.1471 M,8,41497,42136,320.4151,240.1471,319.77,239.26 M,8,42136,42454,319.77,239.26,318.77,238.81 M,8,42454,42493,318.77,238.81,318.6492,238.7779 M,8,42493,42533,318.6492,238.7779,318.5284,238.7459 M,8,42533,42573,318.5284,238.7459,318.4075,238.7138 M,8,42573,42613,318.4075,238.7138,318.2867,238.6818 M,8,42613,42653,318.2867,238.6818,318.1655,238.7086 M,8,42653,42693,318.1655,238.7086,318.0442,238.739 M,8,42693,42733,318.0442,238.739,317.9229,238.7693 M,8,42733,42773,317.9229,238.7693,317.8017,238.7996 M,8,42454,43093,317.8017,238.7996,317.45,239.85 M,8,43093,43412,317.45,239.85,318.45,240.3 M,8,43412,43451,318.45,240.3,318.5708,240.3321 M,8,43451,43491,318.5708,240.3321,318.6917,240.3641 M,8,43491,43531,318.6917,240.3641,318.8125,240.3962 M,8,43531,43571,318.8125,240.3962,318.9333,240.4282 M,8,43571,43611,318.9333,240.4282,319.0538,240.3985 M,8,43611,43651,319.0538,240.3985,319.1743,240.3652 M,8,43651,43691,319.1743,240.3652,319.2947,240.3319 M,8,43691,43731,319.2947,240.3319,319.41,240.3 M,8,43412,44051,319.41,240.3,319.77,239.26 M,8,44051,44369,319.77,239.26,320.7,239.83 M,8,44369,44408,320.7,239.83,320.7082,239.9547 M,8,44408,44448,320.7082,239.9547,320.7164,240.0795 M,8,44448,44488,320.7164,240.0795,320.7245,240.2042 M,8,44488,44528,320.7245,240.2042,320.7327,240.3289 M,8,44528,44568,320.7327,240.3289,320.7409,240.4537 M,8,44568,44608,320.7409,240.4537,320.7491,240.5784 M,8,44608,44648,320.7491,240.5784,320.7573,240.7031 M,8,44648,44688,320.7573,240.7031,320.7654,240.8279 M,8,44369,45007,320.7654,240.8279,320.85,241.92 M,8,45007,45326,320.85,241.92,321.78,241.31 M,8,45326,45365,321.78,241.31,321.7882,241.1853 M,8,45365,45405,321.7882,241.1853,321.7964,241.0605 M,8,45405,45445,321.7964,241.0605,321.8045,240.9358 M,8,45445,45485,321.8045,240.9358,321.8127,240.8111 M,8,45485,45525,321.8127,240.8111,321.8209,240.6863 M,8,45525,45565,321.8209,240.6863,321.8291,240.5616 M,8,45565,45605,321.8291,240.5616,321.8372,240.4369 M,8,45605,45645,321.8372,240.4369,321.8454,240.3121 M,8,45326,45964,321.8454,240.3121,321.93,239.22 M,8,45964,46284,321.93,239.22,320,240.08 M,8,46284,48446,320,240.08,319.27,240 M,8,48446,48479,319.27,240,319.2634,240.1248 M,8,48479,48513,319.2634,240.1248,319.2567,240.2496 M,8,48513,48547,319.2567,240.2496,319.2501,240.3745 M,8,48547,48581,319.2501,240.3745,319.2435,240.4993 M,8,48581,48614,319.2435,240.4993,319.2368,240.6241 M,8,48614,48648,319.2368,240.6241,319.2302,240.7489 M,8,48648,48682,319.2302,240.7489,319.2236,240.8738 M,8,48682,48716,319.2236,240.8738,319.217,240.9986 M,8,48716,48750,319.217,240.9986,319.2236,240.8738 M,8,48750,48783,319.2236,240.8738,319.2302,240.7489 M,8,48783,48817,319.2302,240.7489,319.2368,240.6241 M,8,48817,48851,319.2368,240.6241,319.2435,240.4993 M,8,48851,48885,319.2435,240.4993,319.2501,240.3745 M,8,48885,48918,319.2501,240.3745,319.2567,240.2496 M,8,48918,48952,319.2567,240.2496,319.2634,240.1248 M,8,48952,48986,319.2634,240.1248,319.27,240 M,8,48446,49256,319.27,240,319.85,239.06 M,8,49256,49527,319.85,239.06,320.73,239.71 M,8,49527,49560,320.73,239.71,320.7871,239.8208 M,8,49560,49594,320.7871,239.8208,320.8334,239.9366 M,8,49594,49628,320.8334,239.9366,320.8575,240.0589 M,8,49628,49662,320.8575,240.0589,320.8696,240.1831 M,8,49662,49695,320.8696,240.1831,320.8588,240.3072 M,8,49695,49729,320.8588,240.3072,320.8358,240.4298 M,8,49729,49763,320.8358,240.4298,320.7909,240.5461 M,8,49763,49797,320.7909,240.5461,320.74,240.65 M,8,49527,50067,320.74,240.65,320.16,241.59 M,8,50067,50100,320.16,241.59,320.2846,241.5799 M,8,50100,50134,320.2846,241.5799,320.4092,241.5699 M,8,50134,50168,320.4092,241.5699,320.5338,241.5598 M,8,50168,50202,320.5338,241.5598,320.6584,241.5497 M,8,50202,50235,320.6584,241.5497,320.783,241.5397 M,8,50235,50269,320.783,241.5397,320.9076,241.5296 M,8,50269,50303,320.9076,241.5296,321.0322,241.5195 M,8,50303,50337,321.0322,241.5195,321.15,241.51
//Storyboard Sound Samples

[TimingPoints]
225,300,4,1,1,70,1,0
225,-100,4,1,1,70,0,0
19275,-100,4,1,1,60,0,0
29025,-100,4,1,1,70,0,1
33675,-100,4,1,1,60,0,0
38625,319.148936170213,3,1,1,60,1,0
38625,-100,3,1,1,60,0,0
46284,270.27027027027,4,1,1,55,1,0
46284,-100,4,1,1,55,0,0
50608,-100,4,1,1,55,0,0
67905,-100,4,1,1,60,0,0
69256,-100,4,1,1,60,0,0
72229,-100,4,1,1,60,0,0
73581,-100,4,1,1,60,0,0
76554,-100,4,1,1,60,0,0
77905,-100,4,1,1,60,0,0
80878,-100,4,1,1,60,0,0
82229,-100,4,1,1,60,0,0
85202,289.855072463768,4,1,1,60,1,0
85202,-100,4,1,1,60,0,0
92158,-100,4,1,1,70,0,1
101144,-100,4,1,1,70,0,0
101433,-100,4,1,1,70,0,1
110709,-100,4,1,1,70,0,0
111288,-100,4,1,1,70,0,0
111868,-100,4,1,1,70,0,0
112448,-100,4,1,1,70,0,0
113028,-100,4,1,1,70,0,0
114187,327.868852459016,4,1,1,70,1,0
114187,-100,4,1,1,70,0,0
117665,300,4,1,1,70,1,0
117665,-100,4,1,1,70,0,0
136715,-100,4,1,1,60,0,0
146465,-100,4,1,1,70,0,1
151115,-100,4,1,1,60,0,0
156065,319.148936170213,3,1,1,60,1,0
156065,-100,3,1,1,60,0,0

[Colours]
Combo1 : 43,213,119
Combo2 : 19,187,236
Combo3 : 128,128,192
Combo4 : 52,124,177

[HitObjects]
72,165,225,6,0,B|117:145|117:145|172:151,1,100
274,178,825,2,0,B|334:176|334:176|360:166|360:166|434:163,2,150
193,253,2025,2,0,B|173:298|173:298|179:353,1,100
281,308,2625,6,0,L|384:303,1,100
487,329,3225,2,0,B|512:256|512:256|506:172,2,150
381,303,4425,2,0,B|361:258|361:258|367:203,1,100
299,120,5025,6,0,L|190:111,1,100
97,153,5625,1,0,0:0:0:0:
97,263,5925,1,0,0:0:0:0:
191,206,6225,2,0,B|241:200|241:200|286:220,2,100
191,316,7125,1,0,0:0:0:0:
297,342,7425,6,0,B|342:339|342:339|355:340|355:340|406:337,1,100
492,283,8025,1,0,0:0:0:0:
492,173,8325,1,0,0:0:0:0:
398,230,8625,2,0,B|347:235|347:235|302:215,2,100
398,120,9525,1,0,0:0:0:0:
310,52,9825,6,0,B|265:55|265:55|252:54|252:54|201:57,1,100
122,122,10425,2,0,B|99:232|99:232|113:282,2,150
224,161,11625,2,0,B|269:181|269:181|324:175,1,100
419,128,12225,2,0,L|413:246,1,100
345,314,12825,2,0,B|416:282|416:282|507:298,2,150
247,366,14025,2,0,L|127:358,1,100
76,274,14625,6,0,B|79:229|79:229|78:216|78:216|81:165,1,100
140,81,15225,1,0,0:0:0:0:
250,81,15525,1,0,0:0:0:0:
193,175,15825,2,0,B|187:225|187:225|207:270,2,100
303,175,16725,1,0,0:0:0:0:
297,284,17025,6,0,L|292:388,1,100
187,348,17625,2,0,B|127:346|127:346|101:336|101:336|27:333,2,150
149,244,18825,2,0,L|158:139,1,100
106,47,19425,6,0,B|214:10|194:80|302:42,1,200
403,2,20325,1,0,0:0:0:0:
467,91,20625,2,0,L|484:205,1,100
402,266,21225,2,0,P|331:266|289:242,1,100
233,171,21825,6,0,L|119:178,2,100
303,86,22725,1,0,0:0:0:0:
209,28,23025,2,0,P|138:28|96:52,1,100
50,130,23625,2,0,L|57:244,1,100
115,322,24225,6,0,P|68:338|18:333,2,100
167,225,25125,2,0,P|204:257|225:302,2,100
56,228,26025,2,0,P|65:179|94:138,1,100
142,111,26475,6,0,L|297:125,1,150
386,180,27225,2,0,P|398:249|381:295,1,100
306,346,27825,2,0,L|191:356,1,100
77,368,28425,2,0,B|101:361|101:361|125:362,1,50
92,200,29025,6,0,L|100:89,1,100
188,36,29625,2,0,L|196:147,1,100
257,227,30225,2,0,P|312:239|368:217,1,100
429,147,30825,2,0,L|418:40,1,100
313,16,31425,6,0,L|302:115,2,100
203,28,32325,1,0,0:0:0:0:
125,105,32625,2,0,P|112:160|134:216,1,100
210,269,33225,2,0,L|321:264,1,100
399,199,33825,6,0,P|419:257|410:305,2,100
321,119,34725,2,0,P|301:61|310:13,2,100
294,225,35625,2,0,L|178:218,1,100
149,187,36075,6,0,P|72:173|14:225,1,150
2,324,36825,2,0,L|118:317,1,100
194,258,37425,2,0,P|144:311|148:384,2,150
294,233,38625,6,0,L|416:225,1,100
503,218,39263,1,0,0:0:0:0:
442,125,39582,2,0,L|320:117,1,100
233,110,40220,1,0,0:0:0:0:
143,173,40539,6,0,P|126:224|141:273,1,100
202,356,41178,1,0,0:0:0:0:
292,293,41497,6,0,P|309:242|294:193,1,100
233,110,42136,1,0,0:0:0:0:
133,65,42454,6,0,B|84:52|84:52|36:64,1,100
1,169,43093,1,0,0:0:0:0:
101,214,43412,2,0,B|150:227|150:227|197:214,1,100
233,110,44051,1,0,0:0:0:0:
326,167,44369,6,0,L|334:289,1,100
341,376,45007,1,0,0:0:0:0:
434,315,45326,2,0,L|442:193,1,100
449,106,45964,1,0,0:0:0:0:
256,192,46284,12,0,47905,0:0:0:0:
183,184,48446,6,0,L|177:297,2,100
241,90,49256,1,0,0:0:0:0:
329,155,49527,2,0,P|343:202|330:249,1,100
272,343,50067,2,0,L|371:335,1,100
