osu file format v14

[General]
AudioFilename: audio.mp3
AudioLeadIn: 0
PreviewTime: 92013
Countdown: 0
SampleSet: Normal
StackLeniency: 0.3
Mode: 0
LetterboxInBreaks: 0
WidescreenStoryboard: 1

[Editor]
DistanceSpacing: 0.8
BeatDivisor: 8
GridSize: 32
TimelineZoom: 2.999999

[Metadata]
Title:Frozen One
TitleUnicode:Frozen One
Artist:Dance Gavin Dance
ArtistUnicode:Dance Gavin Dance
Creator:Bergy
Version:The Song Is About a Tragic Life
Source:
Tags:
BeatmapID:1464999
BeatmapSetID:692346

[Difficulty]
HPDrainRate:5.8
CircleSize:3.8
OverallDifficulty:8.8
ApproachRate:9.3
SliderMultiplier:2.4
SliderTickRate:1

[Events]
//Background and Video events
0,0,"bg.jpg",0,0
//Break Periods
//Storyboard Layer 0 (Background)
//Storyboard Layer 1 (Fail)
//Storyboard Layer 2 (Pass)
//Storyboard Layer 3 (Foreground)
Sprite,Foreground,Centre,"sb\blur.jpg",0,0 F,0,0,,0.7 S,0,0,,0.4488889 M,8,225,,319.04,238.72 M,8,225,375,319.04,238.72,319.75,240.04 M,8,375,412,319.75,240.04,319.8151,239.7471 M,8,375,525,319.8802,239.4543,318.03,241.05 M,8,412,450,319.8151,239.7471,319.8802,239.4543 M,8,525,562,318.03,241.05,318.3289,241.0244 M,8,525,825,319.2256,240.9475,317.55,241.93 M,8,562,600,318.3289,241.0244,318.6278,240.9988 M,8,600,637,318.6278,240.9988,318.9267,240.9731 M,8,637,675,318.9267,240.9731,319.2256,240.9475 M,8,825,862,317.55,241.93,317.8489,241.9044 M,8,825,1125,318.7456,241.8275,320.54,241.62 M,8,862,900,317.8489,241.9044,318.1478,241.8788 M,8,900,937,318.1478,241.8788,318.4467,241.8531 M,8,937,975,318.4467,241.8531,318.7456,241.8275 M,8,1125,1275,320.54,241.62,319.25,238.99 M,8,1275,1312,319.25,238.99,319.2007,239.2859 M,8,1275,1575,319.1521,240.7459,319.03,240.88 M,8,1312,1350,319.2007,239.2859,319.1514,239.5818 M,8,1350,1387,319.1514,239.5818,319.2293,239.8629 M,8,1387,1425,319.2293,239.8629,319.2411,240.1526 M,8,1425,1462,319.2411,240.1526,319.1966,240.4493 M,8,1462,1500,319.1966,240.4493,319.1521,240.7459 M,8,1575,1612,319.03,240.88,319.3264,240.8338 M,8,1575,1725,319.6228,240.7876,320.77,239.6 M,8,1612,1650,319.3264,240.8338,319.6228,240.7876 M,8,1725,1875,320.77,239.6,318,238.97 M,8,1875,1912,318,238.97,318.2874,238.8838 M,8,1875,2175,319.1614,238.9077,320.85,239.52 M,8,1912,1950,318.2874,238.8838,318.5747,238.7976 M,8,1950,1987,318.5747,238.7976,318.8678,238.8461 M,8,1987,2025,318.8678,238.8461,319.1614,238.9077 M,8,2175,2325,320.85,239.52,318.03,240.56 M,8,2325,2475,318.03,240.56,319.28,238.3 M,8,2475,2550,319.28,238.3 M,8,2550,2625,319.28,238.3 M,8,2625,2775,319.28,238.3,320.94,239.44 M,8,2775,2812,320.94,239.44,320.9569,239.7395 M,8,2775,2925,320.9738,240.039,318.38,239.61 M,8,2812,2850,320.9569,239.7395,320.9738,240.039 M,8,2925,2962,318.38,239.61,318.5868,239.3947 M,8,2925,3225,319.4313,239.1842,317.48,240.11 M,8,2962,3000,318.5868,239.3947,318.8438,239.2434 M,8,3000,3037,318.8438,239.2434,319.1332,239.17 M,8,3037,3075,319.1332,239.17,319.4313,239.1842 M,8,3225,3262,317.48,240.11,317.4033,239.8213 M,8,3225,3525,318.1054,238.6237,318.33,238.56 M,8,3262,3300,317.4033,239.8213,317.4015,239.5227 M,8,3300,3337,317.4015,239.5227,317.4808,239.2349 M,8,3337,3375,317.4808,239.2349,317.6312,238.9772 M,8,3375,3412,317.6312,238.9772,317.8438,238.7675 M,8,3412,3450,317.8438,238.7675,318.1054,238.6237 M,8,3525,3675,318.33,238.56,318.92,240.82 M,8,3675,3712,318.92,240.82,319.2193,240.7999 M,8,3675,3900,320.1173,240.7396,321.27,240.72 M,8,3712,3750,319.2193,240.7999,319.5186,240.7798 M,8,3750,3787,319.5186,240.7798,319.818,240.7597 M,8,3787,3825,319.818,240.7597,320.1173,240.7396 M,8,3900,3975,321.27,240.72,321.37,240.94 M,8,3975,4012,321.37,240.94,321.385,241.2396 M,8,3975,4125,321.4,241.5392,320.52,239.65 M,8,4012,4050,321.385,241.2396,321.4,241.5392 M,8,4125,4162,320.52,239.65,320.8138,239.5893 M,8,4125,4425,322.2097,239.8449,322.44,238.96 M,8,4162,4200,320.8138,239.5893,321.1076,239.5286 M,8,4200,4237,321.1076,239.5286,321.4014,239.468 M,8,4237,4275,321.4014,239.468,321.6731,239.5765 M,8,4275,4312,321.6731,239.5765,321.9414,239.7107 M,8,4312,4350,321.9414,239.7107,322.2097,239.8449 M,8,4425,4500,322.44,238.96,322.34,238.48 M,8,4500,4575,322.34,238.48,322.13,238.35 M,8,4575,4650,322.13,238.35,321.89,238.32 M,8,4650,4725,321.89,238.32,321.46,238.54 M,8,4725,4800,321.46,238.54,321.05,238.78 M,8,4800,4875,321.05,238.78,320.57,238.81 M,8,4875,4950,320.57,238.81,320.13,238.65 M,8,4950,5025,320.13,238.65,319.79,238.31 M,8,5025,5175,319.79,238.31,318.5,239.57 M,8,5175,5212,318.5,239.57,318.5152,239.8696 M,8,5175,5325,318.53,240.16,320.8,239.74 M,8,5212,5250,318.5152,239.8696,318.53,240.16 M,8,5325,5362,320.8,239.74,320.5011,239.7144 M,8,5325,5625,319.6044,239.6375,321.76,238.91 M,8,5362,5400,320.5011,239.7144,320.2022,239.6888 M,8,5400,5437,320.2022,239.6888,319.9033,239.6631 M,8,5437,5475,319.9033,239.6631,319.6044,239.6375 M,8,5625,5662,321.76,238.91,321.4611,238.8844 M,8,5625,5925,320.5644,238.8075,318.75,238.68 M,8,5662,5700,321.4611,238.8844,321.1622,238.8588 M,8,5700,5737,321.1622,238.8588,320.8633,238.8331 M,8,5737,5775,320.8633,238.8331,320.5644,238.8075 M,8,5925,6075,318.75,238.68,319.59,241.38 M,8,6075,6112,319.59,241.38,319.6807,241.0946 M,8,6075,6375,319.6014,239.6334,319.75,239.44 M,8,6112,6150,319.6807,241.0946,319.688,240.7963 M,8,6150,6187,319.688,240.7963,319.5996,240.5102 M,8,6187,6225,319.5996,240.5102,319.519,240.2221 M,8,6225,6262,319.519,240.2221,319.5255,239.9232 M,8,6262,6300,319.5255,239.9232,319.6014,239.6334 M,8,6375,6412,319.75,239.44,319.4504,239.4552 M,8,6375,6525,319.1508,239.4703,318.53,241.18 M,8,6412,6450,319.4504,239.4552,319.1508,239.4703 M,8,6525,6675,318.53,241.18,321.02,240.44 M,8,6675,6712,321.02,240.44,320.7536,240.302 M,8,6675,6975,319.891,240.1696,318.45,241.26 M,8,6712,6750,320.7536,240.302,320.4872,240.1641 M,8,6750,6787,320.4872,240.1641,320.1908,240.1593 M,8,6787,6825,320.1908,240.1593,319.891,240.1696 M,8,6975,7125,318.45,241.26,321.14,241.78 M,8,7125,7275,321.14,241.78,320.54,239.2 M,8,7275,7350,320.54,239.2 M,8,7350,7425,320.54,239.2 M,8,7425,7575,320.54,239.2,320.16,240.95 M,8,7575,7612,320.16,240.95,319.8613,240.9774 M,8,7575,7725,319.5625,241.0049,321.51,239.34 M,8,7612,7650,319.8613,240.9774,319.5625,241.0049 M,8,7725,7762,321.51,239.34,321.7253,239.5468 M,8,7725,8025,321.9358,240.3913,321.07,238.37 M,8,7762,7800,321.7253,239.5468,321.8766,239.8038 M,8,7800,7837,321.8766,239.8038,321.95,240.0932 M,8,7837,7875,321.95,240.0932,321.9358,240.3913 M,8,8025,8062,321.07,238.37,321.3564,238.2858 M,8,8025,8325,322.1917,238.5279,322.56,241.03 M,8,8062,8100,321.3564,238.2858,321.6546,238.2831 M,8,8100,8137,321.6546,238.2831,321.9415,238.3652 M,8,8137,8175,321.9415,238.3652,322.1917,238.5279 M,8,8325,8475,322.56,241.03,320.16,240.49 M,8,8475,8512,320.16,240.49,319.8608,240.4682 M,8,8475,8925,317.8123,240.5489,320.94,239.16 M,8,8512,8550,319.8608,240.4682,319.5616,240.4464 M,8,8550,8587,319.5616,240.4464,319.2624,240.4245 M,8,8587,8625,319.2624,240.4245,318.9876,240.5262 M,8,8625,8662,318.9876,240.5262,318.71,240.6135 M,8,8662,8700,318.71,240.6135,318.4108,240.592 M,8,8700,8737,318.4108,240.592,318.1115,240.5704 M,8,8737,8775,318.1115,240.5704,317.8123,240.5489 M,8,8925,9000,320.94,239.16,321.07,239.62 M,8,9000,9075,321.07,239.62,320.97,239.84 M,8,9075,9150,320.97,239.84,320.93,240.07 M,8,9150,9225,320.93,240.07,321.02,240.41 M,8,9225,9300,321.02,240.41,321.22,240.06 M,8,9300,9375,321.22,240.06,321.56,239.84 M,8,9375,9450,321.56,239.84,321.96,239.8 M,8,9450,9525,321.96,239.8,322.34,239.94 M,8,9525,9675,322.34,239.94,321.25,241.47 M,8,9675,9825,321.25,241.47,321.6,238.89 M,8,9825,9975,321.6,238.89,322.55,240.81 M,8,9975,10012,322.55,240.81,322.515,241.1079 M,8,9975,10125,322.4799,241.4059,320.36,239.82 M,8,10012,10050,322.515,241.1079,322.4799,241.4059 M,8,10125,10162,320.36,239.82,320.6589,239.8456 M,8,10125,10425,321.5556,239.9225,319.5,238.92 M,8,10162,10200,320.6589,239.8456,320.9578,239.8712 M,8,10200,10237,320.9578,239.8712,321.2567,239.8969 M,8,10237,10275,321.2567,239.8969,321.5556,239.9225 M,8,10425,10462,319.5,238.92,319.7989,238.9456 M,8,10425,10725,320.6956,239.0225,322.49,239.2 M,8,10462,10500,319.7989,238.9456,320.0978,238.9712 M,8,10500,10537,320.0978,238.9712,320.3967,238.9969 M,8,10537,10575,320.3967,238.9969,320.6956,239.0225 M,8,10725,10875,322.49,239.2,318.91,238.17 M,8,10875,10912,318.91,238.17,318.7856,238.443 M,8,10875,11175,318.8712,239.8671,319.06,240.01 M,8,10912,10950,318.7856,238.443,318.6611,238.7159 M,8,10950,10987,318.6611,238.7159,318.6393,238.9975 M,8,10987,11025,318.6393,238.9975,318.7166,239.2874 M,8,11025,11062,318.7166,239.2874,318.7939,239.5773 M,8,11062,11100,318.7939,239.5773,318.8712,239.8671 M,8,11175,11212,319.06,240.01,319.3594,240.029 M,8,11175,11325,319.6588,240.048,320.77,238.85 M,8,11212,11250,319.3594,240.029,319.6588,240.048 M,8,11325,11475,320.77,238.85,317.56,239.16 M,8,11475,11512,317.56,239.16,317.7616,238.941 M,8,11475,11775,318.61,238.84,320.06,239.4 M,8,11512,11550,317.7616,238.941,318.0249,238.8016 M,8,11550,11587,318.0249,238.8016,318.321,238.7707 M,8,11587,11625,318.321,238.7707,318.61,238.84 M,8,11775,11925,320.06,239.4,317.44,240.29 M,8,11925,12075,317.44,240.29,317.61,238.25 M,8,12075,12150,317.61,238.25 M,8,12150,12225,317.61,238.25 M,8,12225,12375,317.61,238.25,319.2,239.52 M,8,12375,12412,319.2,239.52,318.9015,239.5495 M,8,12375,12525,318.6029,239.579,320.35,241.09 M,8,12412,12450,318.9015,239.5495,318.6029,239.579 M,8,12525,12562,320.35,241.09,320.5653,240.8832 M,8,12525,12825,320.7758,240.0387,319.85,241.99 M,8,12562,12600,320.5653,240.8832,320.7166,240.6262 M,8,12600,12637,320.7166,240.6262,320.79,240.3368 M,8,12637,12675,320.79,240.3368,320.7758,240.0387 M,8,12825,12862,319.85,241.99,320.1387,242.0667 M,8,12825,13125,321.3363,241.3646,321.4,241.14 M,8,12862,12900,320.1387,242.0667,320.4373,242.0685 M,8,12900,12937,320.4373,242.0685,320.7251,241.9892 M,8,12937,12975,320.7251,241.9892,320.9828,241.8388 M,8,12975,13012,320.9828,241.8388,321.1925,241.6262 M,8,13012,13050,321.1925,241.6262,321.3363,241.3646 M,8,13125,13275,321.4,241.14,319.2,239.52 M,8,13275,13312,319.2,239.52,319.2256,239.8189 M,8,13275,13500,319.3025,240.7156,318.54,241.18 M,8,13312,13350,319.2256,239.8189,319.2513,240.1178 M,8,13350,13387,319.2513,240.1178,319.2769,240.4167 M,8,13387,13425,319.2769,240.4167,319.3025,240.7156 M,8,13500,13575,318.54,241.18,318.39,240.98 M,8,13575,13612,318.39,240.98,318.362,240.6813 M,8,13575,13725,318.334,240.3826,319.85,238.95 M,8,13612,13650,318.362,240.6813,318.334,240.3826 M,8,13725,13762,319.85,238.95,319.6306,239.1511 M,8,13725,14025,318.4126,238.7136,317.76,239.44 M,8,13762,13800,319.6306,239.1511,319.3558,239.2642 M,8,13800,13837,319.3558,239.2642,319.0583,239.272 M,8,13837,13875,319.0583,239.272,318.7794,239.1687 M,8,13875,13912,318.7794,239.1687,318.5542,238.9751 M,8,13912,13950,318.5542,238.9751,318.4126,238.7136 M,8,14025,14100,317.76,239.44,317.81,239.91 M,8,14100,14175,317.81,239.91,317.93,240.11 M,8,14175,14250,317.93,240.11,318.16,240.15 M,8,14250,14325,318.16,240.15,318.59,240.34 M,8,14325,14400,318.59,240.34,318.7,239.88 M,8,14400,14475,318.7,239.88,319.02,239.53 M,8,14475,14550,319.02,239.53,319.47,239.39 M,8,14550,14625,319.47,239.39,319.93,239.5 M,8,14625,14775,319.93,239.5,322.28,238.84 M,8,14775,14812,322.28,238.84,321.9817,238.8086 M,8,14775,14925,321.6833,238.7772,319.48,240.49 M,8,14812,14850,321.9817,238.8086,321.6833,238.7772 M,8,14925,14962,319.48,240.49,319.7789,240.4644 M,8,14925,15225,320.6756,240.3875,319.08,241.34 M,8,14962,15000,319.7789,240.4644,320.0778,240.4388 M,8,15000,15037,320.0778,240.4388,320.3767,240.4131 M,8,15037,15075,320.3767,240.4131,320.6756,240.3875 M,8,15225,15262,319.08,241.34,319.3789,241.3144 M,8,15225,15525,320.2756,241.2375,322.08,241.09 M,8,15262,15300,319.3789,241.3144,319.6778,241.2888 M,8,15300,15337,319.6778,241.2888,319.9767,241.2631 M,8,15337,15375,319.9767,241.2631,320.2756,241.2375 M,8,15525,15675,322.08,241.09,320.47,239.35 M,8,15675,15712,320.47,239.35,320.1721,239.3578 M,8,15675,15975,319.4764,240.4868,319.69,240.58 M,8,15712,15750,320.1721,239.3578,319.892,239.4586 M,8,15750,15787,319.892,239.4586,319.6623,239.648 M,8,15787,15825,319.6623,239.648,319.5059,239.9009 M,8,15825,15862,319.5059,239.9009,319.4402,240.1913 M,8,15862,15900,319.4402,240.1913,319.4764,240.4868 M,8,15975,16012,319.69,240.58,319.9885,240.5497 M,8,15975,16125,320.2869,240.5194,321.78,239.66 M,8,16012,16050,319.9885,240.5497,320.2869,240.5194 M,8,16125,16275,321.78,239.66,318.58,239 M,8,16275,16312,318.58,239,318.8698,238.9292 M,8,16275,16575,319.6828,239.2318,320.33,240.28 M,8,16312,16350,318.8698,238.9292,319.1679,238.9433 M,8,16350,16387,319.1679,238.9433,319.4464,239.0501 M,8,16387,16425,319.4464,239.0501,319.6828,239.2318 M,8,16575,16725,320.33,240.28,317.76,239.29 M,8,16725,16875,317.76,239.29,320.16,238.25 M,8,16875,16950,320.16,238.25 M,8,16950,17025,320.16,238.25 M,8,17025,17175,320.16,238.25,319.1,240.35 M,8,17175,17212,319.1,240.35,319.0862,240.0503 M,8,17175,17325,319.0723,239.7506,321.62,240.47 M,8,17212,17250,319.0862,240.0503,319.0723,239.7506 M,8,17325,17362,321.62,240.47,321.3211,240.4956 M,8,17325,17625,320.4244,240.5725,322.38,241.35 M,8,17362,17400,321.3211,240.4956,321.0222,240.5212 M,8,17400,17437,321.0222,240.5212,320.7233,240.5469 M,8,17437,17475,320.7233,240.5469,320.4244,240.5725 M,8,17625,17662,322.38,241.35,322.0811,241.3756 M,8,17625,17925,321.1844,241.4525,319.39,241.64 M,8,17662,17700,322.0811,241.3756,321.7822,241.4012 M,8,17700,17737,321.7822,241.4012,321.4833,241.4269 M,8,17737,17775,321.4833,241.4269,321.1844,241.4525 M,8,17925,18075,319.39,241.64,321.11,239.1 M,8,18075,18112,321.11,239.1,321.1456,239.3979 M,8,18075,18525,321.1827,241.4555,319.13,240.12 M,8,18112,18150,321.1456,239.3979,321.1812,239.6958 M,8,18150,18187,321.1812,239.6958,321.2169,239.9936 M,8,18187,18225,321.2169,239.9936,321.1304,240.2783 M,8,18225,18262,321.1304,240.2783,321.0576,240.5643 M,8,18262,18300,321.0576,240.5643,321.0993,240.8614 M,8,18300,18337,321.0993,240.8614,321.141,241.1584 M,8,18337,18375,321.141,241.1584,321.1827,241.4555 M,8,18525,18675,319.13,240.12,322.29,239.68 M,8,18675,18825,322.29,239.68,319.03,239.98 M,8,18825,18975,319.03,239.98,322.38,239.81 M,8,18975,19125,322.38,239.81,318.96,239.89 M,8,19125,19275,318.96,239.89,321.18,241.45 M,8,19275,19312,321.18,241.45,320.9147,241.5863 M,8,19275,19725,319.6954,240.4035,321.02,238.64 M,8,19312,19350,320.9147,241.5863,320.6213,241.6383 M,8,19350,19387,320.6213,241.6383,320.3266,241.5941 M,8,19387,19425,320.3266,241.5941,320.0591,241.4633 M,8,19425,19462,320.0591,241.4633,319.8442,241.2567 M,8,19462,19500,319.8442,241.2567,319.7068,240.9922 M,8,19500,19537,319.7068,240.9922,319.655,240.699 M,8,19537,19575,319.655,240.699,319.6954,240.4035 M,8,19725,19762,321.02,238.64,321.0408,238.9393 M,8,19725,20025,321.1031,239.8371,322.27,241.73 M,8,19762,19800,321.0408,238.9393,321.0616,239.2386 M,8,19800,19837,321.0616,239.2386,321.0823,239.5378 M,8,19837,19875,321.0823,239.5378,321.1031,239.8371 M,8,20025,20175,322.27,241.73,322.4,240.17 M,8,20175,20325,322.4,240.17,320.79,241.9 M,8,20325,20362,320.79,241.9,320.493,241.942 M,8,20325,20625,319.5948,241.9825,318.3,239.15 M,8,20362,20400,320.493,241.942,320.1944,241.9703 M,8,20400,20437,320.1944,241.9703,319.8947,241.9833 M,8,20437,20475,319.8947,241.9833,319.5948,241.9825 M,8,20625,20775,318.3,239.15,318.17,240.71 M,8,20775,20925,318.17,240.71,319.78,238.98 M,8,20925,20962,319.78,238.98,320.077,238.938 M,8,20925,21225,320.9753,238.8975,321.11,241.24 M,8,20962,21000,320.077,238.938,320.3756,238.9097 M,8,21000,21037,320.3756,238.9097,320.6753,238.8967 M,8,21037,21075,320.6753,238.8967,320.9753,238.8975 M,8,21225,21375,321.11,241.24,319.56,240.97 M,8,21375,21525,319.56,240.97,321.65,239.86 M,8,21525,21675,321.65,239.86,319.26,241.85 M,8,21675,21712,319.26,241.85,319.2997,241.5526 M,8,21675,22125,319.4811,239.4611,317.94,238.35 M,8,21712,21750,319.2997,241.5526,319.336,241.2549 M,8,21750,21787,319.336,241.2549,319.3689,240.9567 M,8,21787,21825,319.3689,240.9567,319.3982,240.6581 M,8,21825,21862,319.3982,240.6581,319.4242,240.3592 M,8,21862,21900,319.4242,240.3592,319.4467,240.0601 M,8,21900,21937,319.4467,240.0601,319.4655,239.7607 M,8,21937,21975,319.4655,239.7607,319.4811,239.4611 M,8,22125,22162,317.94,238.35,317.9478,238.6499 M,8,22125,22425,317.9911,239.5488,320.51,238.95 M,8,22162,22200,317.9478,238.6499,317.9587,238.9497 M,8,22200,22237,317.9587,238.9497,317.9733,239.2493 M,8,22237,22275,317.9733,239.2493,317.9911,239.5488 M,8,22425,22575,320.51,238.95,319.29,238.67 M,8,22575,22725,319.29,238.67,320.47,240.17 M,8,22725,22875,320.47,240.17,321.54,238.16 M,8,22875,22912,321.54,238.16,321.2406,238.1791 M,8,22875,23325,321.54,238.16,320.47,240.17 M,8,22912,22950,321.2406,238.1791,320.9412,238.1982 M,8,22950,22987,320.9412,238.1982,320.6418,238.2173 M,8,22987,23025,320.6418,238.2173,320.3424,238.2364 M,8,23025,23062,320.3424,238.2364,320.6418,238.2173 M,8,23062,23100,320.6418,238.2173,320.9412,238.1982 M,8,23100,23137,320.9412,238.1982,321.2406,238.1791 M,8,23137,23175,321.2406,238.1791,321.54,238.16 M,8,23325,23362,320.47,240.17,320.1877,240.0746 M,8,23325,23625,319.7142,239.3577,321.89,239.94 M,8,23362,23400,320.1877,240.0746,319.9502,239.8951 M,8,23400,23437,319.9502,239.8951,319.7842,239.6473 M,8,23437,23475,319.7842,239.6473,319.7142,239.3577 M,8,23625,23775,321.89,239.94,321.2,241.2 M,8,23775,23925,321.2,241.2,320.62,239.26 M,8,23925,24075,320.62,239.26,322.53,240.94 M,8,24075,24112,322.53,240.94,322.2364,240.8784 M,8,24075,24225,321.9428,240.8168,321.24,238.62 M,8,24112,24150,322.2364,240.8784,321.9428,240.8168 M,8,24225,24262,321.24,238.62,321.3308,238.9059 M,8,24225,24525,321.3248,239.7766,318.98,238.39 M,8,24262,24300,321.3308,238.9059,321.4215,239.1919 M,8,24300,24337,321.4215,239.1919,321.3889,239.4835 M,8,24337,24375,321.3889,239.4835,321.3248,239.7766 M,8,24525,24562,318.98,238.39,319.2791,238.367 M,8,24525,24825,320.1765,238.298,319.9,240.45 M,8,24562,24600,319.2791,238.367,319.5782,238.344 M,8,24600,24637,319.5782,238.344,319.8773,238.321 M,8,24637,24675,319.8773,238.321,320.1765,238.298 M,8,24825,24975,319.9,240.45,318.9,239.56 M,8,24975,25125,318.9,239.56,319.89,241.85 M,8,25125,25162,319.89,241.85,320.1759,241.9408 M,8,25125,25425,321.0466,241.9348,318.82,239.64 M,8,25162,25200,320.1759,241.9408,320.4619,242.0315 M,8,25200,25237,320.4619,242.0315,320.7535,241.9989 M,8,25237,25275,320.7535,241.9989,321.0466,241.9348 M,8,25425,25462,318.82,239.64,318.797,239.9391 M,8,25425,25725,318.728,240.8365,320.44,239.08 M,8,25462,25500,318.797,239.9391,318.774,240.2382 M,8,25500,25537,318.774,240.2382,318.751,240.5374 M,8,25537,25575,318.751,240.5374,318.728,240.8365 M,8,25725,25762,320.44,239.08,320.6969,238.9271 M,8,25725,26025,321.5739,238.8748,319.7,241.32 M,8,25762,25800,320.6969,238.9271,320.9818,238.8373 M,8,25800,25837,320.9818,238.8373,321.2803,238.8181 M,8,25837,25875,321.2803,238.8181,321.5739,238.8748 M,8,26025,26062,319.7,241.32,319.7224,241.0208 M,8,26025,26325,319.7897,240.1234,319.38,238.58 M,8,26062,26100,319.7224,241.0208,319.7449,240.7217 M,8,26100,26137,319.7449,240.7217,319.7673,240.4225 M,8,26137,26175,319.7673,240.4225,319.7897,240.1234 M,8,26325,26475,319.38,238.58,317.61,240.87 M,8,26475,26512,317.61,240.87,317.9081,240.8563 M,8,26475,26775,318.6065,240.3418,319.38,238.58 M,8,26512,26550,317.9081,240.8563,318.1899,240.759 M,8,26550,26587,318.1899,240.759,318.4311,240.5832 M,8,26587,26625,318.4311,240.5832,318.6065,240.3418 M,8,26775,26812,319.38,238.58,319.6792,238.5583 M,8,26775,26925,319.9784,238.5366,322.19,239.81 M,8,26812,26850,319.6792,238.5583,319.9784,238.5366 M,8,26925,27000,322.19,239.81,321.94,240.21 M,8,27000,27075,321.94,240.21,321.51,240.41 M,8,27075,27150,321.51,240.41,321.05,240.34 M,8,27150,27225,321.05,240.34,320.89,240.16 M,8,27225,27300,320.89,240.16,320.65,240.18 M,8,27300,27375,320.65,240.18,320.41,240.2 M,8,27375,27450,320.41,240.2,320.17,240.22 M,8,27450,27525,320.17,240.22,319.8,240.53 M,8,27525,27600,319.8,240.53,319.97,240.96 M,8,27600,27675,319.97,240.96,319.82,241.4 M,8,27675,27750,319.82,241.4,319.42,241.64 M,8,27750,27825,319.42,241.64,319.2,241.54 M,8,27825,27900,319.2,241.54,319.16,241.3 M,8,27900,27975,319.16,241.3,319.13,241.06 M,8,27975,28050,319.13,241.06,319.09,240.82 M,8,28050,28125,319.09,240.82,318.8,240.44 M,8,28125,28200,318.8,240.44,319.2,240.08 M,8,28200,28275,319.2,240.08,319.34,239.57 M,8,28275,28350,319.34,239.57,319.19,239.06 M,8,28350,28425,319.19,239.06,318.79,238.72 M,8,28425,28575,318.79,238.72,317.82,240.84 M,8,28575,29025,317.82,240.84,321.45,239 M,8,29025,29175,321.45,239,319.65,239.24 M,8,29175,29325,319.65,239.24,321.53,239.08 M,8,29325,29475,321.53,239.08,319.73,239.32 M,8,29475,29625,319.73,239.32,320.61,241.11 M,8,29625,29775,320.61,241.11,318.81,240.87 M,8,29775,29925,318.81,240.87,320.69,241.03 M,8,29925,30075,320.69,241.03,318.89,240.79 M,8,30075,30225,318.89,240.79,319.54,238.53 M,8,30225,30375,319.54,238.53,319.78,240.33 M,8,30375,30525,319.78,240.33,319.62,238.45 M,8,30525,30675,319.62,238.45,319.86,240.25 M,8,30675,30825,319.86,240.25,321.6,238.95 M,8,30825,30975,321.6,238.95,321.36,240.75 M,8,30975,31125,321.36,240.75,321.52,238.87 M,8,31125,31275,321.52,238.87,321.28,240.67 M,8,31275,31425,321.28,240.67,322.41,238.49 M,8,31425,31575,322.41,238.49,320.61,238.73 M,8,31575,31725,320.61,238.73,322.19,240.35 M,8,31725,31875,322.19,240.35,320.39,240.11 M,8,31875,32025,320.39,240.11,322.49,238.41 M,8,32025,32175,322.49,238.41,322.27,240.27 M,8,32175,32212,322.27,240.27,322.0086,240.4139 M,8,32175,32475,321.144,240.3413,320.69,238.65 M,8,32212,32250,322.0086,240.4139,321.7175,240.4783 M,8,32250,32287,321.7175,240.4783,321.4199,240.4549 M,8,32287,32325,321.4199,240.4549,321.144,240.3413 M,8,32475,32625,320.69,238.65,320.73,241.25 M,8,32625,32775,320.73,241.25,320.97,239.45 M,8,32775,32925,320.97,239.45,320.81,241.33 M,8,32925,33075,320.81,241.33,321.05,239.53 M,8,33075,33225,321.05,239.53,322.49,240.92 M,8,33225,33375,322.49,240.92,322.39,239.72 M,8,33375,33525,322.39,239.72,322.29,238.52 M,8,33525,33675,322.29,238.52,321,240.41 M,8,33675,33712,321,240.41,321.2973,240.4504 M,8,33675,33825,321.5945,240.4907,319.63,240.02 M,8,33712,33750,321.2973,240.4504,321.5945,240.4907 M,8,33825,33862,319.63,240.02,319.5712,240.3122 M,8,33825,34125,319.9424,241.0901,320.38,239.09 M,8,33862,33900,319.5712,240.3122,319.6043,240.6084 M,8,33900,33937,319.6043,240.6084,319.7354,240.876 M,8,33937,33975,319.7354,240.876,319.9424,241.0901 M,8,34125,34162,320.38,239.09,320.1576,238.8915 M,8,34125,34425,319.2993,238.8146,320.37,241.84 M,8,34162,34200,320.1576,238.8915,319.8853,238.7709 M,8,34200,34237,319.8853,238.7709,319.5886,238.7429 M,8,34237,34275,319.5886,238.7429,319.2993,238.8146 M,8,34425,34575,320.37,241.84,320.8,240.26 M,8,34575,34725,320.8,240.26,319.05,241.5 M,8,34725,34762,319.05,241.5,318.7505,241.5168 M,8,34725,35025,317.8519,241.5671,319.58,239.36 M,8,34762,34800,318.7505,241.5168,318.4509,241.5336 M,8,34800,34837,318.4509,241.5336,318.1514,241.5503 M,8,34837,34875,318.1514,241.5503,317.8519,241.5671 M,8,35025,35062,319.58,239.36,319.7173,239.6249 M,8,35025,35325,319.6089,240.4849,317.44,238.5 M,8,35062,35100,319.7173,239.6249,319.7728,239.918 M,8,35100,35137,319.7728,239.918,319.7324,240.2134 M,8,35137,35175,319.7324,240.2134,319.6089,240.4849 M,8,35325,35362,317.44,238.5,317.7395,238.4832 M,8,35325,35625,318.6381,238.4329,320.56,239.55 M,8,35362,35400,317.7395,238.4832,318.0391,238.4664 M,8,35400,35437,318.0391,238.4664,318.3386,238.4497 M,8,35437,35475,318.3386,238.4497,318.6381,238.4329 M,8,35625,35775,320.56,239.55,318.75,239.94 M,8,35775,35925,318.75,239.94,320.66,238.43 M,8,35925,36075,320.66,238.43,319.6,240.48 M,8,36075,36112,319.6,240.48,319.695,240.1957 M,8,36075,36525,319.419,238.203,317.74,239.45 M,8,36112,36150,319.695,240.1957,319.731,239.8988 M,8,36150,36187,319.731,239.8988,319.6672,239.6075 M,8,36187,36225,319.6672,239.6075,319.52,239.3466 M,8,36225,36262,319.52,239.3466,319.3781,239.0829 M,8,36262,36300,319.3781,239.0829,319.3163,238.7907 M,8,36300,36337,319.3163,238.7907,319.3408,238.4924 M,8,36337,36375,319.3408,238.4924,319.419,238.203 M,8,36525,36562,317.74,239.45,317.7698,239.7485 M,8,36525,36825,317.8594,240.644,319.87,240.82 M,8,36562,36600,317.7698,239.7485,317.7997,240.047 M,8,36600,36637,317.7997,240.047,317.8296,240.3455 M,8,36637,36675,317.8296,240.3455,317.8594,240.644 M,8,36825,36862,319.87,240.82,319.7057,240.5712 M,8,36825,37125,318.895,240.2754,320.84,241.62 M,8,36862,36900,319.7057,240.5712,319.474,240.3835 M,8,36900,36937,319.474,240.3835,319.1929,240.2845 M,8,36937,36975,319.1929,240.2845,318.895,240.2754 M,8,37125,37162,320.84,241.62,321.137,241.5928 M,8,37125,37425,321.7934,241.0297,320.71,239 M,8,37162,37200,321.137,241.5928,321.4129,241.4798 M,8,37200,37237,321.4129,241.4798,321.6373,241.2835 M,8,37237,37275,321.6373,241.2835,321.7934,241.0297 M,8,37425,37462,320.71,239,320.5767,239.2667 M,8,37425,37725,320.7264,240.1163,321.71,238.16 M,8,37462,37500,320.5767,239.2667,320.5302,239.5612 M,8,37500,37537,320.5302,239.5612,320.5851,239.8541 M,8,37537,37575,320.5851,239.8541,320.7264,240.1163 M,8,37725,37762,321.71,238.16,321.4106,238.1781 M,8,37725,38025,320.5122,238.2326,319.55,240.31 M,8,37762,37800,321.4106,238.1781,321.1111,238.1963 M,8,37800,37837,321.1111,238.1963,320.8116,238.2144 M,8,37837,37875,320.8116,238.2144,320.5122,238.2326 M,8,38025,38175,319.55,240.31,319.33,238.97 M,8,38175,38325,319.33,238.97,318.29,241.03 M,8,38325,38625,318.29,241.03,322.09,239.94 M,8,38625,38664,322.09,239.94,321.7911,239.9138 M,8,38625,38784,321.4923,239.8877,320.66,239.81 M,8,38664,38704,321.7911,239.9138,321.4923,239.8877 M,8,38784,38944,320.66,239.81,322,240.89 M,8,38944,38983,322,240.89,321.7012,240.8635 M,8,38944,39103,321.4023,240.837,320.58,240.77 M,8,38983,39023,321.7012,240.8635,321.4023,240.837 M,8,39103,39263,320.58,240.77,322.24,241.86 M,8,39263,39343,322.24,241.86,321.88,241.84 M,8,39343,39422,321.88,241.84,321.52,241.8 M,8,39422,39582,321.52,241.8,319.14,240.64 M,8,39582,39621,319.14,240.64,319.4389,240.6662 M,8,39582,39742,319.7377,240.6923,320.58,240.77 M,8,39621,39661,319.4389,240.6662,319.7377,240.6923 M,8,39742,39901,320.58,240.77,319.24,239.69 M,8,39901,39940,319.24,239.69,319.5388,239.7165 M,8,39901,40061,319.8376,239.743,320.66,239.81 M,8,39940,39980,319.5388,239.7165,319.8376,239.743 M,8,40061,40220,320.66,239.81,318.82,238.7 M,8,40220,40300,318.82,238.7,319.36,238.73 M,8,40300,40380,319.36,238.73,319.9,238.79 M,8,40380,40539,319.9,238.79,322.04,239.57 M,8,40539,40578,322.04,239.57,321.7411,239.5961 M,8,40539,40699,321.4423,239.6223,320.6,239.7 M,8,40578,40618,321.7411,239.5961,321.4423,239.6223 M,8,40699,40859,320.6,239.7,322.11,240.53 M,8,40859,40898,322.11,240.53,321.8112,240.5565 M,8,40859,41018,321.5123,240.583,320.69,240.66 M,8,40898,40938,321.8112,240.5565,321.5123,240.583 M,8,41018,41178,320.69,240.66,322.51,241.44 M,8,41178,41257,322.51,241.44,322.16,241.48 M,8,41257,41337,322.16,241.48,321.8,241.51 M,8,41337,41497,321.8,241.51,319.25,240.78 M,8,41497,41536,319.25,240.78,319.5489,240.7538 M,8,41497,41656,319.8477,240.7277,320.69,240.66 M,8,41536,41576,319.5489,240.7538,319.8477,240.7277 M,8,41656,41816,320.69,240.66,319.18,239.83 M,8,41816,41855,319.18,239.83,319.4788,239.8035 M,8,41816,41976,319.7776,239.777,320.6,239.7 M,8,41855,41895,319.4788,239.8035,319.7776,239.777 M,8,41976,42135,320.6,239.7,318.6,238.94 M,8,42135,42215,318.6,238.94,319.14,238.88 M,8,42215,42295,319.14,238.88,319.68,238.82 M,8,42295,42454,319.68,238.82,320.16,241.52 M,8,42454,42493,320.16,241.52,320.1862,241.2211 M,8,42454,42614,320.2123,240.9223,320.28,240.08 M,8,42493,42533,320.1862,241.2211,320.2123,240.9223 M,8,42614,42773,320.28,240.08,319.2,241.42 M,8,42773,42812,319.2,241.42,319.2265,241.1212 M,8,42773,42933,319.253,240.8223,319.32,240 M,8,42812,42852,319.2265,241.1212,319.253,240.8223 M,8,42933,43093,319.32,240,318.24,241.66 M,8,43093,43172,318.24,241.66,318.26,241.3 M,8,43172,43252,318.26,241.3,318.29,240.94 M,8,43252,43412,318.29,240.94,319.45,238.56 M,8,43412,43451,319.45,238.56,319.4201,238.8585 M,8,43412,43571,319.3903,239.157,319.32,240 M,8,43451,43491,319.4201,238.8585,319.3903,239.157 M,8,43571,43731,319.32,240,320.41,238.66 M,8,43731,43770,320.41,238.66,320.3835,238.9588 M,8,43731,43890,320.3571,239.2577,320.28,240.08 M,8,43770,43810,320.3835,238.9588,320.3571,239.2577 M,8,43890,44050,320.28,240.08,321.56,238.16 M,8,44050,44130,321.56,238.16,321.53,238.7 M,8,44130,44210,321.53,238.7,321.48,239.24 M,8,44210,44369,321.48,239.24,320.52,241.46 M,8,44369,44408,320.52,241.46,320.4942,241.1611 M,8,44369,44529,320.4684,240.8622,320.39,240.02 M,8,44408,44448,320.4942,241.1611,320.4684,240.8622 M,8,44529,44688,320.39,240.02,319.56,241.53 M,8,44688,44727,319.56,241.53,319.5338,241.2311 M,8,44688,44848,319.5077,240.9323,319.44,240.11 M,8,44727,44767,319.5338,241.2311,319.5077,240.9323 M,8,44848,45007,319.44,240.11,318.65,241.93 M,8,45007,45087,318.65,241.93,318.61,241.58 M,8,45087,45167,318.61,241.58,318.58,241.22 M,8,45167,45327,318.58,241.22,319.31,238.67 M,8,45327,45366,319.31,238.67,319.3324,238.9692 M,8,45327,45486,319.3549,239.2683,319.44,240.11 M,8,45366,45406,319.3324,238.9692,319.3549,239.2683 M,8,45486,45646,319.44,240.11,320.27,238.6 M,8,45646,45685,320.27,238.6,320.2927,238.8991 M,8,45646,45805,320.3154,239.1983,320.39,240.02 M,8,45685,45725,320.2927,238.8991,320.3154,239.1983 M,8,45805,45965,320.39,240.02,321.3,238.16 M,8,45965,46045,321.3,238.16,321.35,238.64 M,8,46045,46125,321.35,238.64,321.39,239.13 M,8,46125,46284,321.39,239.13,318.56,238.32 M,8,46284,46351,318.56,238.32,320,240.08 M,8,46351,48446,320,240.08,320.58,238.81 M,8,48446,48513,320.58,238.81,320.1,238.85 M,8,48513,48581,320.1,238.85,319.62,238.9 M,8,48581,48648,319.62,238.9,319.14,238.95 M,8,48648,48716,319.14,238.95,318.66,239 M,8,48716,48851,318.66,239,319.73,239.97 M,8,48851,48986,319.73,239.97,318.01,238.25 M,8,48986,49121,318.01,238.25,317.86,240.11 M,8,49121,49256,317.86,240.11,317.93,238.33 M,8,49256,49391,317.93,238.33,317.78,240.19 M,8,49391,49527,317.78,240.19,318.82,238.63 M,8,49527,49594,318.82,238.63,319.29,238.67 M,8,49594,49662,319.29,238.67,319.77,238.72 M,8,49662,49729,319.77,238.72,320.25,238.77 M,8,49729,49797,320.25,238.77,320.58,238.63 M,8,49797,49864,320.58,238.63,320.74,238.95 M,8,49864,49932,320.74,238.95,320.78,239.3 M,8,49932,49999,320.78,239.3,320.68,239.65 M,8,49999,50067,320.68,239.65,320.33,239.98 M,8,50067,50134,320.33,239.98,320.37,240.46 M,8,50134,50202,320.37,240.46,320.41,240.94 M,8,50202,50269,320.41,240.94,320.45,241.41 M,8,50269,50338,320.45,241.41,320.63,241.57 M,8,50338,50405,320.63,241.57,320.8,241.41 M,8,50405,50473,320.8,241.41,321.02,241.32 M,8,50473,50540,321.02,241.32,321.26,241.3 M,8,50540,50608,321.26,241.3,321.48,241.38 M,8,50608,50641,321.48,241.38,321.6894,241.3638 M,8,50608,50878,322.3175,241.315,321.65,239.13 M,8,50641,50675,321.6894,241.3638,321.8987,241.3475 M,8,50675,50709,321.8987,241.3475,322.1081,241.3313 M,8,50709,50743,322.1081,241.3313,322.3175,241.315 M,8,50878,51013,321.65,239.13,320.51,240.19 M,8,51013,51046,320.51,240.19,320.3164,240.269 M,8,51013,51283,319.7024,240.2279,318.31,239.02 M,8,51046,51080,320.3164,240.269,320.1106,240.3057 M,8,51080,51114,320.1106,240.3057,319.9022,240.2889 M,8,51114,51148,319.9022,240.2889,319.7024,240.2279 M,8,51283,51419,318.31,239.02,319.04,241.64 M,8,51419,51452,319.04,241.64,319.0557,241.4306 M,8,51419,51689,319.1026,240.8023,321.29,239.55 M,8,51452,51486,319.0557,241.4306,319.0713,241.2212 M,8,51486,51520,319.0713,241.2212,319.087,241.0117 M,8,51520,51554,319.087,241.0117,319.1026,240.8023 M,8,51689,51722,321.29,239.55,321.1136,239.4367 M,8,51689,51959,320.5143,239.2628,321.72,238.21 M,8,51722,51756,321.1136,239.4367,320.9236,239.3481 M,8,51756,51790,320.9236,239.3481,320.7219,239.2913 M,8,51790,51824,320.7219,239.2913,320.5143,239.2628 M,8,51959,51992,321.72,238.21,321.5412,238.3195 M,8,51959,52229,320.9395,238.4862,321.66,240.54 M,8,51992,52026,321.5412,238.3195,321.3497,238.4048 M,8,52026,52060,321.3497,238.4048,321.1473,238.4594 M,8,52060,52094,321.1473,238.4594,320.9395,238.4862 M,8,52229,52262,321.66,240.54,321.4505,240.5466 M,8,52229,52500,320.8615,240.7506,322.09,239.76 M,8,52262,52296,321.4505,240.5466,321.244,240.5826 M,8,52296,52330,321.244,240.5826,321.0465,240.6525 M,8,52330,52364,321.0465,240.6525,320.8615,240.7506 M,8,52500,52533,322.09,239.76,321.8814,239.7753 M,8,52500,52905,320.9756,238.8172,322.56,239.03 M,8,52533,52567,321.8814,239.7753,321.674,239.7484 M,8,52567,52601,321.674,239.7484,321.4793,239.672 M,8,52601,52635,321.4793,239.672,321.3047,239.5573 M,8,52635,52668,321.3047,239.5573,321.1624,239.4042 M,8,52668,52702,321.1624,239.4042,321.0554,239.2248 M,8,52702,52736,321.0554,239.2248,320.9934,239.0252 M,8,52736,52770,320.9934,239.0252,320.9756,238.8172 M,8,52905,53040,322.56,239.03,321.05,238.73 M,8,53040,53073,321.05,238.73,320.8672,238.6276 M,8,53040,53311,320.2554,238.5098,318.85,239.91 M,8,53073,53107,320.8672,238.6276,320.6705,238.5558 M,8,53107,53141,320.6705,238.5558,320.465,238.516 M,8,53141,53175,320.465,238.516,320.2554,238.5098 M,8,53311,53344,318.85,239.91,319.028,240.0208 M,8,53311,53581,319.6294,240.1873,319.28,241.25 M,8,53344,53378,319.028,240.0208,319.2192,240.1067 M,8,53378,53412,319.2192,240.1067,319.4215,240.1613 M,8,53412,53446,319.4215,240.1613,319.6294,240.1873 M,8,53581,53614,319.28,241.25,319.4556,241.1354 M,8,53581,53851,320.0545,240.9617,318.08,239.63 M,8,53614,53648,319.4556,241.1354,319.6452,241.0462 M,8,53648,53682,319.6452,241.0462,319.8469,240.9893 M,8,53682,53716,319.8469,240.9893,320.0545,240.9617 M,8,53851,53884,318.08,239.63,318.288,239.6558 M,8,53851,54121,318.85,239.91,317.65,238.69 M,8,53884,53918,318.288,239.6558,318.4904,239.7104 M,8,53918,53952,318.4904,239.7104,318.6801,239.7996 M,8,53952,53986,318.6801,239.7996,318.85,239.91 M,8,54121,54154,317.65,238.69,317.8573,238.6584 M,8,54121,54392,317.65,238.69,319.31,238.27 M,8,54154,54188,317.8573,238.6584,318.0587,238.6003 M,8,54188,54222,318.0587,238.6003,318.1227,238.5719 M,8,54222,54256,318.1227,238.5719,317.9253,238.6422 M,8,54256,54289,317.9253,238.6422,317.7194,238.6811 M,8,54289,54301,317.7194,238.6811,317.65,238.69 M,8,54392,54425,319.31,238.27,319.2257,238.4619 M,8,54392,54662,319.31,238.27,318.85,239.91 M,8,54425,54459,319.2257,238.4619,319.1693,238.6638 M,8,54459,54493,319.1693,238.6638,319.161,238.7333 M,8,54493,54527,319.161,238.7333,319.2035,238.5282 M,8,54527,54560,319.2035,238.5282,319.2802,238.3333 M,8,54560,54572,319.2802,238.3333,319.31,238.27 M,8,54662,54695,318.85,239.91,318.7231,239.7431 M,8,54662,54932,318.85,239.91,319.82,240.67 M,8,54695,54729,318.7231,239.7431,318.5736,239.5964 M,8,54729,54763,318.5736,239.5964,318.5193,239.5524 M,8,54763,54797,318.5193,239.5524,318.6763,239.6912 M,8,54797,54830,318.6763,239.6912,318.8089,239.8534 M,8,54830,54842,318.8089,239.8534,318.85,239.91 M,8,54932,54965,319.82,240.67,320.0294,240.6538 M,8,54932,55202,320.6575,240.605,321.39,238.16 M,8,54965,54999,320.0294,240.6538,320.2387,240.6375 M,8,54999,55033,320.2387,240.6375,320.4481,240.6213 M,8,55033,55067,320.4481,240.6213,320.6575,240.605 M,8,55202,55338,321.39,238.16,320.1,238.91 M,8,55338,55371,320.1,238.91,320.0838,239.1194 M,8,55338,55608,320.035,239.7475,320.78,240.67 M,8,55371,55405,320.0838,239.1194,320.0675,239.3287 M,8,55405,55439,320.0675,239.3287,320.0513,239.5381 M,8,55439,55473,320.0513,239.5381,320.035,239.7475 M,8,55608,55743,320.78,240.67,322.38,238.95 M,8,55743,55776,322.38,238.95,322.1779,238.8929 M,8,55743,56013,321.5698,238.9117,319.94,240.6 M,8,55776,55810,322.1779,238.8929,321.9758,238.8358 M,8,55810,55844,321.9758,238.8358,321.773,238.8585 M,8,55844,55878,321.773,238.8585,321.5698,238.9117 M,8,56013,56046,319.94,240.6,320.1494,240.6162 M,8,56013,56283,320.7775,240.665,319.3,239.65 M,8,56046,56080,320.1494,240.6162,320.3587,240.6325 M,8,56080,56114,320.3587,240.6325,320.5681,240.6487 M,8,56114,56148,320.5681,240.6487,320.7775,240.665 M,8,56283,56316,319.3,239.65,319.5094,239.6338 M,8,56283,56554,320.1375,239.585,319.74,241.61 M,8,56316,56350,319.5094,239.6338,319.7188,239.6175 M,8,56350,56384,319.7188,239.6175,319.9281,239.6013 M,8,56384,56418,319.9281,239.6013,320.1375,239.585 M,8,56554,56587,319.74,241.61,319.9494,241.6263 M,8,56554,56824,320.5775,241.675,319.1,240.66 M,8,56587,56621,319.9494,241.6263,320.1588,241.6425 M,8,56621,56655,320.1588,241.6425,320.3681,241.6587 M,8,56655,56689,320.3681,241.6587,320.5775,241.675 M,8,56824,56857,319.1,240.66,319.3092,240.6414 M,8,56824,57229,320.7734,240.5109,321.92,241.1 M,8,56857,56891,319.3092,240.6414,319.5183,240.6227 M,8,56891,56925,319.5183,240.6227,319.7275,240.6041 M,8,56925,56959,319.7275,240.6041,319.9367,240.5854 M,8,56959,56992,319.9367,240.5854,320.1458,240.5668 M,8,56992,57026,320.1458,240.5668,320.355,240.5482 M,8,57026,57060,320.355,240.5482,320.5642,240.5295 M,8,57060,57094,320.5642,240.5295,320.7734,240.5109 M,8,57229,57365,321.92,241.1,322.28,239.22 M,8,57365,57398,322.28,239.22,322.0706,239.2038 M,8,57365,57635,321.4425,239.155,321.84,241.18 M,8,57398,57432,322.0706,239.2038,321.8613,239.1875 M,8,57432,57466,321.8613,239.1875,321.6519,239.1713 M,8,57466,57500,321.6519,239.1713,321.4425,239.155 M,8,57635,57668,321.84,241.18,321.6306,241.1962 M,8,57635,57905,321.0025,241.245,322.48,240.23 M,8,57668,57702,321.6306,241.1962,321.4213,241.2125 M,8,57702,57736,321.4213,241.2125,321.2119,241.2287 M,8,57736,57770,321.2119,241.2287,321.0025,241.245 M,8,57905,57938,322.48,240.23,322.2706,240.2138 M,8,57905,58175,321.6425,240.165,319.8,239.76 M,8,57938,57972,322.2706,240.2138,322.0612,240.1975 M,8,57972,58006,322.0612,240.1975,321.8519,240.1813 M,8,58006,58040,321.8519,240.1813,321.6425,240.165 M,8,58175,58208,319.8,239.76,320.0094,239.7762 M,8,58175,58445,320.6375,239.825,319.16,238.81 M,8,58208,58242,320.0094,239.7762,320.2188,239.7925 M,8,58242,58276,320.2188,239.7925,320.4281,239.8087 M,8,58276,58310,320.4281,239.8087,320.6375,239.825 M,8,58445,58478,319.16,238.81,319.3694,238.7938 M,8,58445,58716,319.9975,238.745,319.6,240.77 M,8,58478,58512,319.3694,238.7938,319.5787,238.7775 M,8,58512,58546,319.5787,238.7775,319.7881,238.7613 M,8,58546,58580,319.7881,238.7613,319.9975,238.745 M,8,58716,58749,319.6,240.77,319.8094,240.7862 M,8,58716,58986,320.4375,240.835,318.96,239.82 M,8,58749,58783,319.8094,240.7862,320.0187,240.8025 M,8,58783,58817,320.0187,240.8025,320.2281,240.8187 M,8,58817,58851,320.2281,240.8187,320.4375,240.835 M,8,58986,59019,318.96,239.82,319.1694,239.8038 M,8,58986,59256,319.7975,239.755,322.08,238.78 M,8,59019,59053,319.1694,239.8038,319.3788,239.7875 M,8,59053,59087,319.3788,239.7875,319.5881,239.7713 M,8,59087,59121,319.5881,239.7713,319.7975,239.755 M,8,59256,59289,322.08,238.78,321.9008,238.6713 M,8,59256,59527,321.2958,238.5213,322.46,240.73 M,8,59289,59323,321.9008,238.6713,321.7075,238.5905 M,8,59323,59357,321.7075,238.5905,321.5045,238.5392 M,8,59357,59391,321.5045,238.5392,321.2958,238.5213 M,8,59527,59662,322.46,240.73,321.54,241.69 M,8,59662,59695,321.54,241.69,321.3306,241.7062 M,8,59662,59932,320.7025,241.755,319.56,240.93 M,8,59695,59729,321.3306,241.7062,321.1212,241.7225 M,8,59729,59763,321.1212,241.7225,320.9119,241.7387 M,8,59763,59797,320.9119,241.7387,320.7025,241.755 M,8,59932,60067,319.56,240.93,320.12,238.67 M,8,60067,60100,320.12,238.67,320.1362,238.8794 M,8,60067,60338,320.185,239.5075,320.81,240.6 M,8,60100,60134,320.1362,238.8794,320.1525,239.0887 M,8,60134,60168,320.1525,239.0887,320.1687,239.2981 M,8,60168,60202,320.1687,239.2981,320.185,239.5075 M,8,60338,60371,320.81,240.6,320.9233,240.4236 M,8,60338,60608,321.0972,239.8243,322.15,241.03 M,8,60371,60405,320.9233,240.4236,321.0119,240.2336 M,8,60405,60439,321.0119,240.2336,321.0687,240.0319 M,8,60439,60473,321.0687,240.0319,321.0972,239.8243 M,8,60608,60641,322.15,241.03,322.0405,240.8512 M,8,60608,60878,321.8738,240.2495,319.82,240.97 M,8,60641,60675,322.0405,240.8512,321.9552,240.6597 M,8,60675,60709,321.9552,240.6597,321.9007,240.4573 M,8,60709,60743,321.9007,240.4573,321.8738,240.2495 M,8,60878,60911,319.82,240.97,319.8134,240.7605 M,8,60878,61149,319.6094,240.1715,320.6,241.4 M,8,60911,60945,319.8134,240.7605,319.7774,240.5541 M,8,60945,60979,319.7774,240.5541,319.7075,240.3565 M,8,60979,61013,319.7075,240.3565,319.6094,240.1715 M,8,61149,61182,320.6,241.4,320.5847,241.1914 M,8,61149,61554,321.5428,240.2856,321.24,241.98 M,8,61182,61216,320.5847,241.1914,320.6116,240.9839 M,8,61216,61250,320.6116,240.9839,320.688,240.7894 M,8,61250,61284,320.688,240.7894,320.8027,240.6147 M,8,61284,61317,320.8027,240.6147,320.9558,240.4724 M,8,61317,61351,320.9558,240.4724,321.1352,240.3654 M,8,61351,61385,321.1352,240.3654,321.3348,240.3034 M,8,61385,61419,321.3348,240.3034,321.5428,240.2856 M,8,61554,61689,321.24,241.98,321.63,240.36 M,8,61689,61722,321.63,240.36,321.7324,240.1772 M,8,61689,61960,321.8502,239.5654,320.45,238.16 M,8,61722,61756,321.7324,240.1772,321.8042,239.9805 M,8,61756,61790,321.8042,239.9805,321.844,239.775 M,8,61790,61824,321.844,239.775,321.8502,239.5654 M,8,61960,61993,320.45,238.16,320.3392,238.338 M,8,61960,62230,320.1726,238.9394,319.11,238.59 M,8,61993,62027,320.3392,238.338,320.2533,238.5292 M,8,62027,62061,320.2533,238.5292,320.1987,238.7315 M,8,62061,62095,320.1987,238.7315,320.1726,238.9394 M,8,62230,62263,319.11,238.59,319.2245,238.7655 M,8,62230,62500,319.3983,239.3645,318.81,241.52 M,8,62263,62297,319.2245,238.7655,319.3138,238.9552 M,8,62297,62331,319.3138,238.9552,319.3708,239.1569 M,8,62331,62365,319.3708,239.1569,319.3983,239.3645 M,8,62500,62533,318.81,241.52,318.8358,241.312 M,8,62500,62770,319.09,240.75,317.44,241.18 M,8,62533,62567,318.8358,241.312,318.8904,241.1096 M,8,62567,62601,318.8904,241.1096,318.9796,240.92 M,8,62601,62635,318.9796,240.92,319.09,240.75 M,8,62770,62803,317.44,241.18,317.5109,240.9826 M,8,62770,63041,317.44,241.18,317.92,239.52 M,8,62803,62837,317.5109,240.9826,317.5587,240.7784 M,8,62837,62871,317.5587,240.7784,317.566,240.7088 M,8,62871,62905,317.566,240.7088,317.5296,240.9152 M,8,62905,62938,317.5296,240.9152,317.465,241.1147 M,8,62938,62950,317.465,241.1147,317.44,241.18 M,8,63041,63074,317.92,239.52,318.0437,239.6892 M,8,63041,63311,317.92,239.52,319.1,240.74 M,8,63074,63108,318.0437,239.6892,318.1906,239.8387 M,8,63108,63142,318.1906,239.8387,318.2466,239.8806 M,8,63142,63176,318.2466,239.8806,318.0899,239.7415 M,8,63176,63209,318.0899,239.7415,317.9597,239.5776 M,8,63209,63221,317.9597,239.5776,317.92,239.52 M,8,63311,63344,319.1,240.74,318.8918,240.7647 M,8,63311,63581,319.1,240.74,320.27,241.18 M,8,63344,63378,318.8918,240.7647,318.6896,240.8194 M,8,63378,63412,318.6896,240.8194,318.6242,240.8439 M,8,63412,63446,318.6242,240.8439,318.8233,240.7787 M,8,63446,63479,318.8233,240.7787,319.0304,240.7466 M,8,63479,63491,319.0304,240.7466,319.1,240.74 M,8,63581,63614,320.27,241.18,320.4665,241.2522 M,8,63581,63851,321.0846,241.2259,321.67,238.83 M,8,63614,63648,320.4665,241.2522,320.673,241.2847 M,8,63648,63682,320.673,241.2847,320.882,241.2776 M,8,63682,63716,320.882,241.2776,321.0846,241.2259 M,8,63851,63986,321.67,238.83,320.67,239.52 M,8,63986,64019,320.67,239.52,320.6825,239.7296 M,8,63986,64256,320.7199,240.3585,321.79,241 M,8,64019,64053,320.6825,239.7296,320.6949,239.9393 M,8,64053,64087,320.6949,239.9393,320.7074,240.1489 M,8,64087,64121,320.7074,240.1489,320.7199,240.3585 M,8,64256,64392,321.79,241,322.47,238.87 M,8,64392,64425,322.47,238.87,322.2698,238.8065 M,8,64392,64662,321.6601,238.83,320.09,240.7 M,8,64425,64459,322.2698,238.8065,322.0696,238.7431 M,8,64459,64493,322.0696,238.7431,321.865,238.7839 M,8,64493,64527,321.865,238.7839,321.6601,238.83 M,8,64662,64695,320.09,240.7,320.0738,240.4906 M,8,64662,64932,320.025,239.8625,321.04,241.34 M,8,64695,64729,320.0738,240.4906,320.0575,240.2813 M,8,64729,64763,320.0575,240.2813,320.0413,240.0719 M,8,64763,64797,320.0413,240.0719,320.025,239.8625 M,8,64932,64965,321.04,241.34,321.0562,241.1306 M,8,64932,65203,321.105,240.5025,319.08,240.9 M,8,64965,64999,321.0562,241.1306,321.0725,240.9213 M,8,64999,65033,321.0725,240.9213,321.0887,240.7119 M,8,65033,65067,321.0887,240.7119,321.105,240.5025 M,8,65203,65236,319.08,240.9,319.0638,240.6906 M,8,65203,65473,319.015,240.0625,320.03,241.54 M,8,65236,65270,319.0638,240.6906,319.0475,240.4813 M,8,65270,65304,319.0475,240.4813,319.0313,240.2719 M,8,65304,65338,319.0313,240.2719,319.015,240.0625 M,8,65473,65506,320.03,241.54,320.0486,241.3308 M,8,65473,65878,320.1791,239.8666,319.59,238.72 M,8,65506,65540,320.0486,241.3308,320.0673,241.1217 M,8,65540,65574,320.0673,241.1217,320.0859,240.9125 M,8,65574,65608,320.0859,240.9125,320.1046,240.7033 M,8,65608,65641,320.1046,240.7033,320.1232,240.4941 M,8,65641,65675,320.1232,240.4941,320.1418,240.285 M,8,65675,65709,320.1418,240.285,320.1605,240.0758 M,8,65709,65743,320.1605,240.0758,320.1791,239.8666 M,8,65878,66013,319.59,238.72,321.47,238.36 M,8,66013,66046,321.47,238.36,321.4862,238.5694 M,8,66013,66284,321.535,239.1975,319.51,238.8 M,8,66046,66080,321.4862,238.5694,321.5025,238.7787 M,8,66080,66114,321.5025,238.7787,321.5187,238.9881 M,8,66114,66148,321.5187,238.9881,321.535,239.1975 M,8,66284,66317,319.51,238.8,319.4937,239.0094 M,8,66284,66554,319.445,239.6375,320.46,238.16 M,8,66317,66351,319.4937,239.0094,319.4775,239.2187 M,8,66351,66385,319.4775,239.2187,319.4613,239.4281 M,8,66385,66419,319.4613,239.4281,319.445,239.6375 M,8,66554,66587,320.46,238.16,320.4763,238.3694 M,8,66554,66824,320.525,238.9975,320.94,240.93 M,8,66587,66621,320.4763,238.3694,320.4925,238.5787 M,8,66621,66655,320.4925,238.5787,320.5087,238.7881 M,8,66655,66689,320.5087,238.7881,320.525,238.9975 M,8,66824,66959,320.94,240.93,320.84,240.01 M,8,66959,67094,320.84,240.01,320.75,239.09 M,8,67094,67229,320.75,239.09,320,239.63 M,8,67229,67365,320,239.63,321.7,240.39 M,8,67365,67398,321.7,240.39,321.6751,240.1815 M,8,67365,67635,321.6003,239.5559,320.09,240.55 M,8,67398,67432,321.6751,240.1815,321.6501,239.973 M,8,67432,67466,321.6501,239.973,321.6252,239.7645 M,8,67466,67500,321.6252,239.7645,321.6003,239.5559 M,8,67635,67770,320.09,240.55,321.49,238.54 M,8,67770,67905,321.49,238.54,319.24,240.16 M,8,67905,67938,319.24,240.16,319.0371,240.2141 M,8,67905,68175,318.4205,240.2206,320.75,239.09 M,8,67938,67972,319.0371,240.2141,318.8342,240.2682 M,8,67972,68006,318.8342,240.2682,318.6278,240.2539 M,8,68006,68040,318.6278,240.2539,318.4205,240.2206 M,8,68175,68311,320.75,239.09,320.16,241.39 M,8,68311,68344,320.16,241.39,320.1438,241.1806 M,8,68311,68581,320.095,240.5525,320.75,239.09 M,8,68344,68378,320.1438,241.1806,320.1275,240.9713 M,8,68378,68412,320.1275,240.9713,320.1113,240.7619 M,8,68412,68446,320.1113,240.7619,320.095,240.5525 M,8,68581,68716,320.75,239.09,322.15,240.78 M,8,68716,68749,322.15,240.78,321.9501,240.8413 M,8,68716,69121,320.91,240.06,321.64,238.64 M,8,68749,68783,321.9501,240.8413,321.7416,240.8593 M,8,68783,68817,321.7416,240.8593,321.536,240.8216 M,8,68817,68851,321.536,240.8216,321.3427,240.7415 M,8,68851,68884,321.3427,240.7415,321.1776,240.6133 M,8,68884,68918,321.1776,240.6133,321.043,240.4531 M,8,68918,68952,321.043,240.4531,320.9556,240.2632 M,8,68952,68986,320.9556,240.2632,320.91,240.06 M,8,69121,69256,321.64,238.64,320.91,240.06 M,8,69256,69289,320.91,240.06,320.701,240.0804 M,8,69256,69527,320.0739,240.1414,318.83,238.99 M,8,69289,69323,320.701,240.0804,320.492,240.1007 M,8,69323,69357,320.492,240.1007,320.283,240.121 M,8,69357,69391,320.283,240.121,320.0739,240.1414 M,8,69527,69560,318.83,238.99,318.6674,238.858 M,8,69527,69797,318.0792,238.6592,317.44,240.82 M,8,69560,69594,318.6674,238.858,318.4852,238.7548 M,8,69594,69628,318.4852,238.7548,318.2862,238.6896 M,8,69628,69662,318.2862,238.6896,318.0792,238.6592 M,8,69797,69830,317.44,240.82,317.649,240.7997 M,8,69797,70067,318.2761,240.7386,320.07,240.14 M,8,69830,69864,317.649,240.7997,317.858,240.7793 M,8,69864,69898,317.858,240.7793,318.067,240.759 M,8,69898,69932,318.067,240.759,318.2761,240.7386 M,8,70067,70202,320.07,240.14,319.96,238.88 M,8,70202,70338,319.96,238.88,319.22,240.6 M,8,70338,70371,319.22,240.6,319.1966,240.8082 M,8,70338,70608,319.327,241.4168,321.78,240.4 M,8,70371,70405,319.1966,240.8082,319.2067,241.0174 M,8,70405,70439,319.2067,241.0174,319.2492,241.2224 M,8,70439,70473,319.2492,241.2224,319.327,241.4168 M,8,70608,70641,321.78,240.4,321.5702,240.3913 M,8,70608,70878,320.9407,240.3654,319.39,239.37 M,8,70641,70675,321.5702,240.3913,321.3604,240.3827 M,8,70675,70709,321.3604,240.3827,321.1505,240.374 M,8,70709,70743,321.1505,240.374,320.9407,240.3654 M,8,70878,70911,319.39,239.37,319.5998,239.3613 M,8,70878,71148,320.2293,239.3354,321.77,238.95 M,8,70911,70945,319.5998,239.3613,319.8096,239.3527 M,8,70945,70979,319.8096,239.3527,320.0195,239.344 M,8,70979,71013,320.0195,239.344,320.2293,239.3354 M,8,71148,71181,321.77,238.95,321.8603,238.7615 M,8,71148,71419,321.8365,238.1491,319.39,239.37 M,8,71181,71215,321.8603,238.7615,321.9029,238.5573 M,8,71215,71249,321.9029,238.5573,321.8972,238.3488 M,8,71249,71283,321.8972,238.3488,321.8365,238.1491 M,8,71419,71554,319.39,239.37,320.27,240.64 M,8,71554,71689,320.27,240.64,320.04,238.59 M,8,71689,71722,320.04,238.59,319.8643,238.4762 M,8,71689,71959,319.2549,238.3682,317.7,240.29 M,8,71722,71756,319.8643,238.4762,319.6707,238.3965 M,8,71756,71790,319.6707,238.3965,319.4641,238.363 M,8,71790,71824,319.4641,238.363,319.2549,238.3682 M,8,71959,71992,317.7,240.29,317.9095,240.2756 M,8,71959,72229,318.957,240.2036,319.14,240.29 M,8,71992,72026,317.9095,240.2756,318.119,240.2612 M,8,72026,72060,318.119,240.2612,318.3285,240.2468 M,8,72060,72094,318.3285,240.2468,318.538,240.2324 M,8,72094,72127,318.538,240.2324,318.7475,240.218 M,8,72127,72161,318.7475,240.218,318.957,240.2036 M,8,72229,72262,319.14,240.29,319.2402,240.4735 M,8,72229,72500,319.2662,241.0886,317.99,238.67 M,8,72262,72296,319.2402,240.4735,319.3,240.674 M,8,72296,72330,319.3,240.674,319.3051,240.883 M,8,72330,72364,319.3051,240.883,319.2662,241.0886 M,8,72500,72635,317.99,238.67,319.25,238.36 M,8,72635,72668,319.25,238.36,319.459,238.3634 M,8,72635,72905,320.0041,238.6485,320.49,239.81 M,8,72668,72702,319.459,238.3634,319.6627,238.4112 M,8,72702,72736,319.6627,238.4112,319.8461,238.5114 M,8,72736,72770,319.8461,238.5114,320.0041,238.6485 M,8,72905,73040,320.49,239.81,317.94,239.97 M,8,73040,73073,317.94,239.97,318.0406,239.7862 M,8,73040,73446,319.3192,239.2699,320.49,239.81 M,8,73073,73107,318.0406,239.7862,318.1689,239.6207 M,8,73107,73141,318.1689,239.6207,318.3257,239.4819 M,8,73141,73175,318.3257,239.4819,318.5031,239.3707 M,8,73175,73208,318.5031,239.3707,318.6969,239.2912 M,8,73208,73242,318.6969,239.2912,318.9023,239.2498 M,8,73242,73276,318.9023,239.2498,319.1115,239.2419 M,8,73276,73310,319.1115,239.2419,319.3192,239.2699 M,8,73446,73581,320.49,239.81,319.02,241.34 M,8,73581,73614,319.02,241.34,319.0301,241.1302 M,8,73581,73851,319.06,240.51,317.64,241.16 M,8,73614,73648,319.0301,241.1302,319.0402,240.9205 M,8,73648,73682,319.0402,240.9205,319.0503,240.7107 M,8,73682,73716,319.0503,240.7107,319.06,240.51 M,8,73851,73884,317.64,241.16,317.6476,241.3699 M,8,73851,74121,317.67,241.99,319.14,240.43 M,8,73884,73918,317.6476,241.3699,317.6552,241.5797 M,8,73918,73952,317.6552,241.5797,317.6628,241.7896 M,8,73952,73986,317.6628,241.7896,317.67,241.99 M,8,74121,74154,319.14,240.43,318.9636,240.3181 M,8,74121,74392,318.352,240.2723,319.87,238.65 M,8,74154,74188,318.9636,240.3181,318.7664,240.2492 M,8,74188,74222,318.7664,240.2492,318.5579,240.2369 M,8,74222,74256,318.5579,240.2369,318.352,240.2723 M,8,74392,74425,319.87,238.65,319.8776,238.8599 M,8,74392,74662,319.9,239.48,320.99,240.3 M,8,74425,74459,319.8776,238.8599,319.8852,239.0697 M,8,74459,74493,319.8852,239.0697,319.8928,239.2796 M,8,74493,74527,319.8928,239.2796,319.9,239.48 M,8,74662,74797,320.99,240.3,321.17,239.05 M,8,74797,74932,321.17,239.05,321.99,240.71 M,8,74932,74965,321.99,240.71,322.0441,240.9129 M,8,74932,75202,322.0039,241.5189,320.33,239.09 M,8,74965,74999,322.0441,240.9129,322.0982,241.1158 M,8,74999,75033,322.0982,241.1158,322.0634,241.3175 M,8,75033,75067,322.0634,241.3175,322.0039,241.5189 M,8,75202,75235,320.33,239.09,320.5398,239.0799 M,8,75202,75473,321.16,239.05,319.46,238.5 M,8,75235,75269,320.5398,239.0799,320.7495,239.0698 M,8,75269,75303,320.7495,239.0698,320.9593,239.0597 M,8,75303,75337,320.9593,239.0597,321.16,239.05 M,8,75473,75506,319.46,238.5,319.3592,238.6833 M,8,75473,75743,319.309,239.2984,321.34,240.3 M,8,75506,75540,319.3592,238.6833,319.2986,238.8833 M,8,75540,75574,319.2986,238.8833,319.2799,239.0914 M,8,75574,75608,319.2799,239.0914,319.309,239.2984 M,8,75743,75878,321.34,240.3,321.16,239.05 M,8,75878,76013,321.16,239.05,320.34,240.71 M,8,76013,76046,320.34,240.71,320.3299,240.9198 M,8,76013,76283,320.3,241.54,322.06,239.8 M,8,76046,76080,320.3299,240.9198,320.3198,241.1295 M,8,76080,76114,320.3198,241.1295,320.3097,241.3393 M,8,76114,76148,320.3097,241.3393,320.3,241.54 M,8,76283,76316,322.06,239.8,321.9134,239.6509 M,8,76283,76554,320.9315,239.5501,320.79,239.65 M,8,76316,76350,321.9134,239.6509,321.7388,239.5359 M,8,76350,76384,321.7388,239.5359,321.5409,239.4689 M,8,76384,76418,321.5409,239.4689,321.3333,239.4462 M,8,76418,76451,321.3333,239.4462,321.1264,239.4756 M,8,76451,76485,321.1264,239.4756,320.9315,239.5501 M,8,76554,76587,320.79,239.65,320.8031,239.4404 M,8,76554,76824,320.8424,238.8116,322.26,240.7 M,8,76587,76621,320.8031,239.4404,320.8162,239.2308 M,8,76621,76655,320.8162,239.2308,320.8293,239.0212 M,8,76655,76689,320.8293,239.0212,320.8424,238.8116 M,8,76824,76959,322.26,240.7,320.67,241.02 M,8,76959,76992,320.67,241.02,320.4625,240.9907 M,8,76959,77229,319.9051,240.7129,319.19,239.22 M,8,76992,77026,320.4625,240.9907,320.2616,240.931 M,8,77026,77060,320.2616,240.931,320.0752,240.8353 M,8,77060,77094,320.0752,240.8353,319.9051,240.7129 M,8,77229,77365,319.19,239.22,318.81,241.77 M,8,77365,77398,318.81,241.77,319.0181,241.7469 M,8,77365,77770,319.9052,240.7151,319.19,239.22 M,8,77398,77432,319.0181,241.7469,319.2194,241.6889 M,8,77432,77466,319.2194,241.6889,319.4041,241.5904 M,8,77466,77500,319.4041,241.5904,319.5691,241.4615 M,8,77500,77533,319.5691,241.4615,319.7042,241.3016 M,8,77533,77567,319.7042,241.3016,319.8091,241.1206 M,8,77567,77601,319.8091,241.1206,319.8754,240.9221 M,8,77601,77635,319.8754,240.9221,319.9052,240.7151 M,8,77770,77905,319.19,239.22,320.68,241.02 M,8,77905,77938,320.68,241.02,320.6876,241.2299 M,8,77905,78175,320.71,241.85,319.16,240.39 M,8,77938,77972,320.6876,241.2299,320.6952,241.4397 M,8,77972,78006,320.6952,241.4397,320.7028,241.6496 M,8,78006,78040,320.7028,241.6496,320.71,241.85 M,8,78175,78208,319.16,240.39,319.2648,240.2095 M,8,78175,78446,319.7987,239.9176,318.81,241.77 M,8,78208,78242,319.2648,240.2095,319.4137,240.0638 M,8,78242,78276,319.4137,240.0638,319.5952,239.9619 M,8,78276,78310,319.5952,239.9619,319.7987,239.9176 M,8,78446,78479,318.81,241.77,318.6013,241.771 M,8,78446,78716,318.0785,241.459,319.12,239.55 M,8,78479,78513,318.6013,241.771,318.3991,241.7196 M,8,78513,78547,318.3991,241.7196,318.2215,241.6104 M,8,78547,78581,318.2215,241.6104,318.0785,241.459 M,8,78716,78851,319.12,239.55,318.72,241.02 M,8,78851,78986,318.72,241.02,320.33,239.55 M,8,78986,79019,320.33,239.55,320.4029,239.3542 M,8,78986,79256,320.3201,238.7474,318.19,238.29 M,8,79019,79053,320.4029,239.3542,320.4264,239.1469 M,8,79053,79087,320.4264,239.1469,320.4,238.9401 M,8,79087,79121,320.4,238.9401,320.3201,238.7474 M,8,79256,79289,318.19,238.29,318.1362,238.4918 M,8,79256,79527,318.28,239.08,321.16,238.78 M,8,79289,79323,318.1362,238.4918,318.1305,238.7008 M,8,79323,79357,318.1305,238.7008,318.1851,238.9023 M,8,79357,79391,318.1851,238.9023,318.28,239.08 M,8,79527,79560,321.16,238.78,320.9502,238.77 M,8,79527,79797,320.321,238.7401,319.15,240.5 M,8,79560,79594,320.9502,238.77,320.7405,238.76 M,8,79594,79628,320.7405,238.76,320.5307,238.75 M,8,79628,79662,320.5307,238.75,320.321,238.7401 M,8,79797,79830,319.15,240.5,319.3564,240.4681 M,8,79797,80067,319.8369,240.0909,318.03,239.92 M,8,79830,79864,319.3564,240.4681,319.5479,240.3857 M,8,79864,79898,319.5479,240.3857,319.7129,240.2585 M,8,79898,79932,319.7129,240.2585,319.8369,240.0909 M,8,80067,80202,318.03,239.92,318.62,241.66 M,8,80202,80338,318.62,241.66,319.46,239.24 M,8,80338,80371,319.46,239.24,319.6698,239.2299 M,8,80338,80608,320.29,239.2,321.44,240.99 M,8,80371,80405,319.6698,239.2299,319.8795,239.2198 M,8,80405,80439,319.8795,239.2198,320.0893,239.2097 M,8,80439,80473,320.0893,239.2097,320.29,239.2 M,8,80608,80641,321.44,240.99,321.23,240.994 M,8,80608,80878,320.2061,240.89,320.07,241 M,8,80641,80675,321.23,240.994,321.0201,240.9979 M,8,80675,80709,321.0201,240.9979,320.8206,240.9553 M,8,80709,80743,320.8206,240.9553,320.6261,240.89 M,8,80743,80776,320.6261,240.89,320.4161,240.89 M,8,80776,80810,320.4161,240.89,320.2061,240.89 M,8,80878,80911,320.07,241,320.1384,240.8023 M,8,80878,81148,320.0785,240.1881,318.53,241.84 M,8,80911,80945,320.1384,240.8023,320.1666,240.595 M,8,80945,80979,320.1666,240.595,320.143,240.3871 M,8,80979,81013,320.143,240.3871,320.0785,240.1881 M,8,81148,81283,318.53,241.84,319.86,242 M,8,81283,81316,319.86,242,320.0698,241.9899 M,8,81283,81554,320.69,241.96,321.44,240.99 M,8,81316,81350,320.0698,241.9899,320.2795,241.9798 M,8,81350,81384,320.2795,241.9798,320.4893,241.9697 M,8,81384,81418,320.4893,241.9697,320.69,241.96 M,8,81554,81689,321.44,240.99,319.37,239.64 M,8,81689,81722,319.37,239.64,319.2082,239.7723 M,8,81689,82094,319.2976,241.0663,320.37,241.26 M,8,81722,81756,319.2082,239.7723,319.078,239.9361 M,8,81756,81790,319.078,239.9361,318.9965,240.1286 M,8,81790,81824,318.9965,240.1286,318.9579,240.3341 M,8,81824,81857,318.9579,240.3341,318.9755,240.5424 M,8,81857,81891,318.9755,240.5424,319.0373,240.7422 M,8,81891,81925,319.0373,240.7422,319.1499,240.9182 M,8,81925,81959,319.1499,240.9182,319.2976,241.0663 M,8,82094,82229,320.37,241.26,320.11,239.05 M,8,82229,82262,320.11,239.05,319.9615,238.9028 M,8,82229,82500,319.3786,238.7079,320.31,240.06 M,8,82262,82296,319.9615,238.9028,319.784,238.7928 M,8,82296,82330,319.784,238.7928,319.5867,238.7251 M,8,82330,82364,319.5867,238.7251,319.3786,238.7079 M,8,82500,82533,320.31,240.06,320.5111,240.0026 M,8,82500,82770,320.9685,239.5916,319.29,241.06 M,8,82533,82567,320.5111,240.0026,320.6941,239.9021 M,8,82567,82601,320.6941,239.9021,320.8503,239.7638 M,8,82601,82635,320.8503,239.7638,320.9685,239.5916 M,8,82770,82803,319.29,241.06,319.2976,241.2699 M,8,82770,83040,319.32,241.89,317.76,240.08 M,8,82803,82837,319.2976,241.2699,319.3052,241.4797 M,8,82837,82871,319.3052,241.4797,319.3127,241.6896 M,8,82871,82905,319.3127,241.6896,319.32,241.89 M,8,83040,83073,317.76,240.08,317.9204,239.9459 M,8,83040,83311,318.5186,239.7999,320.1,241.02 M,8,83073,83107,317.9204,239.9459,318.1068,239.8518 M,8,83107,83141,318.1068,239.8518,318.3094,239.8022 M,8,83141,83175,318.3094,239.8022,318.5186,239.7999 M,8,83311,83446,320.1,241.02,318.5,240.82 M,8,83446,83581,318.5,240.82,320.41,239.38 M,8,83581,83614,320.41,239.38,320.4355,239.5884 M,8,83581,83851,320.5121,240.2138,319.15,241.86 M,8,83614,83648,320.4355,239.5884,320.4611,239.7969 M,8,83648,83682,320.4611,239.7969,320.4866,240.0053 M,8,83682,83716,320.4866,240.0053,320.5121,240.2138 M,8,83851,83884,319.15,241.86,319.1121,241.6544 M,8,83851,84121,319.2866,241.0648,321.46,241.07 M,8,83884,83918,319.1121,241.6544,319.1232,241.446 M,8,83918,83952,319.1232,241.446,319.182,241.246 M,8,83952,83986,319.182,241.246,319.2866,241.0648 M,8,84121,84256,321.46,241.07,319.42,240.23 M,8,84256,84392,319.42,240.23,321.54,239.87 M,8,84392,84527,321.54,239.87,319.34,240.15 M,8,84527,84662,319.34,240.15,321.04,238.74 M,8,84662,84797,321.04,238.74,319.26,240.07 M,8,84797,84932,319.26,240.07,320.59,240.05 M,8,84932,85202,320.59,240.05,318.1,238.36 M,8,85202,86361,318.1,238.36,322.03,241.02 M,8,86361,86651,322.03,241.02,318.85,240.23 M,8,86651,86747,318.85,240.23,319.64,240.16 M,8,86747,86844,319.64,240.16,320.44,240.09 M,8,86844,86940,320.44,240.09,321.24,240.02 M,8,86940,88680,321.24,240.02 M,8,88680,88776,321.24,240.02,320.66,239.49 M,8,88776,88873,320.66,239.49,319.88,239.52 M,8,88873,88969,319.88,239.52,319.34,240.09 M,8,88969,89066,319.34,240.09,318.8,240.66 M,8,89066,89163,318.8,240.66,318.02,240.69 M,8,89163,89259,318.02,240.69,317.44,240.16 M,8,89259,90999,317.44,240.16 M,8,90999,91289,317.44,240.16,319.34,240.09 M,8,91289,91578,319.34,240.09,321.24,240.02 M,8,91578,92158,321.24,240.02,318.24,238.58 M,8,92158,92255,318.24,238.58,317.96,239.41 M,8,92255,92351,317.96,239.41,318.82,239.22 M,8,92351,92448,318.82,239.22,318.13,238.47 M,8,92448,92738,318.13,238.47,318.33,240.65 M,8,92738,92835,318.33,240.65,318.05,241.48 M,8,92835,92931,318.05,241.48,318.91,241.29 M,8,92931,93028,318.91,241.29,318.22,240.54 M,8,93028,93317,318.22,240.54,320.3,239.05 M,8,93317,93414,320.3,239.05,320.02,239.86 M,8,93414,93510,320.02,239.86,320.88,239.68 M,8,93510,93607,320.88,239.68,319.61,238.3 M,8,93607,93704,319.61,238.3,319.33,239.11 M,8,93704,93800,319.33,239.11,320.19,238.93 M,8,93800,93897,320.19,238.93,319.5,238.19 M,8,93897,94187,319.5,238.19,318.33,240.52 M,8,94187,94223,318.33,240.52,318.2982,240.8183 M,8,94187,94477,318.33,240.52,320.26,241.36 M,8,94223,94259,318.2982,240.8183,318.2663,241.1166 M,8,94259,94295,318.2663,241.1166,318.2557,241.216 M,8,94295,94331,318.2557,241.216,318.2875,240.9177 M,8,94331,94368,318.2875,240.9177,318.3194,240.6194 M,8,94368,94380,318.3194,240.6194,318.33,240.52 M,8,94477,94574,320.26,241.36,319.35,241.66 M,8,94574,94670,319.35,241.66,319.55,240.71 M,8,94670,94767,319.55,240.71,320.39,241.47 M,8,94767,95057,320.39,241.47,321.81,239.64 M,8,95057,95154,321.81,239.64,320.98,239.92 M,8,95154,95250,320.98,239.92,321.17,239.07 M,8,95250,95347,321.17,239.07,321.92,239.76 M,8,95347,95636,321.92,239.76,319.33,238.99 M,8,95636,95733,319.33,238.99,318.5,239.27 M,8,95733,95829,318.5,239.27,318.68,238.42 M,8,95829,95926,318.68,238.42,320.09,239.68 M,8,95926,96023,320.09,239.68,319.26,239.96 M,8,96023,96119,319.26,239.96,319.44,239.11 M,8,96119,96216,319.44,239.11,320.19,239.8 M,8,96216,96506,320.19,239.8,319.36,241.66 M,8,96506,96542,319.36,241.66,319.0616,241.6292 M,8,96506,96796,319.36,241.66,321.23,241.31 M,8,96542,96578,319.0616,241.6292,318.7632,241.5985 M,8,96578,96614,318.7632,241.5985,318.6637,241.5882 M,8,96614,96650,318.6637,241.5882,318.9621,241.619 M,8,96650,96687,318.9621,241.619,319.2605,241.6497 M,8,96687,96699,319.2605,241.6497,319.36,241.66 M,8,96796,96893,321.23,241.31,321.51,240.48 M,8,96893,96989,321.51,240.48,320.65,240.67 M,8,96989,97086,320.65,240.67,321.34,241.42 M,8,97086,97376,321.34,241.42,321.14,239.24 M,8,97376,97473,321.14,239.24,321.42,238.41 M,8,97473,97569,321.42,238.41,320.56,238.6 M,8,97569,97666,320.56,238.6,321.25,239.35 M,8,97666,97955,321.25,239.35,319.17,240.84 M,8,97955,98052,319.17,240.84,319.45,240.03 M,8,98052,98148,319.45,240.03,318.59,240.21 M,8,98148,98245,318.59,240.21,319.86,241.59 M,8,98245,98342,319.86,241.59,320.14,240.78 M,8,98342,98438,320.14,240.78,319.28,240.96 M,8,98438,98535,319.28,240.96,319.97,241.7 M,8,98535,98825,319.97,241.7,321.14,239.37 M,8,98825,98861,321.14,239.37,321.1718,239.0717 M,8,98825,99115,321.14,239.37,319.41,238.79 M,8,98861,98897,321.1718,239.0717,321.2037,238.7734 M,8,98897,98933,321.2037,238.7734,321.2143,238.674 M,8,98933,98969,321.2143,238.674,321.1825,238.9723 M,8,98969,99006,321.1825,238.9723,321.1506,239.2706 M,8,99006,99018,321.1506,239.2706,321.14,239.37 M,8,99115,99212,319.41,238.79,320.32,238.49 M,8,99212,99308,320.32,238.49,320.12,239.44 M,8,99308,99405,320.12,239.44,319.28,238.68 M,8,99405,99695,319.28,238.68,317.86,240.51 M,8,99695,99792,317.86,240.51,318.69,240.23 M,8,99792,99888,318.69,240.23,318.5,241.08 M,8,99888,99985,318.5,241.08,317.75,240.39 M,8,99985,100274,317.75,240.39,320.34,241.16 M,8,100274,100371,320.34,241.16,321.17,240.88 M,8,100371,100467,321.17,240.88,320.99,241.73 M,8,100467,100564,320.99,241.73,319.58,240.47 M,8,100564,100661,319.58,240.47,320.41,240.19 M,8,100661,100757,320.41,240.19,320.23,241.04 M,8,100757,100854,320.23,241.04,319.48,240.33 M,8,100854,100890,319.48,240.33,319.5126,240.0318 M,8,100854,101144,319.48,240.33,320.31,241.12 M,8,100890,100926,319.5126,240.0318,319.5452,239.7336 M,8,100926,100962,319.5452,239.7336,319.556,239.6341 M,8,100962,100998,319.556,239.6341,319.5234,239.9324 M,8,100998,101035,319.5234,239.9324,319.4909,240.2306 M,8,101035,101047,319.4909,240.2306,319.48,240.33 M,8,101144,101180,320.31,241.12,320.3426,241.4182 M,8,101144,101433,320.31,241.12,321.89,241.31 M,8,101180,101216,320.3426,241.4182,320.3752,241.7164 M,8,101216,101252,320.3752,241.7164,320.386,241.8159 M,8,101252,101288,320.386,241.8159,320.3534,241.5176 M,8,101288,101325,320.3534,241.5176,320.3209,241.2194 M,8,101325,101337,320.3209,241.2194,320.31,241.12 M,8,101433,101530,321.89,241.31,322.17,240.48 M,8,101530,101626,322.17,240.48,321.31,240.67 M,8,101626,101723,321.31,240.67,322,241.42 M,8,101723,102013,322,241.42,321.8,239.24 M,8,102013,102110,321.8,239.24,322.08,238.41 M,8,102110,102206,322.08,238.41,321.22,238.6 M,8,102206,102303,321.22,238.6,321.91,239.35 M,8,102303,102592,321.91,239.35,319.83,240.84 M,8,102592,102689,319.83,240.84,320.11,240.03 M,8,102689,102785,320.11,240.03,319.25,240.21 M,8,102785,102882,319.25,240.21,320.52,241.59 M,8,102882,102979,320.52,241.59,320.8,240.78 M,8,102979,103075,320.8,240.78,319.94,240.96 M,8,103075,103172,319.94,240.96,320.63,241.7 M,8,103172,103462,320.63,241.7,321.8,239.37 M,8,103462,103498,321.8,239.37,321.8318,239.0717 M,8,103462,103752,321.8,239.37,319.87,238.53 M,8,103498,103534,321.8318,239.0717,321.8637,238.7734 M,8,103534,103570,321.8637,238.7734,321.8743,238.674 M,8,103570,103606,321.8743,238.674,321.8425,238.9723 M,8,103606,103643,321.8425,238.9723,321.8106,239.2706 M,8,103643,103655,321.8106,239.2706,321.8,239.37 M,8,103752,103849,319.87,238.53,320.78,238.23 M,8,103849,103945,320.78,238.23,320.58,239.18 M,8,103945,104042,320.58,239.18,319.74,238.42 M,8,104042,104332,319.74,238.42,318.32,240.25 M,8,104332,104429,318.32,240.25,319.15,239.97 M,8,104429,104525,319.15,239.97,318.96,240.82 M,8,104525,104622,318.96,240.82,318.21,240.13 M,8,104622,104911,318.21,240.13,320.8,240.9 M,8,104911,105008,320.8,240.9,321.63,240.62 M,8,105008,105104,321.63,240.62,321.45,241.47 M,8,105104,105201,321.45,241.47,320.04,240.21 M,8,105201,105298,320.04,240.21,320.87,239.93 M,8,105298,105394,320.87,239.93,320.69,240.78 M,8,105394,105491,320.69,240.78,319.94,240.09 M,8,105491,105781,319.94,240.09,320.77,238.23 M,8,105781,105817,320.77,238.23,321.0684,238.2608 M,8,105781,106071,320.77,238.23,318.9,238.58 M,8,105817,105853,321.0684,238.2608,321.3669,238.2915 M,8,105853,105889,321.3669,238.2915,321.4663,238.3018 M,8,105889,105925,321.4663,238.3018,321.1679,238.271 M,8,105925,105962,321.1679,238.271,320.8695,238.2402 M,8,105962,105974,320.8695,238.2402,320.77,238.23 M,8,106071,106168,318.9,238.58,318.62,239.41 M,8,106168,106264,318.62,239.41,319.48,239.22 M,8,106264,106361,319.48,239.22,318.79,238.47 M,8,106361,106651,318.79,238.47,318.99,240.65 M,8,106651,106748,318.99,240.65,318.71,241.48 M,8,106748,106844,318.71,241.48,319.57,241.29 M,8,106844,106941,319.57,241.29,318.88,240.54 M,8,106941,107230,318.88,240.54,320.96,239.05 M,8,107230,107327,320.96,239.05,320.68,239.86 M,8,107327,107423,320.68,239.86,321.54,239.68 M,8,107423,107520,321.54,239.68,320.27,238.3 M,8,107520,107617,320.27,238.3,319.99,239.11 M,8,107617,107713,319.99,239.11,320.85,238.93 M,8,107713,107810,320.85,238.93,320.16,238.19 M,8,107810,108100,320.16,238.19,318.99,240.52 M,8,108100,108136,318.99,240.52,318.9581,240.8183 M,8,108100,108390,318.99,240.52,320.72,241.1 M,8,108136,108172,318.9581,240.8183,318.9263,241.1166 M,8,108172,108208,318.9263,241.1166,318.9157,241.216 M,8,108208,108244,318.9157,241.216,318.9475,240.9177 M,8,108244,108281,318.9475,240.9177,318.9794,240.6194 M,8,108281,108293,318.9794,240.6194,318.99,240.52 M,8,108390,108487,320.72,241.1,319.81,241.4 M,8,108487,108583,319.81,241.4,320.01,240.45 M,8,108583,108680,320.01,240.45,320.85,241.21 M,8,108680,108970,320.85,241.21,322.27,239.38 M,8,108970,109067,322.27,239.38,321.44,239.66 M,8,109067,109163,321.44,239.66,321.63,238.81 M,8,109163,109260,321.63,238.81,322.38,239.5 M,8,109260,109549,322.38,239.5,319.79,238.73 M,8,109549,109646,319.79,238.73,318.96,239.01 M,8,109646,109742,318.96,239.01,319.14,238.16 M,8,109742,109839,319.14,238.16,320.55,239.42 M,8,109839,109936,320.55,239.42,319.72,239.7 M,8,109936,110032,319.72,239.7,319.9,238.85 M,8,110032,110129,319.9,238.85,320.63,239.5 M,8,110129,110165,320.63,239.5,320.6056,239.799 M,8,110129,110419,320.63,239.5,321.66,238.95 M,8,110165,110201,320.6056,239.799,320.5812,240.098 M,8,110201,110237,320.5812,240.098,320.5731,240.1977 M,8,110237,110273,320.5731,240.1977,320.5974,239.8987 M,8,110273,110310,320.5974,239.8987,320.6219,239.5997 M,8,110310,110322,320.6219,239.5997,320.63,239.5 M,8,110419,110455,321.66,238.95,321.6356,238.651 M,8,110419,110709,321.66,238.95,321.63,240.8 M,8,110455,110491,321.6356,238.651,321.6112,238.352 M,8,110491,110527,321.6112,238.352,321.6031,238.2523 M,8,110527,110563,321.6031,238.2523,321.6274,238.5513 M,8,110563,110600,321.6274,238.5513,321.6519,238.8503 M,8,110600,110612,321.6519,238.8503,321.66,238.95 M,8,110709,110805,321.63,240.8,321.06,241.33 M,8,110805,110902,321.06,241.33,320.28,241.33 M,8,110902,110998,320.28,241.33,319.71,240.79 M,8,110998,111095,319.71,240.79,319.14,240.25 M,8,111095,111192,319.14,240.25,318.36,240.25 M,8,111192,111288,318.36,240.25,317.74,240.74 M,8,111288,111324,317.74,240.74,317.7608,240.5915 M,8,111288,111868,318.0178,238.7594,320.24,239.38 M,8,111324,111360,317.7608,240.5915,317.7817,240.4429 M,8,111360,111396,317.7817,240.4429,317.8025,240.2944 M,8,111396,111432,317.8025,240.2944,317.8233,240.1458 M,8,111432,111469,317.8233,240.1458,317.8442,239.9973 M,8,111469,111505,317.8442,239.9973,317.865,239.8487 M,8,111505,111541,317.865,239.8487,317.8859,239.7002 M,8,111541,111577,317.8859,239.7002,317.9067,239.5516 M,8,111577,111614,317.9067,239.5516,317.9275,239.4031 M,8,111614,111650,317.9275,239.4031,317.9484,239.2545 M,8,111650,111686,317.9484,239.2545,317.9692,239.106 M,8,111686,111722,317.9692,239.106,317.9901,238.9575 M,8,111722,111759,317.9901,238.9575,318.0109,238.8089 M,8,111759,111771,318.0109,238.8089,318.0178,238.7594 M,8,111868,111964,320.24,239.38,320.25,240.14 M,8,111964,112061,320.25,240.14,319.59,240.54 M,8,112061,112157,319.59,240.54,318.92,240.19 M,8,112157,112254,318.92,240.19,318.86,239.43 M,8,112254,112351,318.86,239.43,319.48,238.99 M,8,112351,112448,319.48,238.99,319.55,239.75 M,8,112448,112484,319.55,239.75,319.4013,239.7302 M,8,112448,113028,317.5674,239.4863,317.67,241.03 M,8,112484,112520,319.4013,239.7302,319.2526,239.7104 M,8,112520,112556,319.2526,239.7104,319.1039,239.6907 M,8,112556,112592,319.1039,239.6907,318.9552,239.6709 M,8,112592,112629,318.9552,239.6709,318.8065,239.6511 M,8,112629,112665,318.8065,239.6511,318.6579,239.6313 M,8,112665,112701,318.6579,239.6313,318.5092,239.6116 M,8,112701,112737,318.5092,239.6116,318.3605,239.5918 M,8,112737,112774,318.3605,239.5918,318.2118,239.572 M,8,112774,112810,318.2118,239.572,318.0631,239.5522 M,8,112810,112846,318.0631,239.5522,317.9144,239.5325 M,8,112846,112882,317.9144,239.5325,317.7657,239.5127 M,8,112882,112919,317.7657,239.5127,317.617,239.4929 M,8,112919,112931,317.617,239.4929,317.5674,239.4863 M,8,113028,113100,317.67,241.03,318,240.68 M,8,113100,113172,318,240.68,318.44,240.51 M,8,113172,113245,318.44,240.51,318.92,240.54 M,8,113245,113317,318.92,240.54,319.34,240.76 M,8,113317,113353,319.34,240.76,319.3566,241.0595 M,8,113317,113607,319.34,240.76,320.17,239.84 M,8,113353,113389,319.3566,241.0595,319.3733,241.3591 M,8,113389,113425,319.3733,241.3591,319.3788,241.4589 M,8,113425,113461,319.3788,241.4589,319.3622,241.1594 M,8,113461,113498,319.3622,241.1594,319.3456,240.8598 M,8,113498,113510,319.3456,240.8598,319.34,240.76 M,8,113607,113679,320.17,239.84,320.5,240.18 M,8,113679,113751,320.5,240.18,320.94,240.35 M,8,113751,113824,320.94,240.35,321.42,240.32 M,8,113824,113896,321.42,240.32,321.84,240.1 M,8,113896,113932,321.84,240.1,321.8539,239.8003 M,8,113896,114187,321.84,240.1,320.75,238.75 M,8,113932,113968,321.8539,239.8003,321.8677,239.5006 M,8,113968,114004,321.8677,239.5006,321.8724,239.4007 M,8,114004,114040,321.8724,239.4007,321.8585,239.7004 M,8,114040,114077,321.8585,239.7004,321.8446,240.0001 M,8,114077,114089,321.8446,240.0001,321.84,240.1 M,8,114187,114227,320.75,238.75,320.4259,238.5394 M,8,114187,114405,319.5589,238.6313,319.37,240.44 M,8,114227,114268,320.4259,238.5394,320.0457,238.4735 M,8,114268,114309,320.0457,238.4735,319.6707,238.5659 M,8,114309,114323,319.6707,238.5659,319.5589,238.6313 M,8,114405,114445,319.37,240.44,319.7153,240.2663 M,8,114405,114624,320.08,239.4722,318.58,238.4 M,8,114445,114486,319.7153,240.2663,319.9648,239.9718 M,8,114486,114527,319.9648,239.9718,320.076,239.602 M,8,114527,114541,320.076,239.602,320.08,239.4722 M,8,114624,114664,318.58,238.4,318.5542,238.7854 M,8,114624,114842,319.0682,239.4891,320.43,240.51 M,8,114664,114705,318.5542,238.7854,318.6861,239.1478 M,8,114705,114746,318.6861,239.1478,318.956,239.4238 M,8,114746,114760,318.956,239.4238,319.0682,239.4891 M,8,114842,114882,320.43,240.51,320.4626,240.1214 M,8,114842,115061,320.5388,239.2146,321.08,238.28 M,8,114882,114923,320.4626,240.1214,320.4953,239.7327 M,8,114923,114964,320.4953,239.7327,320.5279,239.3441 M,8,114964,114978,320.5279,239.3441,320.5388,239.2146 M,8,115061,115101,321.08,238.28,321.0474,238.6686 M,8,115061,115279,320.9712,239.5754,321.34,240.95 M,8,115101,115142,321.0474,238.6686,321.0147,239.0573 M,8,115142,115183,321.0147,239.0573,320.9821,239.4459 M,8,115183,115197,320.9821,239.4459,320.9712,239.5754 M,8,115279,115319,321.34,240.95,321.3726,240.5614 M,8,115279,115498,321.4488,239.6546,322.33,238.39 M,8,115319,115360,321.3726,240.5614,321.4053,240.1727 M,8,115360,115401,321.4053,240.1727,321.4379,239.7841 M,8,115401,115415,321.4379,239.7841,321.4488,239.6546 M,8,115498,117665,322.33,238.39 M,8,117665,117815,322.33,238.39,321.13,239.63 M,8,117815,117852,321.13,239.63,320.8314,239.6016 M,8,117815,117965,320.5327,239.5731,318.87,239.03 M,8,117852,117890,320.8314,239.6016,320.5327,239.5731 M,8,117965,118002,318.87,239.03,318.8444,239.3289 M,8,117965,118265,318.7675,240.2256,319.72,238.63 M,8,118002,118040,318.8444,239.3289,318.8188,239.6278 M,8,118040,118077,318.8188,239.6278,318.7932,239.9267 M,8,118077,118115,318.7932,239.9267,318.7675,240.2256 M,8,118265,118302,319.72,238.63,319.6944,238.9289 M,8,118265,118565,319.6175,239.8256,319.44,241.62 M,8,118302,118340,319.6944,238.9289,319.6688,239.2278 M,8,118340,118377,319.6688,239.2278,319.6431,239.5267 M,8,118377,118415,319.6431,239.5267,319.6175,239.8256 M,8,118565,118715,319.44,241.62,321.34,239.88 M,8,118715,118752,321.34,239.88,321.0551,239.7879 M,8,118715,119015,319.6135,239.8216,319.45,239.65 M,8,118752,118790,321.0551,239.7879,320.7574,239.7881 M,8,118790,118827,320.7574,239.7881,320.4791,239.8985 M,8,118827,118865,320.4791,239.8985,320.1897,239.9697 M,8,118865,118902,320.1897,239.9697,319.894,239.9272 M,8,118902,118940,319.894,239.9272,319.6135,239.8216 M,8,119015,119052,319.45,239.65,319.4723,239.3508 M,8,119015,119165,319.4947,239.0517,320.93,238.55 M,8,119052,119090,319.4723,239.3508,319.4947,239.0517 M,8,119165,119315,320.93,238.55,321.22,241.03 M,8,119315,119352,321.22,241.03,321.3589,240.7654 M,8,119315,119615,321.351,239.8882,320.86,238.47 M,8,119352,119390,321.3589,240.7654,321.4311,240.4755 M,8,119390,119427,321.4311,240.4755,321.4298,240.1765 M,8,119427,119465,321.4298,240.1765,321.351,239.8882 M,8,119615,119765,320.86,238.47,320.16,240.32 M,8,119765,119915,320.16,240.32,322.07,238.98 M,8,119915,119990,322.07,238.98 M,8,119990,120065,322.07,238.98 M,8,120065,120215,322.07,238.98,319.9,238.93 M,8,120215,120252,319.9,238.93,319.874,239.2289 M,8,120215,120365,319.848,239.5277,320.82,240.98 M,8,120252,120290,319.874,239.2289,319.848,239.5277 M,8,120365,120402,320.82,240.98,321.108,241.0588 M,8,120365,120665,321.9434,240.8106,319.79,240.99 M,8,120402,120440,321.108,241.0588,321.4065,241.0587 M,8,120440,120477,321.4065,241.0587,321.6919,240.9711 M,8,120477,120515,321.6919,240.9711,321.9434,240.8106 M,8,120665,120702,319.79,240.99,319.8685,241.2782 M,8,120665,120965,321.0789,241.9552,321.3,241.91 M,8,120702,120740,319.8685,241.2782,320.0172,241.5371 M,8,120740,120777,320.0172,241.5371,320.2308,241.7457 M,8,120777,120815,320.2308,241.7457,320.4909,241.8916 M,8,120815,120852,320.4909,241.8916,320.7805,241.9642 M,8,120852,120890,320.7805,241.9642,321.0789,241.9552 M,8,120965,121115,321.3,241.91,321.23,239.74 M,8,121115,121152,321.23,239.74,320.9307,239.7601 M,8,121115,121340,320.0327,239.8204,318.9,239.49 M,8,121152,121190,320.9307,239.7601,320.6313,239.7802 M,8,121190,121227,320.6313,239.7802,320.332,239.8003 M,8,121227,121265,320.332,239.8003,320.0327,239.8204 M,8,121340,121415,318.9,239.49,318.8,239.27 M,8,121415,121452,318.8,239.27,318.785,238.9704 M,8,121415,121565,318.7701,238.6707,320.3,238.6 M,8,121452,121490,318.785,238.9704,318.7701,238.6707 M,8,121565,121602,320.3,238.6,320.5977,238.6009 M,8,121565,121865,321.2228,239.7432,320.6,240.4 M,8,121602,121640,320.5977,238.6009,320.8772,238.7021 M,8,121640,121677,320.8772,238.7021,321.1042,238.8952 M,8,121677,121715,321.1042,238.8952,321.2439,239.158 M,8,121715,121752,321.2439,239.158,321.2862,239.4522 M,8,121752,121790,321.2862,239.4522,321.2228,239.7432 M,8,121865,121940,320.6,240.4,320.12,240.47 M,8,121940,122015,320.12,240.47,319.99,240.67 M,8,122015,122090,319.99,240.67,320.22,240.73 M,8,122090,122165,320.22,240.73,320.6,241.02 M,8,122165,122240,320.6,241.02,320.5,241.48 M,8,122240,122315,320.5,241.48,320.08,241.72 M,8,122315,122390,320.08,241.72,319.6,241.67 M,8,122390,122465,319.6,241.67,319.26,241.32 M,8,122465,122615,319.26,241.32,319.49,239.81 M,8,122615,122652,319.49,239.81,319.7896,239.8252 M,8,122615,122765,320.08,239.84,318.66,239.24 M,8,122652,122690,319.7896,239.8252,320.08,239.84 M,8,122765,122802,318.66,239.24,318.6344,239.5389 M,8,122765,123065,318.5575,240.4356,317.83,238.28 M,8,122802,122840,318.6344,239.5389,318.6088,239.8378 M,8,122840,122877,318.6088,239.8378,318.5831,240.1367 M,8,122877,122915,318.5831,240.1367,318.5575,240.4356 M,8,123065,123102,317.83,238.28,317.8044,238.5789 M,8,123065,123365,317.7275,239.4756,317.55,241.27 M,8,123102,123140,317.8044,238.5789,317.7787,238.8778 M,8,123140,123177,317.7787,238.8778,317.7531,239.1767 M,8,123177,123215,317.7531,239.1767,317.7275,239.4756 M,8,123365,123515,317.55,241.27,318.66,239.24 M,8,123515,123552,318.66,239.24,318.8698,239.0278 M,8,123515,123815,320.2283,239.1438,320.34,239.35 M,8,123552,123590,318.8698,239.0278,319.1301,238.882 M,8,123590,123627,319.1301,238.882,319.4222,238.8217 M,8,123627,123665,319.4222,238.8217,319.7192,238.846 M,8,123665,123702,319.7192,238.846,319.9972,238.955 M,8,123702,123740,319.9972,238.955,320.2283,239.1438 M,8,123815,123852,320.34,239.35,320.36,239.6493 M,8,123815,123965,320.3799,239.9487,319.66,241.42 M,8,123852,123890,320.36,239.6493,320.3799,239.9487 M,8,123965,124115,319.66,241.42,318.66,239.24 M,8,124115,124152,318.66,239.24,318.5955,239.533 M,8,124115,124415,318.7745,240.3734,319.66,241.42 M,8,124152,124190,318.5955,239.533,318.5309,239.8259 M,8,124190,124227,318.5309,239.8259,318.6514,240.0998 M,8,124227,124265,318.6514,240.0998,318.7745,240.3734 M,8,124415,124565,319.66,241.42,319.63,238.73 M,8,124565,124715,319.63,238.73,317.58,240 M,8,124715,124790,317.58,240 M,8,124790,124865,317.58,240 M,8,124865,125015,317.58,240,318.74,240.97 M,8,125015,125052,318.74,240.97,318.755,240.6704 M,8,125015,125165,318.77,240.3707,320.07,239.7 M,8,125052,125090,318.755,240.6704,318.77,240.3707 M,8,125165,125202,320.07,239.7,320.2853,239.9068 M,8,125165,125465,320.4958,240.7513,319.63,238.73 M,8,125202,125240,320.2853,239.9068,320.4366,240.1638 M,8,125240,125277,320.4366,240.1638,320.51,240.4532 M,8,125277,125315,320.51,240.4532,320.4958,240.7513 M,8,125465,125502,319.63,238.73,319.9164,238.6458 M,8,125465,125765,320.7516,238.8879,321.79,240.37 M,8,125502,125540,319.9164,238.6458,320.2146,238.6431 M,8,125540,125577,320.2146,238.6431,320.5015,238.7252 M,8,125577,125615,320.5015,238.7252,320.7516,238.8879 M,8,125765,125915,321.79,240.37,319.1,239.86 M,8,125915,125952,319.1,239.86,319.1012,239.5616 M,8,125915,126365,320.7126,238.9541,320.79,240.59 M,8,125952,125990,319.1012,239.5616,319.1881,239.2766 M,8,125990,126027,319.1881,239.2766,319.3563,239.0302 M,8,126027,126065,319.3563,239.0302,319.5923,238.848 M,8,126065,126102,319.5923,238.848,319.871,238.7428 M,8,126102,126140,319.871,238.7428,320.1686,238.7254 M,8,126140,126177,320.1686,238.7254,320.4581,238.7977 M,8,126177,126215,320.4581,238.7977,320.7126,238.9541 M,8,126365,126440,320.79,240.59,320.33,240.44 M,8,126440,126515,320.33,240.44,320.12,240.56 M,8,126515,126590,320.12,240.56,319.88,240.6 M,8,126590,126665,319.88,240.6,319.52,240.51 M,8,126665,126740,319.52,240.51,319.24,240.74 M,8,126740,126815,319.24,240.74,319.05,241.05 M,8,126815,126890,319.05,241.05,319,241.4 M,8,126890,126965,319,241.4,319.06,241.75 M,8,126965,127115,319.06,241.75,321.51,240.96 M,8,127115,127265,321.51,240.96,320.2,239.48 M,8,127265,127415,320.2,239.48,320.04,241.36 M,8,127415,127452,320.04,241.36,319.741,241.3351 M,8,127415,127565,319.4421,241.3102,321.14,239.72 M,8,127452,127490,319.741,241.3351,319.4421,241.3102 M,8,127565,127602,321.14,239.72,321.1656,240.0189 M,8,127565,127865,321.2425,240.9156,321.97,238.76 M,8,127602,127640,321.1656,240.0189,321.1913,240.3178 M,8,127640,127677,321.1913,240.3178,321.2169,240.6167 M,8,127677,127715,321.2169,240.6167,321.2425,240.9156 M,8,127865,127902,321.97,238.76,321.9956,239.0589 M,8,127865,128165,322.0725,239.9556,322.23,241.76 M,8,127902,127940,321.9956,239.0589,322.0212,239.3578 M,8,127940,127977,322.0212,239.3578,322.0469,239.6567 M,8,127977,128015,322.0469,239.6567,322.0725,239.9556 M,8,128165,128315,322.23,241.76,320.26,240.44 M,8,128315,128352,320.26,240.44,319.9604,240.4234 M,8,128315,128615,318.4828,240.4702,318.31,240.3 M,8,128352,128390,319.9604,240.4234,319.6609,240.4067 M,8,128390,128427,319.6609,240.4067,319.3708,240.458 M,8,128427,128465,319.3708,240.458,319.0814,240.5123 M,8,128465,128502,319.0814,240.5123,318.7821,240.4913 M,8,128502,128540,318.7821,240.4913,318.4828,240.4702 M,8,128615,128652,318.31,240.3,318.2338,240.0131 M,8,128615,128765,318.275,239.7193,319.63,239.13 M,8,128652,128690,318.2338,240.0131,318.275,239.7193 M,8,128765,128915,319.63,239.13,320.15,241.58 M,8,128915,128952,320.15,241.58,320.2853,241.3135 M,8,128915,129215,320.2606,240.4372,319.63,239.13 M,8,128952,128990,320.2853,241.3135,320.353,241.0226 M,8,128990,129027,320.353,241.0226,320.3431,240.7241 M,8,129027,129065,320.3431,240.7241,320.2606,240.4372 M,8,129215,129365,319.63,239.13,319.22,240.9 M,8,129365,129515,319.22,240.9,320.71,239.59 M,8,129515,129590,320.71,239.59 M,8,129590,129665,320.71,239.59 M,8,129665,129815,320.71,239.59,318.64,238.83 M,8,129815,129852,318.64,238.83,318.6617,239.1292 M,8,129815,129965,318.6833,239.4284,319.22,240.9 M,8,129852,129890,318.6617,239.1292,318.6833,239.4284 M,8,129965,130002,319.22,240.9,319.508,240.9788 M,8,129965,130265,320.3434,240.7306,318.19,240.91 M,8,130002,130040,319.508,240.9788,319.8065,240.9787 M,8,130040,130077,319.8065,240.9787,320.0919,240.8911 M,8,130077,130115,320.0919,240.8911,320.3434,240.7306 M,8,130265,130302,318.19,240.91,318.2685,241.1982 M,8,130265,130565,319.4789,241.8752,319.7,241.83 M,8,130302,130340,318.2685,241.1982,318.4172,241.4571 M,8,130340,130377,318.4172,241.4571,318.6308,241.6656 M,8,130377,130415,318.6308,241.6656,318.8909,241.8116 M,8,130415,130452,318.8909,241.8116,319.1805,241.8842 M,8,130452,130490,319.1805,241.8842,319.4789,241.8752 M,8,130565,130715,319.7,241.83,319.21,239.71 M,8,130715,130752,319.21,239.71,318.9111,239.7356 M,8,130715,130940,318.0144,239.8125,317.55,239.05 M,8,130752,130790,318.9111,239.7356,318.6122,239.7612 M,8,130790,130827,318.6122,239.7612,318.3133,239.7869 M,8,130827,130865,318.3133,239.7869,318.0144,239.8125 M,8,130940,131015,317.55,239.05,317.75,238.9 M,8,131015,131052,317.75,238.9,318.0487,238.872 M,8,131015,131165,318.3474,238.844,319.78,240.36 M,8,131052,131090,318.0487,238.872,318.3474,238.844 M,8,131165,131202,319.78,240.36,319.5789,240.1406 M,8,131165,131465,320.0164,238.9226,321.42,238.94 M,8,131202,131240,319.5789,240.1406,319.4658,239.8658 M,8,131240,131277,319.4658,239.8658,319.4579,239.5683 M,8,131277,131315,319.4579,239.5683,319.5613,239.2894 M,8,131315,131352,319.5613,239.2894,319.7549,239.0642 M,8,131352,131390,319.7549,239.0642,320.0164,238.9226 M,8,131465,131540,321.42,238.94,321.57,239.39 M,8,131540,131615,321.57,239.39,321.43,239.58 M,8,131615,131690,321.43,239.58,321.4,239.81 M,8,131690,131765,321.4,239.81,321.45,240.28 M,8,131765,131840,321.45,240.28,321.09,240.59 M,8,131840,131915,321.09,240.59,320.63,240.72 M,8,131915,131990,320.63,240.72,320.16,240.64 M,8,131990,132065,320.16,240.64,319.78,240.36 M,8,132065,132215,319.78,240.36,321.08,242 M,8,132215,132252,321.08,242,321.1114,241.7016 M,8,132215,132365,321.1428,241.4033,320.59,239.67 M,8,132252,132290,321.1114,241.7016,321.1428,241.4033 M,8,132365,132402,320.59,239.67,320.2911,239.6956 M,8,132365,132665,319.3944,239.7725,320.99,238.82 M,8,132402,132440,320.2911,239.6956,319.9922,239.7212 M,8,132440,132477,319.9922,239.7212,319.6933,239.7469 M,8,132477,132515,319.6933,239.7469,319.3944,239.7725 M,8,132665,132702,320.99,238.82,320.6911,238.8456 M,8,132665,132965,319.7944,238.9225,317.99,239.07 M,8,132702,132740,320.6911,238.8456,320.3922,238.8712 M,8,132740,132777,320.3922,238.8712,320.0933,238.8969 M,8,132777,132815,320.0933,238.8969,319.7944,238.9225 M,8,132965,133115,317.99,239.07,319.53,240.81 M,8,133115,133152,319.53,240.81,319.8279,240.8022 M,8,133115,133415,320.5236,239.6732,320.31,239.58 M,8,133152,133190,319.8279,240.8022,320.108,240.7014 M,8,133190,133227,320.108,240.7014,320.3377,240.512 M,8,133227,133265,320.3377,240.512,320.4941,240.2591 M,8,133265,133302,320.4941,240.2591,320.5598,239.9687 M,8,133302,133340,320.5598,239.9687,320.5236,239.6732 M,8,133415,133452,320.31,239.58,320.0115,239.6103 M,8,133415,133565,319.7131,239.6406,318.22,240.5 M,8,133452,133490,320.0115,239.6103,319.7131,239.6406 M,8,133565,133715,318.22,240.5,321.42,241.16 M,8,133715,133752,321.42,241.16,321.1302,241.2308 M,8,133715,134015,320.3172,240.9282,319.67,239.88 M,8,133752,133790,321.1302,241.2308,320.8321,241.2167 M,8,133790,133827,320.8321,241.2167,320.5536,241.1099 M,8,133827,133865,320.5536,241.1099,320.3172,240.9282 M,8,134015,134165,319.67,239.88,322.24,240.87 M,8,134165,134315,322.24,240.87,319.84,241.91 M,8,134315,134390,319.84,241.91 M,8,134390,134465,319.84,241.91 M,8,134465,134615,319.84,241.91,320.9,239.81 M,8,134615,134652,320.9,239.81,320.9138,240.1097 M,8,134615,134765,320.9277,240.4094,318.38,239.69 M,8,134652,134690,320.9138,240.1097,320.9277,240.4094 M,8,134765,134802,318.38,239.69,318.6789,239.6644 M,8,134765,135065,319.5756,239.5875,317.62,238.81 M,8,134802,134840,318.6789,239.6644,318.9778,239.6388 M,8,134840,134877,318.9778,239.6388,319.2767,239.6131 M,8,134877,134915,319.2767,239.6131,319.5756,239.5875 M,8,135065,135102,317.62,238.81,317.9189,238.7844 M,8,135065,135365,318.8156,238.7075,320.61,238.52 M,8,135102,135140,317.9189,238.7844,318.2178,238.7588 M,8,135140,135177,318.2178,238.7588,318.5167,238.7331 M,8,135177,135215,318.5167,238.7331,318.8156,238.7075 M,8,135365,135515,320.61,238.52,318.89,241.06 M,8,135515,135552,318.89,241.06,318.8544,240.7621 M,8,135515,135965,318.8173,238.7045,320.87,240.04 M,8,135552,135590,318.8544,240.7621,318.8188,240.4642 M,8,135590,135627,318.8188,240.4642,318.7831,240.1664 M,8,135627,135665,318.7831,240.1664,318.8696,239.8817 M,8,135665,135702,318.8696,239.8817,318.9424,239.5957 M,8,135702,135740,318.9424,239.5957,318.9007,239.2986 M,8,135740,135777,318.9007,239.2986,318.859,239.0016 M,8,135777,135815,318.859,239.0016,318.8173,238.7045 M,8,135965,136115,320.87,240.04,317.71,240.48 M,8,136115,136265,317.71,240.48,320.97,240.18 M,8,136265,136415,320.97,240.18,317.62,240.35 M,8,136415,136565,317.62,240.35,321.04,240.27 M,8,136565,136715,321.04,240.27,318.82,238.71 M,8,136715,136752,318.82,238.71,319.0853,238.5737 M,8,136715,137165,320.3046,239.7565,317.87,239.52 M,8,136752,136790,319.0853,238.5737,319.3787,238.5217 M,8,136790,136827,319.3787,238.5217,319.6734,238.5659 M,8,136827,136865,319.6734,238.5659,319.9409,238.6967 M,8,136865,136902,319.9409,238.6967,320.1558,238.9033 M,8,136902,136940,320.1558,238.9033,320.2932,239.1678 M,8,136940,136977,320.2932,239.1678,320.345,239.461 M,8,136977,137015,320.345,239.461,320.3046,239.7565 M,8,137165,137202,317.87,239.52,317.8846,239.2204 M,8,137165,137465,317.9283,238.3214,319.05,240.64 M,8,137202,137240,317.8846,239.2204,317.8991,238.9207 M,8,137240,137277,317.8991,238.9207,317.9137,238.6211 M,8,137277,137315,317.9137,238.6211,317.9283,238.3214 M,8,137465,137615,319.05,240.64,317.81,240.8 M,8,137615,137765,317.81,240.8,319.2,239.43 M,8,137765,137802,319.2,239.43,319.4772,239.318 M,8,137765,138065,320.3535,239.392,318.44,240 M,8,137802,137840,319.4772,239.318,319.7724,239.2714 M,8,137840,137877,319.7724,239.2714,320.0706,239.2951 M,8,137877,137915,320.0706,239.2951,320.3535,239.392 M,8,138065,138215,318.44,240,318.52,238.61 M,8,138215,138365,318.52,238.61,319.83,240.39 M,8,138365,138402,319.83,240.39,319.942,240.6672 M,8,138365,138665,319.868,241.5435,319.2,239.43 M,8,138402,138440,319.942,240.6672,319.9886,240.9624 M,8,138440,138477,319.9886,240.9624,319.9649,241.2606 M,8,138477,138515,319.9649,241.2606,319.868,241.5435 M,8,138665,138815,319.2,239.43,320.59,239.51 M,8,138815,138965,320.59,239.51,318.81,240.82 M,8,138965,139115,318.81,240.82,320.02,238.56 M,8,139115,139152,320.02,238.56,320.0308,238.8598 M,8,139115,139565,320.1067,240.9584,322.22,239.9 M,8,139152,139190,320.0308,238.8598,320.0417,239.1596 M,8,139190,139227,320.0417,239.1596,320.0525,239.4594 M,8,139227,139265,320.0525,239.4594,320.0634,239.7592 M,8,139265,139302,320.0634,239.7592,320.0742,240.059 M,8,139302,139340,320.0742,240.059,320.085,240.3588 M,8,139340,139377,320.085,240.3588,320.0959,240.6586 M,8,139377,139415,320.0959,240.6586,320.1067,240.9584 M,8,139565,139602,322.22,239.9,321.9381,239.8008 M,8,139565,139865,321.0704,239.9342,320.02,241.8 M,8,139602,139640,321.9381,239.8008,321.6409,239.7715 M,8,139640,139677,321.6409,239.7715,321.3454,239.8165 M,8,139677,139715,321.3454,239.8165,321.0704,239.9342 M,8,139865,140015,320.02,241.8,321.41,241.16 M,8,140015,140165,321.41,241.16,319.3,240.41 M,8,140165,140315,319.3,240.41,320.02,241.8 M,8,140315,140352,320.02,241.8,320.3187,241.8281 M,8,140315,140765,320.02,241.8,320.61,239.51 M,8,140352,140390,320.3187,241.8281,320.6173,241.8563 M,8,140390,140427,320.6173,241.8563,320.916,241.8844 M,8,140427,140465,320.916,241.8844,321.2147,241.9126 M,8,140465,140502,321.2147,241.9126,320.916,241.8844 M,8,140502,140540,320.916,241.8844,320.6173,241.8563 M,8,140540,140577,320.6173,241.8563,320.3187,241.8281 M,8,140577,140615,320.3187,241.8281,320.02,241.8 M,8,140765,140802,320.61,239.51,320.7445,239.7759 M,8,140765,141065,320.5868,240.6214,319.68,239.02 M,8,140802,140840,320.7445,239.7759,320.7891,240.0702 M,8,140840,140877,320.7891,240.0702,320.7358,240.3635 M,8,140877,140915,320.7358,240.3635,320.5868,240.6214 M,8,141065,141102,319.68,239.02,319.8392,238.7681 M,8,141065,141365,320.6468,238.4742,321.66,239.66 M,8,141102,141140,319.8392,238.7681,320.0693,238.5793 M,8,141140,141177,320.0693,238.5793,320.3489,238.4759 M,8,141177,141215,320.3489,238.4759,320.6468,238.4742 M,8,141365,141515,321.66,239.66,319.83,240.44 M,8,141515,141552,319.83,240.44,319.8668,240.1423 M,8,141515,141665,319.9035,239.8445,321.07,240.79 M,8,141552,141590,319.8668,240.1423,319.9035,239.8445 M,8,141665,141702,321.07,240.79,321.1854,241.0669 M,8,141665,141965,321.18,241.9219,318.63,240.52 M,8,141702,141740,321.1854,241.0669,321.3008,241.3438 M,8,141740,141777,321.3008,241.3438,321.2564,241.6318 M,8,141777,141815,321.2564,241.6318,321.18,241.9219 M,8,141965,142002,318.63,240.52,318.9293,240.5 M,8,141965,142265,319.8273,240.4402,319.81,238.83 M,8,142002,142040,318.9293,240.5,319.2287,240.4801 M,8,142040,142077,319.2287,240.4801,319.528,240.4601 M,8,142077,142115,319.528,240.4601,319.8273,240.4402 M,8,142265,142415,319.81,238.83,318.55,238.67 M,8,142415,142565,318.55,238.67,319.83,240.44 M,8,142565,142602,319.83,240.44,320.0953,240.5763 M,8,142565,142865,320.9532,240.4621,321.96,238.81 M,8,142602,142640,320.0953,240.5763,320.3885,240.6297 M,8,142640,142677,320.3885,240.6297,320.6847,240.5921 M,8,142677,142715,320.6847,240.5921,320.9532,240.4621 M,8,142865,142902,321.96,238.81,321.6609,238.833 M,8,142865,143165,320.7635,238.902,319.83,240.44 M,8,142902,142940,321.6609,238.833,321.3618,238.856 M,8,142940,142977,321.3618,238.856,321.0627,238.879 M,8,142977,143015,321.0627,238.879,320.7635,238.902 M,8,143165,143202,319.83,240.44,319.6771,240.6969 M,8,143165,143465,319.6248,241.5738,321.53,241.21 M,8,143202,143240,319.6771,240.6969,319.5873,240.9819 M,8,143240,143277,319.5873,240.9819,319.5681,241.2803 M,8,143277,143315,319.5681,241.2803,319.6248,241.5738 M,8,143465,143502,321.53,241.21,321.5076,240.9108 M,8,143465,143765,321.4402,240.0134,320.62,241.58 M,8,143502,143540,321.5076,240.9108,321.4851,240.6117 M,8,143540,143577,321.4851,240.6117,321.4627,240.3125 M,8,143577,143615,321.4627,240.3125,321.4402,240.0134 M,8,143765,143915,320.62,241.58,322.36,239.6 M,8,143915,143952,322.36,239.6,322.1992,239.3486 M,8,143915,144215,321.4052,238.9986,320.49,240.68 M,8,143952,143990,322.1992,239.3486,321.9745,239.1527 M,8,143990,144027,321.9745,239.1527,321.7019,239.0306 M,8,144027,144065,321.7019,239.0306,321.4052,238.9986 M,8,144215,144252,320.49,240.68,320.1908,240.7017 M,8,144215,144365,319.8916,240.7234,318.66,240.42 M,8,144252,144290,320.1908,240.7017,319.8916,240.7234 M,8,144365,144440,318.66,240.42,318.37,240.04 M,8,144440,144515,318.37,240.04,318.32,239.56 M,8,144515,144590,318.32,239.56,318.53,239.14 M,8,144590,144665,318.53,239.14,318.93,238.88 M,8,144665,144740,318.93,238.88,318.98,239.11 M,8,144740,144815,318.98,239.11,319.04,239.35 M,8,144815,144890,319.04,239.35,319.1,239.58 M,8,144890,144965,319.1,239.58,319.15,239.81 M,8,144965,145040,319.15,239.81,318.77,239.51 M,8,145040,145115,318.77,239.51,318.3,239.45 M,8,145115,145190,318.3,239.45,317.86,239.64 M,8,145190,145265,317.86,239.64,317.58,240.02 M,8,145265,145340,317.58,240.02,317.6,240.26 M,8,145340,145415,317.6,240.26,317.62,240.5 M,8,145415,145490,317.62,240.5,317.63,240.73 M,8,145490,145565,317.63,240.73,317.65,240.97 M,8,145565,145640,317.65,240.97,317.87,240.55 M,8,145640,145715,317.87,240.55,318.29,240.32 M,8,145715,145790,318.29,240.32,318.76,240.35 M,8,145790,145865,318.76,240.35,319.14,240.63 M,8,145865,146015,319.14,240.63,317.46,241.92 M,8,146015,146465,317.46,241.92,318.55,239 M,8,146465,146615,318.55,239,320.35,239.24 M,8,146615,146765,320.35,239.24,318.47,239.08 M,8,146765,146915,318.47,239.08,320.27,239.32 M,8,146915,147065,320.27,239.32,319.39,241.11 M,8,147065,147215,319.39,241.11,321.19,240.87 M,8,147215,147365,321.19,240.87,319.31,241.03 M,8,147365,147515,319.31,241.03,321.11,240.79 M,8,147515,147665,321.11,240.79,320.46,238.53 M,8,147665,147815,320.46,238.53,320.22,240.33 M,8,147815,147965,320.22,240.33,320.38,238.45 M,8,147965,148115,320.38,238.45,320.14,240.25 M,8,148115,148265,320.14,240.25,318.4,238.95 M,8,148265,148415,318.4,238.95,318.64,240.75 M,8,148415,148565,318.64,240.75,318.48,238.87 M,8,148565,148715,318.48,238.87,318.72,240.67 M,8,148715,148865,318.72,240.67,317.59,238.49 M,8,148865,149015,317.59,238.49,319.39,238.73 M,8,149015,149165,319.39,238.73,317.81,240.35 M,8,149165,149315,317.81,240.35,319.61,240.11 M,8,149315,149465,319.61,240.11,317.51,238.41 M,8,149465,149615,317.51,238.41,317.73,240.27 M,8,149615,149652,317.73,240.27,317.9914,240.4139 M,8,149615,149915,318.856,240.3413,319.31,238.65 M,8,149652,149690,317.9914,240.4139,318.2825,240.4783 M,8,149690,149727,318.2825,240.4783,318.5801,240.4549 M,8,149727,149765,318.5801,240.4549,318.856,240.3413
//Storyboard Sound Samples

[TimingPoints]
225,300,4,1,1,70,1,0
225,-100,4,1,1,70,0,0
19275,-100,4,1,1,60,0,0
29025,-100,4,1,1,70,0,1
33675,-100,4,1,1,60,0,0
38625,319.148936170213,3,1,1,60,1,0
46284,270.27027027027,4,1,1,55,1,0
50608,-142.857142857143,4,1,1,55,0,0
67905,-142.857142857143,4,1,1,60,0,0
85202,289.855072463768,4,1,1,60,1,0
92158,-100,4,1,1,70,0,1
101144,-100,4,1,1,70,0,0
101433,-100,4,1,1,70,0,1
110709,-100,4,1,1,70,0,0
111288,-200,4,1,1,70,0,0
111868,-100,4,1,1,70,0,0
112448,-200,4,1,1,70,0,0
113028,-100,4,1,1,70,0,0
114187,327.868852459016,4,1,1,70,1,0
114187,-76.9230769230769,4,1,1,70,0,0
117665,300,4,1,1,70,1,0
136715,-100,4,1,1,60,0,0
146465,-100,4,1,1,70,0,1
151115,-100,4,1,1,60,0,0
156065,319.148936170213,3,1,1,60,1,0

[Colours]
Combo1 : 43,213,119
Combo2 : 19,187,236
Combo3 : 128,128,192
Combo4 : 52,124,177

[HitObjects]
160,56,225,5,6,0:0:0:0:
231,188,375,2,0,L|247:116,1,60,2|0,0:0|0:0,0:0:0:0:
59,289,525,2,0,L|199:277,1,120,8|2,0:0|0:0,0:0:0:0:
11,377,825,2,0,L|151:365,1,120,8|2,0:0|0:0,0:0:0:0:
310,346,1125,1,2,0:0:0:0:
181,83,1275,6,0,B|170:149|170:149|183:180|183:180|171:260,1,180,8|0,0:0|0:0,0:0:0:0:
159,272,1575,2,0,L|236:260,1,60,2|0,0:0|0:0,0:0:0:0:
333,144,1725,1,2,0:0:0:0:
56,81,1875,2,0,B|116:63|116:63|178:76,1,120,8|0,0:0|0:0,0:0:0:0:
341,136,2175,1,2,0:0:0:0:
59,240,2325,1,8,0:0:0:0:
184,14,2475,5,8,0:0:0:0:
184,14,2550,1,8,0:0:0:0:
184,14,2625,1,2,0:0:0:0:
350,128,2775,2,0,L|354:199,1,60,2|0,0:0|0:0,0:0:0:0:
94,145,2925,2,0,P|146:106|230:113,1,120,8|2,0:0|0:0,0:0:0:0:
4,195,3225,2,0,P|-3:130|83:41,1,180,8|4,0:0|0:3,0:0:0:0:
89,40,3525,1,2,0:0:0:0:
148,266,3675,6,0,L|297:256,1,120,8|0,0:0|0:0,0:0:0:0:
383,256,3900,1,8,0:0:0:0:
393,278,3975,2,0,L|396:338,1,60,2|2,0:0|0:0,0:0:0:0:
308,149,4125,2,0,B|400:130|400:130|484:172,1,180,8|8,0:0|0:0,0:0:0:0:
500,80,4425,5,8,0:0:0:0:
490,32,4500,1,8,0:0:0:0:
469,19,4575,5,8,0:3:0:0:
445,16,4650,1,8,0:3:0:0:
402,38,4725,5,8,0:0:0:0:
361,62,4800,1,8,0:0:0:0:
313,65,4875,1,8,0:0:0:0:
269,49,4950,1,8,0:0:0:0:
235,15,5025,5,6,0:0:0:0:
106,141,5175,2,0,L|109:200,1,60,2|0,0:0|0:0,0:0:0:0:
336,158,5325,2,0,L|196:146,1,120,8|2,0:0|0:0,0:0:0:0:
432,75,5625,2,0,L|292:63,1,120,8|2,0:0|0:0,0:0:0:0:
131,52,5925,1,2,0:0:0:0:
215,322,6075,6,0,B|252:234|179:240|220:137,1,180,8|0,0:0|0:0,0:0:0:0:
231,128,6375,2,0,L|152:132,1,60,2|0,0:0|0:0,0:0:0:0:
109,302,6525,1,2,0:0:0:0:
358,228,6675,2,0,B|302:199|302:199|244:201,1,120,8|0,0:0|0:0,0:0:0:0:
101,310,6975,1,2,0:0:0:0:
370,362,7125,1,8,0:0:0:0:
310,104,7275,5,8,0:0:0:0:
310,104,7350,1,8,0:0:0:0:
310,104,7425,1,2,0:0:0:0:
272,279,7575,2,0,L|174:288,1,60,2|0,0:0|0:0,0:0:0:0:
407,118,7725,2,0,P|446:170|439:254,1,120,8|2,0:0|0:0,0:0:0:0:
363,21,8025,2,0,P|427:13|496:61,1,120,8|2,0:0|0:0,0:0:0:0:
512,287,8325,1,2,0:0:0:0:
272,233,8475,6,0,B|176:226|176:226|136:246|136:246|11:237,1,240,8|2,0:0|0:0,0:0:0:0:
350,100,8925,1,8,0:0:0:0:
363,146,9000,1,8,0:0:0:0:
353,168,9075,5,2,0:0:0:0:
349,191,9150,1,2,0:0:0:0:
358,225,9225,5,4,0:3:0:0:
378,190,9300,1,4,0:3:0:0:
412,168,9375,1,2,0:0:0:0:
452,164,9450,1,2,0:0:0:0:
490,178,9525,1,8,0:0:0:0:
381,331,9675,1,2,0:0:0:0:
416,73,9825,5,6,0:0:0:0:
511,265,9975,2,0,L|503:333,1,60,2|0,0:0|0:0,0:0:0:0:
292,166,10125,2,0,L|432:178,1,120,8|2,0:0|0:0,0:0:0:0:
206,76,10425,2,0,L|346:88,1,120,8|2,0:0|0:0,0:0:0:0:
505,104,10725,1,2,0:0:0:0:
147,1,10875,6,0,B|116:69|116:69|144:174,1,180,8|0,0:0|0:0,0:0:0:0:
162,185,11175,2,0,L|225:189,1,60,2|0,0:0|0:0,0:0:0:0:
333,69,11325,1,2,0:0:0:0:
12,100,11475,2,0,P|59:64|117:68,1,120,8|0,0:0|0:0,2:0:0:0:
262,124,11775,1,2,0:0:0:0:
0,213,11925,1,8,0:0:0:0:
17,9,12075,5,8,0:0:0:0:
17,9,12150,1,8,0:0:0:0:
17,9,12225,1,2,0:0:0:0:
176,136,12375,2,0,L|95:144,1,60,2|0,0:0|0:0,0:0:0:0:
291,293,12525,2,0,P|330:241|323:157,1,120,8|2,0:0|0:0,0:0:0:0:
241,383,12825,2,0,P|306:390|395:304,1,180,8|4,0:0|0:3,0:0:0:0:
396,298,13125,1,2,0:0:0:0:
176,136,13275,6,0,L|188:276,1,120,8|0,0:0|0:0,0:0:0:0:
110,302,13500,1,8,0:0:0:0:
95,282,13575,2,0,L|89:218,1,60,2|2,0:0|0:0,0:0:0:0:
241,79,13725,2,0,P|183:112|94:42,1,180,8|8,0:0|0:0,0:0:0:0:
32,128,14025,5,8,0:0:0:0:
37,175,14100,1,8,0:0:0:0:
49,195,14175,5,8,0:3:0:0:
72,199,14250,1,8,0:3:0:0:
115,218,14325,5,8,0:0:0:0:
126,172,14400,1,8,0:0:0:0:
158,137,14475,1,8,0:0:0:0:
203,123,14550,1,8,0:0:0:0:
249,134,14625,5,6,0:0:0:0:
484,68,14775,2,0,L|408:60,1,60,2|0,0:0|0:0,0:0:0:0:
204,233,14925,2,0,L|344:221,1,120,8|2,0:0|0:0,0:0:0:0:
164,318,15225,2,0,L|304:306,1,120,8|2,0:0|0:0,0:0:0:0:
464,293,15525,1,2,0:0:0:0:
303,119,15675,6,0,P|208:170|229:274,1,180,8|0,0:0|0:0,0:0:0:0:
225,242,15975,2,0,L|294:235,1,60,2|0,0:0|0:0,0:0:0:0:
434,150,16125,1,2,0:0:0:0:
114,84,16275,2,0,P|186:82|234:119,1,120,8|0,0:0|0:0,0:0:0:0:
289,212,16575,1,2,0:0:0:0:
32,113,16725,1,8,0:0:0:0:
272,9,16875,5,8,0:0:0:0:
272,9,16950,1,8,0:0:0:0:
272,9,17025,1,2,0:0:0:0:
166,219,17175,2,0,L|163:154,1,60,2|0,0:0|0:0,0:0:0:0:
418,231,17325,2,0,L|278:243,1,120,8|2,0:0|0:0,0:0:0:0:
494,319,17625,2,0,L|354:331,1,120,8|2,0:0|0:0,0:0:0:0:
195,348,17925,1,2,0:0:0:0:
367,94,18075,6,0,B|378:186|378:186|361:235|361:235|377:349,1,240,8|2,0:0|0:0,0:0:0:0:
169,196,18525,1,8,0:0:0:0:
485,152,18675,1,8,0:0:0:0:
159,182,18825,1,8,0:0:0:0:
494,165,18975,1,8,0:0:0:0:
152,173,19125,1,8,0:0:0:0:
374,329,19275,6,0,P|257:327|235:203,1,240,6|2,0:0|0:0,0:0:0:0:
358,48,19725,2,0,L|368:192,1,120,8|2,0:0|0:0,0:0:0:0:
483,357,20025,1,2,0:0:0:0:
496,201,20175,1,2,0:0:0:0:
335,374,20325,2,0,P|276:381|208:382,1,120,8|2,0:0|0:0,0:0:0:0:
86,99,20625,5,2,0:0:0:0:
73,255,20775,1,2,0:0:0:0:
234,82,20925,2,0,P|293:75|361:74,1,120,8|2,0:0|0:0,0:0:0:0:
367,308,21225,1,2,0:0:0:0:
212,281,21375,1,2,0:0:0:0:
421,170,21525,1,8,0:0:0:0:
182,369,21675,6,0,P|196:248|205:109,1,240,6|2,0:0|0:0,0:0:0:0:
50,19,22125,2,0,P|52:82|56:152,1,120,8|2,0:0|0:0,0:0:0:0:
307,79,22425,1,2,0:0:0:0:
185,51,22575,1,2,0:0:0:0:
303,201,22725,1,8,0:0:0:0:
410,0,22875,6,0,L|269:9,2,120,2|2|2,0:0|0:0|0:0,0:0:0:0:
303,201,23325,2,0,P|246:168|229:93,1,120,8|2,0:0|0:0,0:0:0:0:
445,178,23625,1,2,0:0:0:0:
376,304,23775,1,2,0:0:0:0:
318,110,23925,1,8,0:0:0:0:
509,278,24075,2,0,L|428:261,1,60,6|0,0:0|0:0,0:0:0:0:
380,46,24225,6,0,B|400:109|400:109|386:173,1,120,2|2,0:2|0:0,0:0:0:0:
154,23,24525,2,0,L|284:13,1,120,8|2,0:0|0:0,0:0:0:0:
246,229,24825,1,2,0:0:0:0:
146,140,24975,1,2,0:0:0:0:
245,369,25125,2,0,B|308:389|308:389|372:375,1,120,8|2,0:0|0:0,0:0:0:0:
138,148,25425,6,0,L|128:278,1,120,2|2,0:0|0:0,0:0:0:0:
300,92,25725,2,0,P|366:66|438:82,1,120,8|2,0:0|0:0,0:0:0:0:
226,316,26025,2,0,L|235:196,1,120,2|2,0:0|0:0,0:0:0:0:
194,42,26325,1,8,0:0:0:0:
17,271,26475,6,0,P|105:236|126:194,1,120,6|0,0:0|0:0,0:0:0:0:
194,42,26775,2,0,L|263:37,1,60,2|2,0:0|0:0,0:0:0:0:
475,165,26925,1,8,0:0:0:0:
450,205,27000,1,8,0:0:0:0:
407,225,27075,1,8,0:0:0:0:
361,218,27150,1,8,0:0:0:0:
345,200,27225,5,8,0:3:0:0:
321,202,27300,1,8,0:3:0:0:
297,204,27375,1,8,0:3:0:0:
273,206,27450,1,8,0:3:0:0:
236,237,27525,5,8,0:0:0:0:
253,280,27600,1,8,0:0:0:0:
238,324,27675,1,8,0:0:0:0:
198,348,27750,1,8,0:0:0:0:
176,338,27825,5,4,0:3:0:0:
172,314,27900,1,4,0:3:0:0:
169,290,27975,1,4,0:3:0:0:
165,266,28050,1,4,0:3:0:0:
136,228,28125,5,8,0:0:0:0:
176,192,28200,1,8,0:0:0:0:
190,141,28275,1,8,0:0:0:0:
175,90,28350,1,8,0:0:0:0:
135,56,28425,1,8,0:0:0:0:
38,268,28575,1,8,0:0:0:0:
401,84,29025,5,6,0:0:0:0:
221,108,29175,1,2,0:0:0:0:
409,92,29325,1,2,0:0:0:0:
229,116,29475,1,2,0:0:0:0:
317,295,29625,5,10,0:0:0:0:
137,271,29775,1,2,0:0:0:0:
325,287,29925,1,2,0:0:0:0:
145,263,30075,1,2,0:0:0:0:
210,37,30225,5,2,0:0:0:0:
234,217,30375,1,2,0:0:0:0:
218,29,30525,1,2,0:0:0:0:
242,209,30675,1,2,0:0:0:0:
416,79,30825,5,10,0:0:0:0:
392,259,30975,1,2,0:0:0:0:
408,71,31125,1,2,0:0:0:0:
384,251,31275,1,2,0:0:0:0:
497,33,31425,5,2,0:0:0:0:
317,57,31575,1,2,0:0:0:0:
475,219,31725,5,2,0:0:0:0:
295,195,31875,1,2,0:0:0:0:
505,25,32025,5,10,0:0:0:0:
483,211,32175,2,0,P|437:231|362:213,1,120,2|2,0:0|0:0,0:0:0:0:
325,49,32475,1,2,0:0:0:0:
329,309,32625,5,2,0:0:0:0:
353,129,32775,1,2,0:0:0:0:
337,317,32925,1,2,0:0:0:0:
361,137,33075,1,2,0:0:0:0:
505,276,33225,1,8,0:0:0:0:
495,156,33375,1,8,0:0:0:0:
485,36,33525,1,8,0:0:0:0:
356,225,33675,2,0,L|437:236,1,60,6|0,0:0|0:0,0:0:0:0:
219,186,33825,6,0,P|217:247|263:301,1,120,2|2,0:2|0:0,0:0:0:0:
294,93,34125,2,0,P|241:60|171:73,1,120,8|2,0:0|0:0,0:0:0:0:
293,368,34425,1,2,0:0:0:0:
336,210,34575,1,2,0:0:0:0:
161,334,34725,2,0,L|36:341,1,120,8|2,0:0|0:0,0:0:0:0:
214,120,35025,6,0,P|233:187|213:238,1,120,2|2,0:0|0:0,0:0:0:0:
0,34,35325,2,0,L|125:27,1,120,8|2,0:0|0:0,0:0:0:0:
312,139,35625,1,2,0:0:0:0:
131,178,35775,1,2,0:0:0:0:
322,27,35925,1,8,0:0:0:0:
216,232,36075,6,0,B|266:110|154:133|198:4,1,240,6|2,0:0|0:0,0:0:0:0:
30,129,36525,2,0,L|44:269,1,120,8|2,0:0|0:0,0:0:0:0:
243,266,36825,2,0,P|201:221|130:215,1,120,2|2,0:0|0:0,0:0:0:0:
340,346,37125,2,0,P|399:331|440:273,1,120,8|2,0:0|0:0,0:0:0:0:
327,84,37425,6,0,P|309:142|339:207,1,120,2|2,0:0|0:0,0:0:0:0:
427,0,37725,2,0,L|262:10,1,120,8|2,0:0|0:0,0:0:0:0:
211,215,38025,1,8,0:0:0:0:
189,81,38175,1,2,0:0:0:0:
85,287,38325,1,4,0:3:0:0:
465,178,38625,6,0,L|385:171,1,60,6|2,0:0|0:0,0:0:0:0:
322,165,38784,1,2,0:0:0:0:
456,273,38944,2,0,L|377:266,1,60,2|2,0:0|0:0,0:0:0:0:
314,261,39103,1,2,0:0:0:0:
480,370,39263,5,8,0:0:0:0:
444,368,39343,1,0,0:0:0:0:
408,364,39422,1,0,0:0:0:0:
170,248,39582,6,0,L|250:255,1,60,2|2,0:0|0:0,0:0:0:0:
314,261,39742,1,2,0:0:0:0:
180,153,39901,2,0,L|259:160,1,60,2|2,0:0|0:0,0:0:0:0:
322,165,40061,1,2,0:0:0:0:
138,54,40220,5,8,0:0:0:0:
192,57,40300,1,0,0:0:0:0:
246,63,40380,1,0,0:0:0:0:
460,141,40539,6,0,L|380:148,1,60,2|2,0:0|0:0,0:0:0:0:
316,154,40699,1,2,0:0:0:0:
467,237,40859,2,0,L|388:244,1,60,2|2,0:0|0:0,0:0:0:0:
325,250,41018,1,2,0:0:0:0:
507,328,41178,5,8,0:0:0:0:
472,332,41257,1,0,0:0:0:0:
436,335,41337,1,0,0:0:0:0:
181,262,41497,6,0,L|261:255,1,60,2|2,0:0|0:0,0:0:0:0:
325,250,41656,1,2,0:0:0:0:
174,167,41816,2,0,L|253:160,1,60,2|2,0:0|0:0,0:0:0:0:
316,154,41976,1,2,0:0:0:0:
116,78,42135,5,8,0:0:0:0:
170,72,42215,1,0,0:0:0:0:
224,66,42295,1,0,0:0:0:0:
272,336,42454,6,0,L|279:256,1,60,2|2,0:0|0:0,0:0:0:0:
284,192,42614,1,2,0:0:0:0:
176,326,42773,2,0,L|183:247,1,60,2|2,0:0|0:0,0:0:0:0:
188,184,42933,1,2,0:0:0:0:
80,350,43093,5,8,0:0:0:0:
82,314,43172,1,0,0:0:0:0:
85,278,43252,1,0,0:0:0:0:
201,40,43412,6,0,L|193:120,1,60,2|2,0:0|0:0,0:0:0:0:
188,184,43571,1,2,0:0:0:0:
297,50,43731,2,0,L|290:129,1,60,2|2,0:0|0:0,0:0:0:0:
284,192,43890,1,2,0:0:0:0:
412,0,44050,5,8,0:0:0:0:
409,54,44130,1,0,0:0:0:0:
404,108,44210,1,0,0:0:0:0:
308,330,44369,6,0,L|301:249,1,60,2|2,0:0|0:0,0:0:0:0:
295,186,44529,1,2,0:0:0:0:
212,337,44688,2,0,L|205:257,1,60,2|2,0:0|0:0,0:0:0:0:
200,195,44848,1,2,0:0:0:0:
121,377,45007,5,8,0:0:0:0:
117,342,45087,1,0,0:0:0:0:
114,306,45167,1,0,0:0:0:0:
187,51,45327,6,0,L|193:131,1,60,2|2,0:0|0:0,0:0:0:0:
200,195,45486,1,2,0:0:0:0:
283,44,45646,2,0,L|289:123,1,60,2|2,0:0|0:0,0:0:0:0:
295,186,45805,1,2,0:0:0:0:
386,0,45965,5,8,0:0:0:0:
391,48,46045,1,0,0:0:0:0:
395,97,46125,1,0,0:0:0:0:
112,16,46284,5,6,0:0:0:0:
256,192,46351,12,0,48175,0:0:0:0:
314,65,48446,5,8,0:0:0:0:
266,69,48513,1,8,0:0:0:0:
218,74,48581,1,8,0:0:0:0:
170,79,48648,1,8,0:0:0:0:
122,84,48716,1,8,0:0:0:0:
229,181,48851,1,2,0:0:0:0:
57,9,48986,5,8,0:0:0:0:
42,195,49121,1,8,0:0:0:0:
49,17,49256,1,8,0:0:0:0:
34,203,49391,1,8,0:0:0:0:
138,47,49527,5,8,0:0:0:0:
185,51,49594,1,8,0:0:0:0:
233,56,49662,1,8,0:0:0:0:
281,61,49729,1,8,0:0:0:0:
314,47,49797,5,8,0:3:0:0:
330,79,49864,1,8,0:3:0:0:
334,114,49932,1,8,0:3:0:0:
324,149,49999,1,8,0:3:0:0:
289,182,50067,5,8,0:0:0:0:
293,230,50134,1,8,0:0:0:0:
297,278,50202,1,8,0:0:0:0:
301,325,50269,1,8,0:0:0:0:
319,341,50338,5,4,0:3:0:0:
336,325,50405,1,4,0:3:0:0:
358,316,50473,1,4,0:3:0:0:
382,314,50540,1,4,0:3:0:0:
404,322,50608,6,0,L|520:313,1,83.9999974365235,6|0,0:0|0:0,0:0:0:0:
421,97,50878,1,8,0:0:0:0:
307,203,51013,2,0,P|251:214|201:190,1,83.9999974365235,2|0,0:0|0:0,0:0:0:0:
87,86,51283,1,2,0:0:0:0:
160,348,51419,2,0,L|168:241,1,83.9999974365235,8|0,0:0|0:0,0:0:0:0:
385,139,51689,6,0,P|333:114|270:113,1,83.9999974365235,2|0,0:2|0:0,0:0:0:0:
428,5,51959,2,0,P|376:29|313:30,1,83.9999974365235,8|0,0:0|0:0,0:0:0:0:
422,238,52229,2,0,P|374:244|332:266,1,83.9999974365235,2|0,0:2|0:0,0:0:0:0:
465,160,52500,2,0,P|414:156|356:46,1,167.999994873047,8|0,0:0|0:0,0:0:0:0:
512,87,52905,5,0,0:0:0:0:
361,57,53040,2,0,P|322:39|281:35,1,83.9999974365235,8|0,0:0|0:0,0:0:0:0:
141,175,53311,2,0,P|192:199|255:200,1,83.9999974365235,2|0,0:2|0:0,0:0:0:0:
184,309,53581,2,0,P|235:284|298:283,1,83.9999974365235,8|0,0:0|0:0,0:0:0:0:
64,147,53851,6,0,P|105:155|141:175,1,83.9999974365235,2|0,0:2|0:0,0:0:0:0:
21,53,54121,2,0,P|62:44|98:24,2,55.9999982910157,8|0|0,0:0|0:0|0:0,0:0:0:0:
187,11,54392,2,0,P|173:50|172:92,2,55.9999982910157,2|0|0,0:2|0:0|0:0,0:0:0:0:
141,175,54662,2,0,P|113:143|77:121,2,55.9999982910157,8|0|0,0:0|0:0|0:0,0:0:0:0:
238,251,54932,6,0,L|354:242,1,83.9999974365235,6|0,0:0|0:0,0:0:0:0:
395,0,55202,1,8,0:0:0:0:
266,75,55338,2,0,L|257:191,1,83.9999974365235,2|0,0:0|0:0,0:0:0:0:
334,251,55608,1,2,0:0:0:0:
494,79,55743,2,0,B|448:66|448:66|406:77,1,83.9999974365235,8|0,0:0|0:0,0:0:0:0:
250,244,56013,6,0,L|366:253,1,83.9999974365235,2|0,0:2|0:0,0:0:0:0:
186,149,56283,2,0,L|302:140,1,83.9999974365235,8|0,0:0|0:0,0:0:0:0:
230,345,56554,2,0,L|346:354,1,83.9999974365235,2|0,0:2|0:0,0:0:0:0:
166,250,56824,2,0,L|368:232,1,167.999994873047,8|0,0:0|0:0,0:0:0:0:
448,294,57229,5,0,0:0:0:0:
484,106,57365,2,0,L|368:97,1,83.9999974365235,8|0,0:0|0:0,0:0:0:0:
440,302,57635,2,0,L|324:311,1,83.9999974365235,2|0,0:2|0:0,0:0:0:0:
504,207,57905,2,0,L|388:198,1,83.9999974365235,8|0,0:0|0:0,0:0:0:0:
236,160,58175,6,0,L|352:169,1,83.9999974365235,2|0,0:2|0:0,0:0:0:0:
172,65,58445,2,0,L|288:56,1,83.9999974365235,8|0,0:0|0:0,0:0:0:0:
216,261,58716,2,0,L|332:270,1,83.9999974365235,2|0,0:2|0:0,0:0:0:0:
152,166,58986,2,0,L|268:157,1,83.9999974365235,8|0,0:0|0:0,0:0:0:0:
464,62,59256,6,0,P|408:38|360:38,1,83.9999974365235,6|0,0:0|0:0,0:0:0:0:
502,257,59527,1,8,0:0:0:0:
410,353,59662,2,0,L|294:362,1,83.9999974365235,2|0,0:0|0:0,0:0:0:0:
212,277,59932,1,2,0:0:0:0:
268,51,60067,2,0,L|277:167,1,83.9999974365235,8|0,0:0|0:0,0:0:0:0:
337,244,60338,6,0,P|362:192|363:129,1,83.9999974365235,2|0,0:2|0:0,0:0:0:0:
471,287,60608,2,0,P|447:235|446:172,1,83.9999974365235,8|0,0:0|0:0,0:0:0:0:
238,281,60878,2,0,P|232:233|210:191,1,83.9999974365235,2|0,0:2|0:0,0:0:0:0:
316,324,61149,2,0,P|320:273|430:215,1,167.999994873047,8|0,0:0|0:0,0:0:0:0:
380,382,61554,5,0,0:0:0:0:
419,220,61689,2,0,P|437:181|441:140,1,83.9999974365235,8|0,0:0|0:0,0:0:0:0:
301,0,61960,2,0,P|277:51|276:114,1,83.9999974365235,2|0,0:2|0:0,0:0:0:0:
167,43,62230,2,0,P|192:94|193:157,1,83.9999974365235,8|0,0:0|0:0,0:0:0:0:
137,336,62500,6,0,P|145:295|165:259,1,83.9999974365235,2|0,0:2|0:0,0:0:0:0:
0,302,62770,2,0,P|12:261|13:220,2,55.9999982910157,8|0|0,0:0|0:0|0:0,0:0:0:0:
48,136,63041,2,0,P|74:167|110:189,2,55.9999982910157,2|0|0,0:2|0:0|0:0,0:0:0:0:
166,258,63311,2,0,P|124:266|87:286,2,55.9999982910157,8|0|0,0:0|0:0|0:0,0:0:0:0:
283,302,63581,6,0,P|331:313|374:303,1,83.9999974365235,6|0,0:0|0:0,0:0:0:0:
423,67,63851,1,8,0:0:0:0:
323,136,63986,2,0,L|328:220,1,83.9999974365235,2|0,0:0|0:0,0:0:0:0:
435,284,64256,1,2,0:0:0:0:
503,71,64392,2,0,B|462:58|462:58|422:67,1,83.9999974365235,8|0,0:0|0:0,0:0:0:0:
265,254,64662,6,0,L|256:138,1,83.9999974365235,2|0,0:2|0:0,0:0:0:0:
360,318,64932,2,0,L|369:202,1,83.9999974365235,8|0,0:0|0:0,0:0:0:0:
164,274,65203,2,0,L|155:158,1,83.9999974365235,2|0,0:2|0:0,0:0:0:0:
259,338,65473,2,0,L|277:136,1,167.999994873047,8|0,0:0|0:0,0:0:0:0:
215,56,65878,5,0,0:0:0:0:
403,20,66013,2,0,L|412:136,1,83.9999974365235,8|0,0:0|0:0,0:0:0:0:
207,64,66284,2,0,L|198:180,1,83.9999974365235,2|0,0:2|0:0,0:0:0:0:
302,0,66554,2,0,L|311:116,1,83.9999974365235,8|0,0:0|0:0,0:0:0:0:
350,277,66824,5,8,0:0:0:0:
340,185,66959,1,8,0:0:0:0:
331,93,67094,1,8,0:1:0:0:
256,147,67229,1,8,0:3:0:0:
426,223,67365,2,0,L|415:131,1,83.9999974365235,8|8,0:0|0:3,0:0:0:0:
265,239,67635,1,4,0:3:0:0:
405,38,67770,1,8,0:0:0:0:
180,200,67905,6,0,B|135:212|135:212|79:203,1,83.9999974365235,6|0,0:0|0:0,0:0:0:0:
331,93,68175,1,8,0:0:0:0:
272,323,68311,2,0,L|263:207,1,83.9999974365235,2|0,0:0|0:0,0:0:0:0:
331,93,68581,1,2,0:0:0:0:
471,262,68716,6,0,P|390:258|347:190,1,167.999994873047,8|0,0:0|0:0,0:0:0:0:
420,48,69121,1,2,0:0:0:0:
347,190,69256,2,0,L|234:201,1,83.9999974365235,8|0,0:0|0:0,0:0:0:0:
139,83,69527,2,0,P|96:56|27:54,1,83.9999974365235,0|2,0:0|0:0,0:0:0:0:
0,266,69797,2,0,L|113:255,1,83.9999974365235,8|0,0:0|0:0,0:0:0:0:
263,198,70067,5,0,0:0:0:0:
252,72,70202,1,2,0:0:0:0:
178,244,70338,2,0,P|177:290|198:342,1,83.9999974365235,8|0,0:0|0:0,0:0:0:0:
434,224,70608,2,0,L|337:220,1,83.9999974365235,2|2,0:0|0:0,0:0:0:0:
195,121,70878,2,0,L|292:117,1,83.9999974365235,8|2,0:0|0:0,0:0:0:0:
433,79,71148,6,0,P|447:35|435:-11,1,83.9999974365235,0|2,0:0|0:0,0:0:0:0:
195,121,71419,1,8,0:0:0:0:
283,248,71554,1,0,0:0:0:0:
260,43,71689,2,0,P|202:20|158:27,1,83.9999974365235,0|2,0:0|0:0,0:0:0:0:
26,213,71959,2,0,L|186:202,1,125.999996154785,8|0,0:0|0:0,0:0:0:0:
170,213,72229,6,0,P|187:261|176:308,1,83.9999974365235,6|0,0:0|0:0,0:0:0:0:
55,51,72500,1,8,0:0:0:0:
181,20,72635,2,0,P|231:29|266:62,1,83.9999974365235,2|0,0:0|0:0,0:0:0:0:
305,165,72905,1,2,0:0:0:0:
50,181,73040,6,0,P|106:121|188:111,1,167.999994873047,8|0,0:0|0:0,0:0:0:0:
305,165,73446,1,2,0:0:0:0:
158,318,73581,2,0,L|162:235,1,83.9999974365235,8|0,0:0|0:0,0:0:0:0:
20,300,73851,2,0,L|23:383,1,83.9999974365235,0|2,0:0|0:0,0:0:0:0:
170,227,74121,2,0,P|128:208|86:213,1,83.9999974365235,8|0,0:0|0:0,0:0:0:0:
243,49,74392,6,0,L|246:132,1,83.9999974365235,2|2,0:0|0:0,0:0:0:0:
355,214,74662,1,8,0:0:0:0:
373,89,74797,1,2,0:0:0:0:
455,255,74932,2,0,B|467:300|467:300|454:344,1,83.9999974365235,0|2,0:0|0:0,0:0:0:0:
289,93,75202,2,0,L|372:89,1,83.9999974365235,8|0,0:0|0:0,0:0:0:0:
202,34,75473,6,0,P|184:98|201:146,1,83.9999974365235,2|2,0:0|0:0,0:0:0:0:
390,214,75743,1,8,0:0:0:0:
372,89,75878,1,0,0:0:0:0:
290,255,76013,2,0,L|286:338,1,83.9999974365235,0|2,0:0|0:0,0:0:0:0:
462,164,76283,2,0,P|401:129|321:162,1,125.999996154785,8|0,0:0|0:0,0:0:0:0:
335,149,76554,6,0,L|342:37,1,83.9999974365235,6|0,0:0|0:0,0:0:0:0:
482,254,76824,1,8,0:0:0:0:
323,286,76959,2,0,P|275:274|230:238,1,83.9999974365235,2|0,0:0|0:0,0:0:0:0:
175,106,77229,1,2,0:0:0:0:
137,361,77365,6,0,P|210:333|244:226,1,167.999994873047,8|0,0:0|0:0,0:0:0:0:
175,106,77770,1,2,0:0:0:0:
324,286,77905,2,0,L|327:369,1,83.9999974365235,8|0,0:0|0:0,0:0:0:0:
172,223,78175,2,0,P|225:177|263:178,1,83.9999974365235,0|2,0:0|0:0,0:0:0:0:
137,361,78446,2,0,P|70:338|52:304,1,83.9999974365235,8|0,0:0|0:0,0:0:0:0:
168,139,78716,5,0,0:0:0:0:
128,286,78851,1,2,0:0:0:0:
289,139,78986,2,0,P|298:86|278:44,1,83.9999974365235,8|2,0:0|0:0,0:0:0:0:
75,13,79256,2,0,P|69:54|84:92,1,83.9999974365235,0|2,0:0|0:0,0:0:0:0:
372,62,79527,2,0,L|288:58,1,83.9999974365235,8|0,0:0|0:0,0:0:0:0:
171,234,79797,6,0,P|221:216|247:177,1,83.9999974365235,0|2,0:0|0:0,0:0:0:0:
59,176,80067,1,8,0:0:0:0:
118,350,80202,1,0,0:0:0:0:
202,108,80338,2,0,L|285:104,1,83.9999974365235,0|2,0:0|0:0,0:0:0:0:
400,283,80608,2,0,B|347:284|347:284|325:273|325:273|276:273,1,125.999996154785,8|0,0:0|0:0,0:0:0:0:
263,284,80878,6,0,P|272:231|256:189,1,83.9999974365235,6|0,0:0|0:0,0:0:0:0:
109,368,81148,1,8,0:0:0:0:
242,384,81283,2,0,L|325:380,1,83.9999974365235,2|0,0:0|0:0,0:0:0:0:
400,283,81554,1,2,0:0:0:0:
193,148,81689,6,0,P|152:214|192:295,1,167.999994873047,8|0,0:0|0:0,0:0:0:0:
293,310,82094,1,2,0:0:0:0:
267,89,82229,2,0,P|218:57|168:59,1,83.9999974365235,8|0,0:0|0:0,0:0:0:0:
287,190,82500,2,0,P|339:163|362:119,1,83.9999974365235,0|2,0:0|0:0,0:0:0:0:
185,290,82770,2,0,L|188:373,1,83.9999974365235,8|0,0:0|0:0,0:0:0:0:
32,192,83040,6,0,P|66:169|108:164,1,83.9999974365235,2|2,0:0|0:0,0:0:0:0:
266,286,83311,1,8,0:0:0:0:
106,266,83446,1,2,0:0:0:0:
297,122,83581,2,0,L|309:220,1,83.9999974365235,0|2,0:0|0:0,0:0:0:0:
171,370,83851,2,0,P|168:328|185:290,1,83.9999974365235,8|0,0:0|0:0,0:0:0:0:
402,291,84121,5,8,0:0:0:0:
198,207,84256,1,2,0:0:0:0:
410,171,84392,5,8,0:0:0:0:
190,199,84527,1,2,0:0:0:0:
360,58,84662,5,8,0:0:0:0:
182,191,84797,1,2,0:0:0:0:
315,189,84932,1,8,0:3:0:0:
66,20,85202,5,6,0:0:0:0:
459,286,86361,5,8,0:0:0:0:
141,207,86651,1,8,0:0:0:0:
220,200,86747,1,8,0:0:0:0:
300,193,86844,1,8,0:0:0:0:
380,186,86940,1,8,0:0:0:0:
380,186,88680,5,8,0:0:0:0:
322,133,88776,1,8,0:0:0:0:
244,136,88873,1,8,0:0:0:0:
190,193,88969,1,8,0:0:0:0:
136,250,89066,1,8,0:0:0:0:
58,253,89163,1,8,0:0:0:0:
0,200,89259,1,8,0:0:0:0:
0,200,90999,5,8,0:0:0:0:
190,193,91289,1,8,0:0:0:0:
380,186,91578,1,8,0:0:0:0:
80,42,92158,5,6,0:0:0:0:
52,125,92255,1,2,0:0:0:0:
138,106,92351,1,2,0:0:0:0:
69,31,92448,1,2,0:0:0:0:
89,249,92738,5,10,0:0:0:0:
61,332,92835,1,2,0:0:0:0:
147,313,92931,1,2,0:0:0:0:
78,238,93028,1,2,0:0:0:0:
286,89,93317,5,2,0:0:0:0:
258,170,93414,1,2,0:0:0:0:
344,152,93510,1,2,0:0:0:0:
217,14,93607,5,2,0:0:0:0:
189,95,93704,1,2,0:0:0:0:
275,77,93800,1,2,0:0:0:0:
206,3,93897,5,10,0:0:0:0:
89,236,94187,2,2,L|78:339,2,80,2|2|2,0:2|0:2|0:2,0:2:0:0:
282,320,94477,5,2,0:0:0:0:
191,350,94574,1,2,0:0:0:0:
211,255,94670,1,2,0:0:0:0:
295,331,94767,1,2,0:0:0:0:
437,148,95057,5,10,0:0:0:0:
354,176,95154,1,2,0:0:0:0:
373,91,95250,1,2,0:0:0:0:
448,160,95347,1,2,0:0:0:0:
189,83,95636,5,2,0:0:0:0:
106,111,95733,1,2,0:0:0:0:
124,26,95829,1,2,0:0:0:0:
265,152,95926,5,2,0:0:0:0:
182,180,96023,1,2,0:0:0:0:
200,95,96119,1,2,0:0:0:0:
275,164,96216,5,10,0:0:0:0:
192,350,96506,2,2,L|95:340,2,80,2|2|2,0:2|0:2|0:2,0:2:0:0:
379,315,96796,5,2,0:0:0:0:
407,232,96893,1,2,0:0:0:0:
321,251,96989,1,2,0:0:0:0:
390,326,97086,1,2,0:0:0:0:
370,108,97376,5,10,0:0:0:0:
398,25,97473,1,2,0:0:0:0:
312,44,97569,1,2,0:0:0:0:
381,119,97666,1,2,0:0:0:0:
173,268,97955,5,2,0:0:0:0:
201,187,98052,1,2,0:0:0:0:
115,205,98148,1,2,0:0:0:0:
242,343,98245,5,2,0:0:0:0:
270,262,98342,1,2,0:0:0:0:
184,280,98438,1,2,0:0:0:0:
253,354,98535,5,10,0:0:0:0:
370,121,98825,2,2,L|381:18,2,80,2|2|2,0:2|0:2|0:2,0:2:0:0:
197,63,99115,5,2,0:0:0:0:
288,33,99212,1,2,0:0:0:0:
268,128,99308,1,2,0:0:0:0:
184,52,99405,1,2,0:0:0:0:
42,235,99695,5,10,0:0:0:0:
125,207,99792,1,2,0:0:0:0:
106,292,99888,1,2,0:0:0:0:
31,223,99985,1,2,0:0:0:0:
290,300,100274,5,2,0:0:0:0:
373,272,100371,1,2,0:0:0:0:
355,357,100467,1,2,0:0:0:0:
214,231,100564,5,2,0:0:0:0:
297,203,100661,1,2,0:0:0:0:
279,288,100757,1,2,0:0:0:0:
204,217,100854,6,0,L|217:98,2,80,8|8|8,0:3|0:0|0:0,0:0:0:0:
287,296,101144,2,0,L|300:415,2,80,4|8|8,0:3|0:0|0:0,0:0:0:0:
445,315,101433,5,6,0:0:0:0:
473,232,101530,1,2,0:0:0:0:
387,251,101626,1,2,0:0:0:0:
456,326,101723,1,2,0:0:0:0:
436,108,102013,5,10,0:0:0:0:
464,25,102110,1,2,0:0:0:0:
378,44,102206,1,2,0:0:0:0:
447,119,102303,1,2,0:0:0:0:
239,268,102592,5,2,0:0:0:0:
267,187,102689,1,2,0:0:0:0:
181,205,102785,1,2,0:0:0:0:
308,343,102882,5,2,0:0:0:0:
336,262,102979,1,2,0:0:0:0:
250,280,103075,1,2,0:0:0:0:
319,354,103172,5,10,0:0:0:0:
436,121,103462,2,2,L|447:18,2,80,2|2|2,0:2|0:2|0:2,0:2:0:0:
243,37,103752,5,2,0:0:0:0:
334,7,103849,1,2,0:0:0:0:
314,102,103945,1,2,0:0:0:0:
230,26,104042,1,2,0:0:0:0:
88,209,104332,5,10,0:0:0:0:
171,181,104429,1,2,0:0:0:0:
152,266,104525,1,2,0:0:0:0:
77,197,104622,1,2,0:0:0:0:
336,274,104911,5,2,0:0:0:0:
419,246,105008,1,2,0:0:0:0:
401,331,105104,1,2,0:0:0:0:
260,205,105201,5,2,0:0:0:0:
343,177,105298,1,2,0:0:0:0:
325,262,105394,1,2,0:0:0:0:
250,193,105491,5,10,0:0:0:0:
333,7,105781,2,2,L|430:17,2,80,2|2|2,0:2|0:2|0:2,0:2:0:0:
146,42,106071,5,2,0:0:0:0:
118,125,106168,1,2,0:0:0:0:
204,106,106264,1,2,0:0:0:0:
135,31,106361,1,2,0:0:0:0:
155,249,106651,5,10,0:0:0:0:
127,332,106748,1,2,0:0:0:0:
213,313,106844,1,2,0:0:0:0:
144,238,106941,1,2,0:0:0:0:
352,89,107230,5,2,0:0:0:0:
324,170,107327,1,2,0:0:0:0:
410,152,107423,1,2,0:0:0:0:
283,14,107520,5,2,0:0:0:0:
255,95,107617,1,2,0:0:0:0:
341,77,107713,1,2,0:0:0:0:
272,3,107810,5,10,0:0:0:0:
155,236,108100,2,2,L|144:339,2,80,2|2|2,0:2|0:2|0:2,0:2:0:0:
328,294,108390,5,2,0:0:0:0:
237,324,108487,1,2,0:0:0:0:
257,229,108583,1,2,0:0:0:0:
341,305,108680,1,2,0:0:0:0:
483,122,108970,5,10,0:0:0:0:
400,150,109067,1,2,0:0:0:0:
419,65,109163,1,2,0:0:0:0:
494,134,109260,1,2,0:0:0:0:
235,57,109549,5,2,0:0:0:0:
152,85,109646,1,2,0:0:0:0:
170,0,109742,1,2,0:0:0:0:
311,126,109839,5,2,0:0:0:0:
228,154,109936,1,2,0:0:0:0:
246,69,110032,1,2,0:0:0:0:
319,134,110129,6,0,L|311:232,2,80,8|8|8,0:3|0:0|0:0,0:0:0:0:
422,79,110419,2,0,L|414:-19,2,80,4|8|8,0:3|0:0|0:0,0:0:0:0:
419,264,110709,5,2,0:0:0:0:
362,317,110805,1,2,0:0:0:0:
284,317,110902,1,2,0:0:0:0:
227,263,110998,1,2,0:0:0:0:
170,209,111095,1,2,0:0:0:0:
92,209,111192,1,2,0:0:0:0:
30,258,111288,2,0,L|61:37,1,200,12|0,0:0|0:0,0:0:0:0:
280,122,111868,5,2,0:0:0:0:
281,198,111964,1,2,0:0:0:0:
215,238,112061,1,2,0:0:0:0:
148,203,112157,1,2,0:0:0:0:
142,127,112254,1,2,0:0:0:0:
204,83,112351,1,2,0:0:0:0:
211,159,112448,2,0,L|8:132,1,200,12|0,0:0|0:0,0:0:0:0:
23,287,113028,5,2,0:0:0:0:
56,252,113100,1,2,0:0:0:0:
100,235,113172,1,2,0:0:0:0:
148,238,113245,1,2,0:0:0:0:
190,260,113317,2,0,L|196:368,2,80,12|0|0,0:0|0:0|0:0,0:0:0:0:
273,168,113607,5,2,0:0:0:0:
306,202,113679,1,2,0:0:0:0:
350,219,113751,1,2,0:0:0:0:
398,216,113824,1,2,0:0:0:0:
440,194,113896,2,0,L|445:86,2,80,12|0|0,0:0|0:0|0:0,0:0:0:0:
331,59,114187,6,0,P|263:31|199:57,1,129.999994049073,2|0,0:0|0:0,0:0:0:0:
193,228,114405,2,0,P|246:192|264:131,1,129.999994049073,2|0,0:0|0:0,0:0:0:0:
114,24,114624,2,0,P|118:87|163:133,1,129.999994049073,2|0,0:0|0:0,0:0:0:0:
299,235,114842,6,0,L|310:104,1,129.999994049073,8|0,0:0|0:0,0:0:0:0:
364,12,115061,2,0,L|353:143,1,129.999994049073,2|0,0:0|0:0,0:0:0:0:
390,279,115279,2,0,L|401:148,1,129.999994049073,8|0,0:0|0:0,0:0:0:0:
489,23,115498,5,6,0:0:0:0:
489,23,117665,5,6,0:0:0:0:
369,147,117815,2,0,L|306:141,1,60,2|0,0:0|0:0,0:0:0:0:
143,87,117965,2,0,L|131:227,1,120,8|2,0:0|0:0,0:0:0:0:
228,47,118265,2,0,L|216:187,1,120,8|2,0:0|0:0,0:0:0:0:
200,346,118565,1,2,0:0:0:0:
390,172,118715,6,0,B|301:134|318:212|217:166,1,180,8|0,0:0|0:0,0:0:0:0:
201,149,119015,2,0,L|206:82,1,60,2|0,0:0|0:0,0:0:0:0:
349,39,119165,1,2,0:0:0:0:
378,287,119315,2,0,P|400:222|383:156,1,120,8|0,0:0|0:0,0:0:0:0:
342,31,119615,1,2,0:0:0:0:
272,216,119765,1,8,0:0:0:0:
463,82,119915,5,8,0:0:0:0:
463,82,119990,1,8,0:0:0:0:
463,82,120065,1,2,0:0:0:0:
246,77,120215,2,0,L|240:146,1,60,2|0,0:0|0:0,0:0:0:0:
338,282,120365,2,0,P|402:289|471:241,1,120,8|2,0:0|0:0,0:0:0:0:
235,283,120665,2,0,P|261:342|380:376,1,180,8|4,0:0|0:3,0:0:0:0:
386,375,120965,1,2,0:0:0:0:
379,158,121115,6,0,L|230:168,1,120,8|0,0:0|0:0,0:0:0:0:
146,133,121340,1,8,0:0:0:0:
136,111,121415,2,0,L|133:51,1,60,2|2,0:0|0:0,0:0:0:0:
286,44,121565,2,0,P|350:58|371:172,1,180,8|8,0:0|0:0,0:0:0:0:
316,224,121865,1,8,0:0:0:0:
268,231,121940,1,8,0:0:0:0:
255,251,122015,5,8,0:3:0:0:
278,257,122090,1,8,0:3:0:0:
316,286,122165,5,8,0:0:0:0:
306,332,122240,1,8,0:0:0:0:
264,356,122315,1,8,0:0:0:0:
216,351,122390,1,8,0:0:0:0:
182,316,122465,5,6,0:0:0:0:
205,165,122615,2,0,L|264:168,1,60,2|0,0:0|0:0,0:0:0:0:
122,108,122765,2,0,L|110:248,1,120,8|2,0:0|0:0,0:0:0:0:
39,12,123065,2,0,L|27:152,1,120,8|2,0:0|0:0,0:0:0:0:
11,311,123365,1,2,0:0:0:0:
122,108,123515,6,0,P|196:66|295:121,1,180,8|0,0:0|0:0,0:0:0:0:
290,119,123815,2,0,L|295:194,1,60,2|0,0:0|0:0,0:0:0:0:
222,326,123965,1,2,0:0:0:0:
122,108,124115,2,0,B|109:167|109:167|136:227,1,120,8|0,0:0|0:0,0:0:0:0:
222,326,124415,1,2,0:0:0:0:
219,57,124565,1,8,0:0:0:0:
14,184,124715,5,8,0:0:0:0:
14,184,124790,1,8,0:0:0:0:
14,184,124865,1,2,0:0:0:0:
130,281,125015,2,0,L|134:201,1,60,2|0,0:0|0:0,0:0:0:0:
263,154,125165,2,0,P|302:206|295:290,1,120,8|2,0:0|0:0,0:0:0:0:
219,57,125465,2,0,P|283:49|352:97,1,120,8|2,0:0|0:0,0:0:0:0:
435,221,125765,1,2,0:0:0:0:
166,170,125915,6,0,P|216:68|328:80,1,240,8|2,0:0|0:0,0:0:0:0:
335,243,126365,5,8,0:0:0:0:
289,228,126440,1,8,0:0:0:0:
268,240,126515,5,2,0:0:0:0:
244,244,126590,1,2,0:0:0:0:
208,235,126665,5,4,0:3:0:0:
180,258,126740,1,4,0:3:0:0:
161,289,126815,1,2,0:0:0:0:
156,324,126890,1,2,0:0:0:0:
162,359,126965,1,8,0:0:0:0:
407,280,127115,1,2,0:0:0:0:
276,132,127265,5,6,0:0:0:0:
260,320,127415,2,0,L|176:313,1,60,2|0,0:0|0:0,0:0:0:0:
370,156,127565,2,0,L|382:296,1,120,8|2,0:0|0:0,0:0:0:0:
453,60,127865,2,0,L|465:200,1,120,8|2,0:0|0:0,0:0:0:0:
479,360,128165,1,2,0:0:0:0:
282,228,128315,6,0,B|210:224|210:224|175:236|175:236|104:231,1,180,8|0,0:0|0:0,0:0:0:0:
87,214,128615,2,0,P|79:186|85:152,1,60,2|0,0:0|0:0,0:0:0:0:
219,97,128765,1,2,0:0:0:0:
271,342,128915,2,0,P|292:273|263:197,1,120,8|0,0:0|0:0,0:0:0:0:
219,97,129215,1,2,0:0:0:0:
178,274,129365,5,8,0:0:0:0:
327,143,129515,5,8,0:0:0:0:
327,143,129590,1,8,0:0:0:0:
327,143,129665,1,2,0:0:0:0:
120,67,129815,2,0,L|125:136,1,60,2|0,0:0|0:0,0:0:0:0:
178,274,129965,2,0,P|242:281|311:233,1,120,8|2,0:0|0:0,0:0:0:0:
75,275,130265,2,0,P|101:334|220:368,1,180,8|4,0:0|0:3,0:0:0:0:
226,367,130565,1,2,0:0:0:0:
177,155,130715,6,0,L|37:167,1,120,8|0,0:0|0:0,0:0:0:0:
11,89,130940,1,8,0:0:0:0:
31,74,131015,2,0,L|95:68,1,60,2|2,0:0|0:0,0:0:0:0:
234,220,131165,2,0,P|201:162|271:73,1,180,8|8,0:0|0:0,0:0:0:0:
398,78,131465,5,8,0:0:0:0:
413,123,131540,1,8,0:0:0:0:
399,142,131615,5,8,0:3:0:0:
396,165,131690,1,8,0:3:0:0:
401,212,131765,5,8,0:0:0:0:
365,243,131840,1,8,0:0:0:0:
319,256,131915,1,8,0:0:0:0:
272,248,131990,1,8,0:0:0:0:
234,220,132065,5,6,0:0:0:0:
364,384,132215,2,0,L|372:308,1,60,2|0,0:0|0:0,0:0:0:0:
315,151,132365,2,0,L|175:163,1,120,8|2,0:0|0:0,0:0:0:0:
355,66,132665,2,0,L|215:78,1,120,8|2,0:0|0:0,0:0:0:0:
55,91,132965,1,2,0:0:0:0:
209,265,133115,6,0,P|304:214|283:110,1,180,8|0,0:0|0:0,0:0:0:0:
287,142,133415,2,0,L|218:149,1,60,2|0,0:0|0:0,0:0:0:0:
78,234,133565,1,2,0:0:0:0:
398,300,133715,2,0,P|326:302|278:265,1,120,8|0,0:0|0:0,0:0:0:0:
223,172,134015,1,2,0:0:0:0:
480,271,134165,1,8,0:0:0:0:
240,375,134315,5,8,0:0:0:0:
240,375,134390,1,8,0:0:0:0:
240,375,134465,1,2,0:0:0:0:
346,165,134615,2,0,L|349:230,1,60,2|0,0:0|0:0,0:0:0:0:
94,153,134765,2,0,L|234:141,1,120,8|2,0:0|0:0,0:0:0:0:
18,65,135065,2,0,L|158:53,1,120,8|2,0:0|0:0,0:0:0:0:
317,36,135365,1,2,0:0:0:0:
145,290,135515,6,0,B|134:198|134:198|151:149|151:149|135:35,1,240,8|2,0:0|0:0,0:0:0:0:
343,188,135965,1,8,0:0:0:0:
27,232,136115,1,8,0:0:0:0:
353,202,136265,1,8,0:0:0:0:
18,219,136415,1,8,0:0:0:0:
360,211,136565,1,8,0:0:0:0:
138,55,136715,6,0,P|255:57|277:181,1,240,6|2,0:0|0:0,0:0:0:0:
43,136,137165,2,0,L|50:-8,1,120,8|2,0:0|0:0,0:0:0:0:
161,248,137465,1,2,0:0:0:0:
37,264,137615,1,2,0:0:0:0:
176,127,137765,2,0,P|233:111|301:128,1,120,8|2,0:0|0:0,0:0:0:0:
100,184,138065,5,2,0:0:0:0:
108,45,138215,1,2,0:0:0:0:
239,223,138365,2,0,P|255:280|238:348,1,120,8|2,0:0|0:0,0:0:0:0:
176,127,138665,5,2,0:0:0:0:
315,135,138815,1,2,0:0:0:0:
137,266,138965,1,8,0:0:0:0:
258,40,139115,6,0,L|267:289,1,240,6|2,0:0|0:0,0:0:0:0:
478,174,139565,2,0,P|419:161|362:178,1,120,8|2,0:0|0:0,0:0:0:0:
258,364,139865,1,2,0:0:0:0:
397,300,140015,1,2,0:0:0:0:
186,225,140165,1,8,0:0:0:0:
258,364,140315,6,0,L|396:377,2,120,2|2|2,0:0|0:0|0:0,0:0:0:0:
317,135,140765,2,0,P|335:195|309:253,1,120,8|2,0:0|0:0,0:0:0:0:
224,86,141065,2,0,P|266:40|330:33,1,120,2|2,0:0|0:0,0:0:0:0:
422,150,141365,1,8,0:0:0:0:
239,228,141515,2,0,L|249:147,1,60,6|0,0:0|0:0,0:0:0:0:
363,263,141665,6,0,B|388:323|388:323|368:399,1,120,2|2,0:2|0:0,0:0:0:0:
119,236,141965,2,0,L|239:228,1,120,8|2,0:0|0:0,0:0:0:0:
237,67,142265,1,2,0:0:0:0:
111,51,142415,1,2,0:0:0:0:
239,228,142565,2,0,P|303:247|360:224,1,120,8|2,0:0|0:0,0:0:0:0:
452,65,142865,6,0,L|322:75,1,120,2|2,0:0|0:0,0:0:0:0:
239,228,143165,2,0,P|213:294|229:366,1,120,8|2,0:0|0:0,0:0:0:0:
409,305,143465,2,0,L|400:185,1,120,2|2,0:0|0:0,0:0:0:0:
318,342,143765,1,8,0:0:0:0:
492,144,143915,6,0,P|417:85|370:88,1,120,6|0,0:0|0:0,0:0:0:0:
305,252,144215,2,0,L|236:257,1,60,2|2,0:0|0:0,0:0:0:0:
122,226,144365,5,8,0:0:0:0:
93,188,144440,1,8,0:0:0:0:
88,140,144515,1,8,0:0:0:0:
109,98,144590,1,8,0:0:0:0:
149,72,144665,5,8,0:3:0:0:
154,95,144740,1,8,0:3:0:0:
160,119,144815,1,8,0:3:0:0:
166,142,144890,1,8,0:3:0:0:
171,165,144965,5,8,0:0:0:0:
133,135,145040,1,8,0:0:0:0:
86,129,145115,1,8,0:0:0:0:
42,148,145190,1,8,0:0:0:0:
14,186,145265,5,4,0:3:0:0:
16,210,145340,1,4,0:3:0:0:
18,234,145415,1,4,0:3:0:0:
19,257,145490,1,4,0:3:0:0:
21,281,145565,5,8,0:0:0:0:
43,239,145640,1,8,0:0:0:0:
85,216,145715,1,8,0:0:0:0:
132,219,145790,1,8,0:0:0:0:
170,247,145865,1,8,0:0:0:0:
2,376,146015,1,8,0:0:0:0:
111,84,146465,5,6,0:0:0:0:
291,108,146615,1,2,0:0:0:0:
103,92,146765,1,2,0:0:0:0:
283,116,146915,1,2,0:0:0:0:
195,295,147065,5,10,0:0:0:0:
375,271,147215,1,2,0:0:0:0:
187,287,147365,1,2,0:0:0:0:
367,263,147515,1,2,0:0:0:0:
302,37,147665,5,2,0:0:0:0:
278,217,147815,1,2,0:0:0:0:
294,29,147965,1,2,0:0:0:0:
270,209,148115,1,2,0:0:0:0:
96,79,148265,5,10,0:0:0:0:
120,259,148415,1,2,0:0:0:0:
104,71,148565,1,2,0:0:0:0:
128,251,148715,1,2,0:0:0:0:
15,33,148865,5,2,0:0:0:0:
195,57,149015,1,2,0:0:0:0:
37,219,149165,5,2,0:0:0:0:
217,195,149315,1,2,0:0:0:0:
7,25,149465,5,10,0:0:0:0:
29,211,149615,2,0,P|75:231|150:213,1,120,2|2,0:0|0:0,0:0:0:0:
187,49,149915,1,2,0:0:0:0:
183,309,150065,5,2,0:0:0:0:
159,129,150215,1,2,0:0:0:0:
175,317,150365,1,2,0:0:0:0:
151,137,150515,1,2,0:0:0:0:
7,276,150665,1,8,0:0:0:0:
17,156,150815,1,8,0:0:0:0:
27,36,150965,1,8,0:0:0:0:
156,159,151115,2,0,L|75:148,1,60,6|0,0:0|0:0,0:0:0:0:
250,47,151265,6,0,L|255:179,1,120,2|2,0:2|0:0,0:0:0:0:
406,288,151565,2,0,P|423:228|406:173,1,120,8|2,0:0|0:0,0:0:0:0:
257,299,151865,1,2,0:0:0:0:
379,365,152015,1,2,0:0:0:0:
254,166,152165,2,0,L|128:176,1,120,8|2,0:0|0:0,0:0:0:0:
338,91,152465,6,0,B|362:149|362:149|347:219,1,120,2|2,0:0|0:0,0:0:0:0:
169,367,152765,2,0,L|182:233,1,120,8|2,0:0|0:0,0:0:0:0:
228,120,153065,2,0,P|283:88|346:93,1,120,2|2,0:0|0:0,0:0:0:0:
130,155,153365,1,8,0:0:0:0:
338,90,153515,6,0,P|288:32|120:46,1,240,6|2,0:0|0:0,0:0:0:0:
224,240,153965,2,0,L|229:110,1,120,8|2,0:0|0:0,0:0:0:0:
100,201,154265,2,0,P|92:263|116:318,1,120,2|2,0:0|0:0,0:0:0:0:
333,165,154565,2,0,P|283:127|223:120,1,120,8|2,0:0|0:0,0:0:0:0:
113,314,154865,6,0,L|243:308,1,120,2|2,0:0|0:0,0:0:0:0:
392,186,155165,2,0,B|333:165|333:165|261:190,1,120,8|2,0:0|0:0,0:0:0:0:
497,272,155465,1,8,0:0:0:0:
504,137,155615,1,2,0:0:0:0:
379,337,155765,1,4,0:3:0:0:
47,206,156065,6,0,L|127:213,1,60,6|2,0:0|0:0,0:0:0:0:
190,219,156224,1,2,0:0:0:0:
56,111,156384,2,0,L|135:118,1,60,2|2,0:0|0:0,0:0:0:0:
198,123,156543,1,2,0:0:0:0:
32,14,156703,5,8,0:0:0:0:
68,16,156783,1,0,0:0:0:0:
104,20,156862,1,0,0:0:0:0:
342,136,157022,6,0,L|262:129,1,60,2|2,0:0|0:0,0:0:0:0:
198,123,157182,1,2,0:0:0:0:
332,231,157341,2,0,L|253:224,1,60,2|2,0:0|0:0,0:0:0:0:
190,219,157501,1,2,0:0:0:0:
374,330,157660,5,8,0:0:0:0:
320,327,157740,1,0,0:0:0:0:
266,321,157820,1,0,0:0:0:0:
52,243,157979,6,0,L|132:236,1,60,2|2,0:0|0:0,0:0:0:0:
196,230,158139,1,2,0:0:0:0:
45,147,158299,2,0,L|124:140,1,60,2|2,0:0|0:0,0:0:0:0:
187,134,158458,1,2,0:0:0:0:
5,56,158618,5,8,0:0:0:0:
40,52,158697,1,0,0:0:0:0:
76,49,158777,1,0,0:0:0:0:
331,122,158937,6,0,L|251:129,1,60,2|2,0:0|0:0,0:0:0:0:
187,134,159096,1,2,0:0:0:0:
338,217,159256,2,0,L|259:224,1,60,2|2,0:0|0:0,0:0:0:0:
196,230,159416,1,2,0:0:0:0:
396,306,159575,5,8,0:0:0:0:
342,312,159655,1,0,0:0:0:0:
288,318,159735,1,0,0:0:0:0:
240,48,159894,6,0,L|233:128,1,60,2|2,0:0|0:0,0:0:0:0:
228,192,160054,1,2,0:0:0:0:
336,58,160213,2,0,L|329:137,1,60,2|2,0:0|0:0,0:0:0:0:
324,200,160373,1,2,0:0:0:0:
432,34,160533,5,8,0:0:0:0:
430,70,160612,1,0,0:0:0:0:
427,106,160692,1,0,0:0:0:0:
311,344,160852,6,0,L|319:264,1,60,2|2,0:0|0:0,0:0:0:0:
324,200,161011,1,2,0:0:0:0:
215,334,161171,2,0,L|222:255,1,60,2|2,0:0|0:0,0:0:0:0:
228,192,161330,1,2,0:0:0:0:
100,384,161490,5,8,0:0:0:0:
103,330,161570,1,0,0:0:0:0:
108,276,161650,1,0,0:0:0:0:
204,54,161809,6,0,L|211:135,1,60,2|2,0:0|0:0,0:0:0:0:
217,198,161969,1,2,0:0:0:0:
300,47,162128,2,0,L|307:127,1,60,2|2,0:0|0:0,0:0:0:0:
312,189,162288,1,2,0:0:0:0:
391,7,162447,5,8,0:0:0:0:
395,42,162527,1,0,0:0:0:0:
398,78,162607,1,0,0:0:0:0:
325,333,162767,6,0,L|319:253,1,60,2|2,0:0|0:0,0:0:0:0:
312,189,162926,1,2,0:0:0:0:
229,340,163086,2,0,L|223:261,1,60,2|2,0:0|0:0,0:0:0:0:
217,198,163245,5,2,0:0:0:0:
126,384,163405,5,8,0:0:0:0:
121,336,163485,1,0,0:0:0:0:
117,287,163565,1,0,0:0:0:0:
429,371,163724,5,6,0:0:0:0:
369,363,163803,1,2,0:0:0:0:
309,355,163884,2,0,L|250:345,1,60,2|0,0:0|0:0,0:0:0:0:
512,248,164043,1,6,0:0:0:0:
452,240,164122,1,2,0:0:0:0:
392,232,164202,1,2,0:0:0:0:
104,296,164682,5,6,0:0:0:0:
164,288,164761,1,2,0:0:0:0:
224,280,164841,2,0,L|287:270,1,60,2|0,0:0|0:0,0:0:0:0:
21,173,165001,1,6,0:0:0:0:
81,165,165080,1,2,0:0:0:0:
141,157,165160,1,2,0:0:0:0:
