osu file format v14

[General]
AudioFilename: audio.mp3
AudioLeadIn: 0
PreviewTime: -1
Countdown: 1
SampleSet: Normal
StackLeniency: 1
Mode: 0
LetterboxInBreaks: 0
WidescreenStoryboard: 0

[Editor]
DistanceSpacing: 1
BeatDivisor: 6
GridSize: 16
TimelineZoom: 2.2

[Metadata]
Title:Dance Dance
TitleUnicode:Dance Dance
Artist:Dance
ArtistUnicode:Dance
Creator:Loli Major
Version:Loli Dance
Source:Dance - Dance Dance
Tags:Dance
BeatmapID:1936022
BeatmapSetID:926932

[Difficulty]
HPDrainRate:7
CircleSize:5
OverallDifficulty:9
ApproachRate:9
SliderMultiplier:1.4
SliderTickRate:1

[Events]
//Background and Video events
//Break Periods
//Storyboard Layer 0 (Background)
//Storyboard Layer 1 (Fail)
//Storyboard Layer 2 (Pass)
//Storyboard Layer 3 (Foreground)
//Storyboard Sound Samples

[TimingPoints]
82000,400,4,1,0,100,1,0

[Colours]
Combo1 : 253,255,255
Combo2 : 158,138,229

[HitObjects]
208,240,5142,5,0,0:0:0:0:
240,208,5571,1,0,0:0:0:0:
272,176,6000,1,0,0:0:0:0:
293,78,6428,1,0,0:0:0:0:
173,74,6642,1,0,0:0:0:0:
228,170,6857,1,0,0:0:0:0:
118,192,7071,1,0,0:0:0:0:
306,255,7285,5,0,0:0:0:0:
319,130,7714,1,0,0:0:0:0:
186,182,8142,1,0,0:0:0:0:
336,262,8571,1,0,0:0:0:0:
346,100,8785,1,0,0:0:0:0:
250,171,9000,1,0,0:0:0:0:
147,254,9214,1,0,0:0:0:0:
134,94,9428,5,0,0:0:0:0:
240,128,9857,1,0,0:0:0:0:
370,225,10285,1,0,0:0:0:0:
176,97,10714,1,0,0:0:0:0:
339,127,10928,1,0,0:0:0:0:
186,174,11142,1,0,0:0:0:0:
327,215,11357,1,0,0:0:0:0:
176,284,11571,5,0,0:0:0:0:
100,205,11785,1,0,0:0:0:0:
156,88,12000,1,0,0:0:0:0:
197,176,12214,1,0,0:0:0:0:
294,104,12428,1,0,0:0:0:0:
166,267,12642,5,0,0:0:0:0:
291,275,12857,1,0,0:0:0:0:
324,171,13071,1,0,0:0:0:0:
248,226,13285,1,0,0:0:0:0:
163,111,13500,1,0,0:0:0:0:
127,269,13714,5,0,0:0:0:0:
278,96,13928,1,0,0:0:0:0:
329,156,14142,1,0,0:0:0:0:
94,172,14357,1,0,0:0:0:0:
279,286,14571,1,0,0:0:0:0:
203,154,14785,5,0,0:0:0:0:
391,175,15000,1,0,0:0:0:0:
267,232,15214,1,0,0:0:0:0:
158,79,15428,1,0,0:0:0:0:
300,75,15642,1,0,0:0:0:0:
331,206,15857,5,0,0:0:0:0:
300,75,16071,1,0,0:0:0:0:
176,160,16285,1,0,0:0:0:0:
92,222,16500,1,0,0:0:0:0:
245,177,16714,1,0,0:0:0:0:
387,223,16928,5,0,0:0:0:0:
272,256,17142,1,0,0:0:0:0:
141,192,17357,1,0,0:0:0:0:
312,199,17571,1,0,0:0:0:0:
224,128,17785,1,0,0:0:0:0:
128,116,18000,5,0,0:0:0:0:
202,290,18214,1,0,0:0:0:0:
207,196,18428,1,0,0:0:0:0:
320,224,18642,1,0,0:0:0:0:
207,196,18857,2,0,P|226:246|303:231,1,140
272,64,19500,1,0,0:0:0:0:
288,144,19714,1,0,0:0:0:0:
397,148,19928,1,0,0:0:0:0:
168,135,20142,5,0,0:0:0:0:
288,240,20357,1,0,0:0:0:0:
256,288,20571,1,0,0:0:0:0:
106,273,20785,1,0,0:0:0:0:
256,192,21000,1,0,0:0:0:0:
94,95,21214,5,0,0:0:0:0:
256,96,21428,1,0,0:0:0:0:
160,218,21642,1,0,0:0:0:0:
192,96,21857,1,0,0:0:0:0:
326,230,22071,1,0,0:0:0:0:
372,117,22285,5,0,0:0:0:0:
237,144,22500,1,0,0:0:0:0:
374,210,22714,1,0,0:0:0:0:
192,192,22928,1,0,0:0:0:0:
116,277,23142,1,0,0:0:0:0:
128,160,23357,5,0,0:0:0:0:
73,54,23571,1,0,0:0:0:0:
192,96,23785,1,0,0:0:0:0:
188,227,24000,2,0,P|243:335|265:172,1,420
193,145,25600,1,0,0:0:0:0:
256,259,25800,5,0,0:0:0:0:
336,192,26000,1,0,0:0:0:0:
176,192,26200,1,0,0:0:0:0:
336,192,26400,1,0,0:0:0:0:
256,256,26600,1,0,0:0:0:0:
229,100,26800,5,0,0:0:0:0:
336,80,27000,1,0,0:0:0:0:
138,66,27200,1,0,0:0:0:0:
287,154,27400,1,0,0:0:0:0:
177,177,27600,1,0,0:0:0:0:
371,220,27800,5,0,0:0:0:0:
368,64,28000,1,0,0:0:0:0:
209,243,28200,1,0,0:0:0:0:
384,224,28400,1,0,0:0:0:0:
294,132,28600,1,0,0:0:0:0:
186,145,28800,1,0,0:0:0:0:
256,32,29000,5,0,0:0:0:0:
259,164,29200,1,0,0:0:0:0:
336,64,29400,1,0,0:0:0:0:
176,256,29600,1,0,0:0:0:0:
259,164,29800,1,0,0:0:0:0:
144,176,30000,1,0,0:0:0:0:
259,164,30200,1,0,0:0:0:0:
160,96,30400,1,0,0:0:0:0:
259,164,30600,1,0,0:0:0:0:
224,48,30800,1,0,0:0:0:0:
290,73,31000,1,0,0:0:0:0:
343,102,31200,6,0,P|428:226|156:244,1,560
426,207,31600,1,0,0:0:0:0:
380,332,32000,1,0,0:0:0:0:
250,358,32400,1,0,0:0:0:0:
400,256,33000,1,0,0:0:0:0:
128,256,33214,1,0,0:0:0:0:
400,96,33428,1,0,0:0:0:0:
128,96,33642,5,0,0:0:0:0:
400,256,33857,1,0,0:0:0:0:
128,256,34071,1,0,0:0:0:0:
400,96,34285,1,0,0:0:0:0:
128,96,34500,5,0,0:0:0:0:
400,256,34714,1,0,0:0:0:0:
128,256,34928,1,0,0:0:0:0:
400,96,35142,1,0,0:0:0:0:
128,176,35357,5,0,0:0:0:0:
400,176,35571,1,0,0:0:0:0:
128,96,35785,1,0,0:0:0:0:
400,96,36000,1,0,0:0:0:0:
128,176,36214,5,0,0:0:0:0:
400,176,36428,1,0,0:0:0:0:
128,256,36642,1,0,0:0:0:0:
400,256,36857,1,0,0:0:0:0:
128,176,37071,5,0,0:0:0:0:
400,176,37285,1,0,0:0:0:0:
128,256,37500,1,0,0:0:0:0:
400,96,37714,1,0,0:0:0:0:
128,96,37928,5,0,0:0:0:0:
400,256,38142,1,0,0:0:0:0:
128,256,38600,6,0,L|384:128,1,280
256,192,39000,1,0,0:0:0:0:
384,128,39400,1,0,0:0:0:0:
128,128,39642,1,0,0:0:0:0:
256,256,39857,1,0,0:0:0:0:
256,16,40071,1,0,0:0:0:0:
160,224,40285,5,0,0:0:0:0:
336,48,40500,1,0,0:0:0:0:
176,48,40714,1,0,0:0:0:0:
336,224,40928,1,0,0:0:0:0:
176,224,41142,5,0,0:0:0:0:
336,48,41357,1,0,0:0:0:0:
176,48,41571,1,0,0:0:0:0:
336,224,41785,1,0,0:0:0:0:
176,224,42000,5,0,0:0:0:0:
336,48,42214,1,0,0:0:0:0:
176,48,42428,1,0,0:0:0:0:
336,224,42642,5,0,0:0:0:0:
112,288,42857,1,0,0:0:0:0:
384,48,43071,1,0,0:0:0:0:
112,48,43285,1,0,0:0:0:0:
384,288,43500,5,0,0:0:0:0:
112,192,43714,1,0,0:0:0:0:
400,192,43928,1,0,0:0:0:0:
112,192,44142,5,0,0:0:0:0:
400,192,44357,1,0,0:0:0:0:
112,192,44571,1,0,0:0:0:0:
400,192,44785,1,0,0:0:0:0:
256,48,45000,5,0,0:0:0:0:
256,336,45214,1,0,0:0:0:0:
256,48,45428,1,0,0:0:0:0:
256,336,45642,1,0,0:0:0:0:
256,48,45857,1,0,0:0:0:0:
256,336,46071,1,0,0:0:0:0:
240,208,46285,5,0,0:0:0:0:
272,176,46500,1,0,0:0:0:0:
224,224,46714,1,0,0:0:0:0:
288,160,46928,1,0,0:0:0:0:
208,240,47142,1,0,0:0:0:0:
304,144,47357,1,0,0:0:0:0:
272,208,47571,5,0,0:0:0:0:
240,176,47785,1,0,0:0:0:0:
288,224,48000,1,0,0:0:0:0:
224,160,48214,1,0,0:0:0:0:
304,240,48428,1,0,0:0:0:0:
208,144,48642,1,0,0:0:0:0:
336,192,48857,5,0,0:0:0:0:
176,192,49071,1,0,0:0:0:0:
304,128,49285,1,0,0:0:0:0:
379,130,49500,1,0,0:0:0:0:
191,288,49714,1,0,0:0:0:0:
319,93,49928,1,0,0:0:0:0:
175,96,50142,5,0,0:0:0:0:
320,289,50357,1,0,0:0:0:0:
129,193,50571,1,0,0:0:0:0:
384,191,50785,1,0,0:0:0:0:
176,240,51000,1,0,0:0:0:0:
272,96,51214,1,0,0:0:0:0:
235,219,51428,6,0,L|283:155,7,70
239,237,53142,5,0,0:0:0:0:
308,173,53357,1,0,0:0:0:0:
174,172,53571,1,0,0:0:0:0:
304,96,53785,1,0,0:0:0:0:
239,237,54000,1,0,0:0:0:0:
171,193,54214,5,0,0:0:0:0:
239,237,54428,1,0,0:0:0:0:
234,155,54642,1,0,0:0:0:0:
326,132,54857,1,0,0:0:0:0:
304,192,55071,1,0,0:0:0:0:
239,237,55285,1,0,0:0:0:0:
336,192,55500,5,0,0:0:0:0:
160,176,55714,1,0,0:0:0:0:
336,160,55928,1,0,0:0:0:0:
160,144,56142,1,0,0:0:0:0:
336,128,56357,1,0,0:0:0:0:
160,112,56571,1,0,0:0:0:0:
256,304,56785,5,0,0:0:0:0:
160,176,57000,1,0,0:0:0:0:
336,192,57214,1,0,0:0:0:0:
253,88,57428,1,0,0:0:0:0:
336,192,57642,1,0,0:0:0:0:
160,176,57856,1,0,0:0:0:0:
236,270,58071,1,0,0:0:0:0:
336,192,58285,5,0,0:0:0:0:
336,192,58714,1,0,0:0:0:0:
336,192,59142,1,0,0:0:0:0:
336,192,59571,1,0,0:0:0:0:
45,39,60000,1,0,0:0:0:0:
463,345,60214,1,0,0:0:0:0:
176,144,60428,5,0,0:0:0:0:
336,128,60642,1,0,0:0:0:0:
78,190,60857,1,0,0:0:0:0:
430,44,61071,1,0,0:0:0:0:
89,47,61285,1,0,0:0:0:0:
417,203,61500,1,0,0:0:0:0:
260,327,61714,5,0,0:0:0:0:
430,44,61928,1,0,0:0:0:0:
71,161,62142,1,0,0:0:0:0:
447,135,62357,1,0,0:0:0:0:
60,340,62571,1,0,0:0:0:0:
454,191,62785,1,0,0:0:0:0:
60,340,63000,5,0,0:0:0:0:
454,191,63214,1,0,0:0:0:0:
254,258,63428,1,0,0:0:0:0:
125,190,63642,2,0,B|83:185|94:160|123:146,2,70
125,190,64071,2,0,B|83:185|94:160|123:146,2,70
125,190,64500,2,0,B|83:185|94:160|123:146,2,70
213,191,65142,1,0,0:0:0:0:
224,112,65357,6,0,P|368:80|349:285,1,420
282,71,65571,5,0,0:0:0:0:
356,71,65785,1,0,0:0:0:0:
411,118,66000,1,0,0:0:0:0:
426,184,66214,1,0,0:0:0:0:
403,251,66428,1,0,0:0:0:0:
205,85,66857,5,0,0:0:0:0:
176,208,67071,1,0,0:0:0:0:
304,160,67285,1,0,0:0:0:0:
304,256,67500,1,0,0:0:0:0:
176,240,67714,1,0,0:0:0:0:
288,128,67928,1,0,0:0:0:0:
336,224,68142,1,0,0:0:0:0:
396,98,68357,1,0,0:0:0:0:
256,112,68571,1,0,0:0:0:0:
96,160,68785,5,0,0:0:0:0:
208,272,69000,1,0,0:0:0:0:
384,159,69214,1,0,0:0:0:0:
96,160,69428,1,0,0:0:0:0:
323,295,69642,1,0,0:0:0:0:
160,54,69857,1,0,0:0:0:0:
396,189,70071,1,0,0:0:0:0:
98,283,70285,1,0,0:0:0:0:
256,112,70500,1,0,0:0:0:0:
96,160,70714,5,0,0:0:0:0:
317,300,70928,1,0,0:0:0:0:
362,70,71142,1,0,0:0:0:0:
96,160,71357,1,0,0:0:0:0:
146,325,71571,1,0,0:0:0:0:
256,112,71785,1,0,0:0:0:0:
256,192,72000,12,0,72214,0:0:0:0:
192,256,72428,5,0,0:0:0:0:
304,192,72857,1,0,0:0:0:0:
144,192,73285,5,0,0:0:0:0:
288,256,73500,1,0,0:0:0:0:
400,144,73714,1,0,0:0:0:0:
224,96,73928,1,0,0:0:0:0:
224,240,74357,5,0,0:0:0:0:
443,91,74571,1,0,0:0:0:0:
128,96,74785,1,0,0:0:0:0:
144,208,75000,1,0,0:0:0:0:
441,209,75214,1,0,0:0:0:0:
354,328,75428,5,0,0:0:0:0:
396,100,75642,1,0,0:0:0:0:
98,96,75857,1,0,0:0:0:0:
112,307,76071,1,0,0:0:0:0:
388,312,76285,1,0,0:0:0:0:
386,82,76500,1,0,0:0:0:0:
98,96,76714,1,0,0:0:0:0:
112,307,76928,1,0,0:0:0:0:
415,314,77142,1,0,0:0:0:0:
386,82,77357,1,0,0:0:0:0:
208,144,77571,5,0,0:0:0:0:
288,192,77785,1,0,0:0:0:0:
128,192,78000,1,0,0:0:0:0:
288,80,78214,1,0,0:0:0:0:
381,300,78428,1,0,0:0:0:0:
121,94,78642,1,0,0:0:0:0:
206,286,78857,1,0,0:0:0:0:
333,169,79071,1,0,0:0:0:0:
112,144,79285,1,0,0:0:0:0:
340,273,79500,1,0,0:0:0:0:
208,304,79714,5,0,0:0:0:0:
464,160,79928,1,0,0:0:0:0:
16,160,80142,1,0,0:0:0:0:
256,192,80285,12,0,80428,0:0:0:0:
80,256,80571,5,0,0:0:0:0:
368,176,80785,1,0,0:0:0:0:
80,80,81000,1,0,0:0:0:0:
288,272,81214,1,0,0:0:0:0:
240,96,81428,1,0,0:0:0:0:
128,224,81642,1,0,0:0:0:0:
