osu file format v14

[General]
AudioFilename: audio.mp3
AudioLeadIn: 0
PreviewTime: 115671
Countdown: 0
SampleSet: Normal
StackLeniency: 0.7
Mode: 1
LetterboxInBreaks: 0
WidescreenStoryboard: 0

[Editor]
DistanceSpacing: 1
BeatDivisor: 4
GridSize: 32
TimelineZoom: 1.8

[Metadata]
Title:Your Reality
TitleUnicode:Your Reality
Artist:Dan Salvato
ArtistUnicode:Dan Salvato
Creator:davidminh0111
Version:Muzukashii
Source:Doki Doki Literature Club!
Tags:DDLC just monika ed ending credit Jillian Ashcraft Visual Novel english Chitanda Eru video game pop vn
BeatmapID:3065088
BeatmapSetID:1495528

[Difficulty]
HPDrainRate:7
CircleSize:2
OverallDifficulty:4
ApproachRate:10
SliderMultiplier:1.6
SliderTickRate:1

[Events]
//Background and Video events
0,0,"yuri.jpg",0,100
//Break Periods
//Storyboard Layer 0 (Background)
//Storyboard Layer 1 (Fail)
//Storyboard Layer 2 (Pass)
//Storyboard Layer 3 (Foreground)
//Storyboard Layer 4 (Overlay)
//Storyboard Sound Samples

[TimingPoints]
815,571.428571428571,4,1,0,35,1,0
50587,-100,4,1,0,25,0,0
59730,-100,4,1,0,35,0,0
115100,571.428571428571,4,1,0,35,1,8
115677,571.428571428571,4,1,0,35,1,0
165462,-100,4,1,0,30,0,0
175462,-125,4,1,0,25,0,8
175962,461.538461538462,4,1,0,25,1,8
175962,-111.111111111111,4,1,0,25,0,8

[HitObjects]
256,192,529,5,8,0:0:0:0:
256,192,672,1,8,0:0:0:0:
256,192,815,1,8,0:0:0:0:
256,192,1386,1,0,0:0:0:0:
256,192,1672,1,0,0:0:0:0:
256,192,1957,1,8,0:0:0:0:
256,192,2529,1,0,0:0:0:0:
256,192,2814,1,0,0:0:0:0:
256,192,3100,1,12,0:0:0:0:
256,192,3957,1,12,0:0:0:0:
256,192,4814,1,0,0:0:0:0:
256,192,4957,1,0,0:0:0:0:
256,192,5100,1,0,0:0:0:0:
256,192,5386,1,12,0:0:0:0:
256,192,5957,1,0,0:0:0:0:
256,192,6243,1,12,0:0:0:0:
256,192,7100,1,0,0:0:0:0:
256,192,7386,1,0,0:0:0:0:
256,192,7672,1,12,0:0:0:0:
256,192,8529,1,12,0:0:0:0:
256,192,9957,1,0,0:0:0:0:
256,192,10529,1,8,0:0:0:0:
256,192,10814,1,8,0:0:0:0:
256,192,11100,1,0,0:0:0:0:
256,192,11672,1,8,0:0:0:0:
256,192,11957,1,0,0:0:0:0:
256,192,12243,1,8,0:0:0:0:
256,192,12529,1,0,0:0:0:0:
256,192,12672,1,0,0:0:0:0:
256,192,12814,1,0,0:0:0:0:
256,192,13100,1,0,0:0:0:0:
256,192,13386,1,8,0:0:0:0:
256,192,13957,1,0,0:0:0:0:
256,192,14243,1,8,0:0:0:0:
256,192,14529,1,8,0:0:0:0:
256,192,14814,1,8,0:0:0:0:
256,192,15100,1,0,0:0:0:0:
256,192,15386,1,0,0:0:0:0:
256,192,15529,1,0,0:0:0:0:
256,192,15672,1,0,0:0:0:0:
256,192,15957,1,8,0:0:0:0:
256,192,16100,1,8,0:0:0:0:
256,192,16243,1,8,0:0:0:0:
256,192,16529,1,8,0:0:0:0:
256,192,16814,1,0,0:0:0:0:
256,192,17386,1,8,0:0:0:0:
256,192,17672,1,8,0:0:0:0:
256,192,17814,1,8,0:0:0:0:
256,192,18100,1,0,0:0:0:0:
256,192,18243,1,0,0:0:0:0:
256,192,18529,1,8,0:0:0:0:
256,192,18814,1,8,0:0:0:0:
256,192,19100,1,0,0:0:0:0:
256,192,19672,1,0,0:0:0:0:
256,192,19957,1,8,0:0:0:0:
256,192,20243,1,0,0:0:0:0:
256,192,20814,1,8,0:0:0:0:
256,192,21100,1,0,0:0:0:0:
256,192,21386,1,8,0:0:0:0:
256,192,21672,1,8,0:0:0:0:
256,192,21814,1,8,0:0:0:0:
256,192,21957,1,8,0:0:0:0:
256,192,22243,1,8,0:0:0:0:
256,192,22529,1,0,0:0:0:0:
256,192,22814,1,0,0:0:0:0:
256,192,23386,1,8,0:0:0:0:
256,192,23672,1,0,0:0:0:0:
256,192,23957,1,8,0:0:0:0:
256,192,24243,1,0,0:0:0:0:
256,192,24529,1,8,0:0:0:0:
256,192,24672,1,8,0:0:0:0:
256,192,24814,1,8,0:0:0:0:
256,192,25100,1,0,0:0:0:0:
256,192,25243,1,0,0:0:0:0:
256,192,25386,1,0,0:0:0:0:
256,192,25672,1,8,0:0:0:0:
256,192,25957,1,0,0:0:0:0:
256,192,26529,1,8,0:0:0:0:
256,192,26814,1,8,0:0:0:0:
256,192,26957,1,8,0:0:0:0:
256,192,27243,1,8,0:0:0:0:
256,192,27386,1,8,0:0:0:0:
256,192,27672,1,8,0:0:0:0:
256,192,27957,1,0,0:0:0:0:
256,192,28100,1,0,0:0:0:0:
256,192,28243,1,0,0:0:0:0:
256,192,28814,1,8,0:0:0:0:
256,192,29100,1,0,0:0:0:0:
256,192,29672,1,8,0:0:0:0:
256,192,30243,1,0,0:0:0:0:
256,192,30529,1,8,0:0:0:0:
256,192,30814,1,0,0:0:0:0:
256,192,30957,1,0,0:0:0:0:
256,192,31386,1,8,0:0:0:0:
256,192,31957,1,8,0:0:0:0:
256,192,32814,1,0,0:0:0:0:
256,192,33100,1,8,0:0:0:0:
256,192,33386,1,0,0:0:0:0:
256,192,33529,1,0,0:0:0:0:
256,192,33814,1,8,0:0:0:0:
256,192,34529,1,0,0:0:0:0:
256,192,34814,1,8,0:0:0:0:
256,192,34957,1,8,0:0:0:0:
256,192,35386,1,0,0:0:0:0:
256,192,35672,1,8,0:0:0:0:
256,192,35814,1,8,0:0:0:0:
256,192,35957,1,8,0:0:0:0:
256,192,36814,1,0,0:0:0:0:
256,192,37100,1,0,0:0:0:0:
256,192,37386,1,0,0:0:0:0:
256,192,37814,1,8,0:0:0:0:
256,192,37957,1,8,0:0:0:0:
256,192,38243,1,8,0:0:0:0:
256,192,38814,1,8,0:0:0:0:
256,192,39386,1,0,0:0:0:0:
256,192,39672,1,8,0:0:0:0:
256,192,39957,1,0,0:0:0:0:
256,192,40100,1,0,0:0:0:0:
256,192,40529,1,8,0:0:0:0:
256,192,41100,1,8,0:0:0:0:
256,192,41957,1,0,0:0:0:0:
256,192,42243,1,8,0:0:0:0:
256,192,42529,1,0,0:0:0:0:
256,192,42672,1,0,0:0:0:0:
256,192,42957,1,8,0:0:0:0:
256,192,43672,1,0,0:0:0:0:
256,192,43957,1,8,0:0:0:0:
256,192,44100,1,8,0:0:0:0:
256,192,44529,1,0,0:0:0:0:
256,192,44814,1,8,0:0:0:0:
256,192,44957,1,8,0:0:0:0:
256,192,45100,1,8,0:0:0:0:
256,192,46529,1,8,0:0:0:0:
256,192,46814,1,0,0:0:0:0:
256,192,47100,1,0,0:0:0:0:
256,192,47243,1,0,0:0:0:0:
256,192,47529,1,8,0:0:0:0:
256,192,48243,1,0,0:0:0:0:
256,192,48529,1,8,0:0:0:0:
256,192,48672,1,8,0:0:0:0:
256,192,50243,1,8,0:0:0:0:
256,192,50529,1,8,0:0:0:0:
256,192,50672,1,8,0:0:0:0:
256,192,50814,1,8,0:0:0:0:
256,192,51100,1,0,0:0:0:0:
256,192,51529,1,8,0:0:0:0:
256,192,51957,1,8,0:0:0:0:
256,192,52243,1,0,0:0:0:0:
256,192,52672,1,0,0:0:0:0:
256,192,53100,1,0,0:0:0:0:
256,192,53386,1,0,0:0:0:0:
256,192,53814,1,8,0:0:0:0:
256,192,54243,1,0,0:0:0:0:
256,192,54529,1,0,0:0:0:0:
256,192,54957,1,0,0:0:0:0:
256,192,55386,1,8,0:0:0:0:
256,192,55672,1,0,0:0:0:0:
256,192,56100,1,8,0:0:0:0:
256,192,56529,1,8,0:0:0:0:
256,192,56814,1,0,0:0:0:0:
256,192,57243,1,0,0:0:0:0:
256,192,57672,1,0,0:0:0:0:
256,192,57957,1,0,0:0:0:0:
256,192,58386,1,8,0:0:0:0:
256,192,58814,1,0,0:0:0:0:
256,192,59100,1,0,0:0:0:0:
256,192,59529,1,0,0:0:0:0:
256,192,59957,1,8,0:0:0:0:
256,192,60243,1,0,0:0:0:0:
256,192,60814,1,8,0:0:0:0:
256,192,61100,1,8,0:0:0:0:
256,192,61386,1,8,0:0:0:0:
256,192,61957,1,0,0:0:0:0:
256,192,62243,1,8,0:0:0:0:
256,192,62529,1,0,0:0:0:0:
256,192,62814,1,0,0:0:0:0:
256,192,62957,1,0,0:0:0:0:
256,192,63100,1,0,0:0:0:0:
256,192,63386,1,8,0:0:0:0:
256,192,63672,1,0,0:0:0:0:
256,192,63957,1,8,0:0:0:0:
256,192,64243,1,0,0:0:0:0:
256,192,64529,1,8,0:0:0:0:
256,192,64814,1,0,0:0:0:0:
256,192,65100,1,0,0:0:0:0:
256,192,65386,1,8,0:0:0:0:
256,192,65672,1,0,0:0:0:0:
256,192,65814,1,0,0:0:0:0:
256,192,65957,1,0,0:0:0:0:
256,192,66243,1,8,0:0:0:0:
256,192,66386,1,8,0:0:0:0:
256,192,66529,1,8,0:0:0:0:
256,192,66814,1,8,0:0:0:0:
256,192,67100,1,0,0:0:0:0:
256,192,67672,1,8,0:0:0:0:
256,192,67957,1,0,0:0:0:0:
256,192,68100,1,8,0:0:0:0:
256,192,68386,1,0,0:0:0:0:
256,192,68529,1,8,0:0:0:0:
256,192,68814,1,8,0:0:0:0:
256,192,69100,1,8,0:0:0:0:
256,192,69386,1,0,0:0:0:0:
256,192,69957,1,8,0:0:0:0:
256,192,70243,1,0,0:0:0:0:
256,192,70529,1,8,0:0:0:0:
256,192,71100,1,0,0:0:0:0:
256,192,71386,1,0,0:0:0:0:
256,192,71672,1,8,0:0:0:0:
256,192,71957,1,8,0:0:0:0:
256,192,72100,1,8,0:0:0:0:
256,192,72243,1,8,0:0:0:0:
256,192,72529,1,8,0:0:0:0:
256,192,72814,1,8,0:0:0:0:
256,192,73100,1,0,0:0:0:0:
256,192,73386,1,0,0:0:0:0:
256,192,73672,1,8,0:0:0:0:
256,192,73957,1,0,0:0:0:0:
256,192,74243,1,0,0:0:0:0:
256,192,74529,1,8,0:0:0:0:
256,192,74814,1,8,0:0:0:0:
256,192,74957,1,8,0:0:0:0:
256,192,75100,1,8,0:0:0:0:
256,192,75386,1,0,0:0:0:0:
256,192,75529,1,0,0:0:0:0:
256,192,75672,1,0,0:0:0:0:
256,192,75957,1,8,0:0:0:0:
256,192,76243,1,0,0:0:0:0:
256,192,76814,1,8,0:0:0:0:
256,192,77100,1,0,0:0:0:0:
256,192,77243,1,8,0:0:0:0:
256,192,77529,1,8,0:0:0:0:
256,192,77672,1,8,0:0:0:0:
256,192,77957,1,8,0:0:0:0:
256,192,78243,1,0,0:0:0:0:
256,192,78386,1,0,0:0:0:0:
256,192,78529,1,0,0:0:0:0:
256,192,78814,1,0,0:0:0:0:
256,192,78957,1,8,0:0:0:0:
256,192,79386,1,8,0:0:0:0:
256,192,79672,1,0,0:0:0:0:
256,192,79957,1,8,0:0:0:0:
256,192,80529,1,0,0:0:0:0:
256,192,80814,1,8,0:0:0:0:
256,192,81100,1,8,0:0:0:0:
256,192,81243,1,0,0:0:0:0:
256,192,81672,1,8,0:0:0:0:
256,192,81957,1,0,0:0:0:0:
256,192,82243,1,8,0:0:0:0:
256,192,83100,1,0,0:0:0:0:
256,192,83386,1,8,0:0:0:0:
256,192,83672,1,0,0:0:0:0:
256,192,83814,1,0,0:0:0:0:
256,192,84100,1,8,0:0:0:0:
256,192,84814,1,8,0:0:0:0:
256,192,85100,1,0,0:0:0:0:
256,192,85243,1,8,0:0:0:0:
256,192,85672,1,0,0:0:0:0:
256,192,85957,1,8,0:0:0:0:
256,192,86100,1,8,0:0:0:0:
256,192,86243,1,8,0:0:0:0:
256,192,86529,1,0,0:0:0:0:
256,192,86814,1,0,0:0:0:0:
256,192,86957,1,8,0:0:0:0:
256,192,87386,1,0,0:0:0:0:
256,192,87529,1,0,0:0:0:0:
256,192,87672,1,0,0:0:0:0:
256,192,87957,1,8,0:0:0:0:
256,192,88100,1,0,0:0:0:0:
256,192,88529,1,8,0:0:0:0:
256,192,88814,1,0,0:0:0:0:
256,192,89100,1,8,0:0:0:0:
256,192,89672,1,0,0:0:0:0:
256,192,89957,1,8,0:0:0:0:
256,192,90243,1,0,0:0:0:0:
256,192,90386,1,0,0:0:0:0:
256,192,90814,1,8,0:0:0:0:
256,192,91100,1,0,0:0:0:0:
256,192,91386,1,8,0:0:0:0:
256,192,92243,1,0,0:0:0:0:
256,192,92529,1,8,0:0:0:0:
256,192,92814,1,0,0:0:0:0:
256,192,92957,1,0,0:0:0:0:
256,192,93243,1,8,0:0:0:0:
256,192,93957,1,0,0:0:0:0:
256,192,94243,1,0,0:0:0:0:
256,192,94386,1,8,0:0:0:0:
256,192,94814,1,0,0:0:0:0:
256,192,95100,1,8,0:0:0:0:
256,192,95243,1,8,0:0:0:0:
256,192,95386,1,8,0:0:0:0:
256,192,95672,1,8,0:0:0:0:
256,192,95957,1,0,0:0:0:0:
256,192,96100,1,8,0:0:0:0:
256,192,96386,1,8,0:0:0:0:
256,192,96529,1,0,0:0:0:0:
256,192,96814,1,8,0:0:0:0:
256,192,97386,1,8,0:0:0:0:
256,192,97672,1,8,0:0:0:0:
256,192,97814,1,0,0:0:0:0:
256,192,98100,1,8,0:0:0:0:
256,192,98386,1,0,0:0:0:0:
256,192,98529,1,8,0:0:0:0:
256,192,98814,1,0,0:0:0:0:
256,192,99100,1,8,0:0:0:0:
256,192,99672,1,8,0:0:0:0:
256,192,99957,1,8,0:0:0:0:
256,192,100100,1,0,0:0:0:0:
256,192,100386,1,0,0:0:0:0:
256,192,100529,1,8,0:0:0:0:
256,192,100814,1,0,0:0:0:0:
256,192,101100,1,8,0:0:0:0:
256,192,101386,1,8,0:0:0:0:
256,192,101957,1,0,0:0:0:0:
256,192,102243,1,0,0:0:0:0:
256,192,102386,1,0,0:0:0:0:
256,192,102672,1,8,0:0:0:0:
256,192,102957,1,0,0:0:0:0:
256,192,103100,1,8,0:0:0:0:
256,192,103386,1,0,0:0:0:0:
256,192,103672,1,8,0:0:0:0:
256,192,104243,1,8,0:0:0:0:
256,192,104529,1,0,0:0:0:0:
256,192,104672,1,8,0:0:0:0:
256,192,104957,1,8,0:0:0:0:
256,192,105100,1,0,0:0:0:0:
256,192,105386,1,8,0:0:0:0:
256,192,105672,1,8,0:0:0:0:
256,192,105957,1,0,0:0:0:0:
256,192,106529,1,0,0:0:0:0:
256,192,106814,1,0,0:0:0:0:
256,192,106957,1,8,0:0:0:0:
256,192,107243,1,8,0:0:0:0:
256,192,107529,1,0,0:0:0:0:
256,192,107672,1,8,0:0:0:0:
256,192,107957,1,0,0:0:0:0:
256,192,108243,1,0,0:0:0:0:
256,192,108529,1,8,0:0:0:0:
256,192,108814,1,0,0:0:0:0:
256,192,108957,1,8,0:0:0:0:
256,192,109243,1,8,0:0:0:0:
256,192,109529,1,8,0:0:0:0:
256,192,109814,1,0,0:0:0:0:
256,192,110100,1,0,0:0:0:0:
256,192,110243,1,0,0:0:0:0:
256,192,110529,1,8,0:0:0:0:
256,192,110957,1,8,0:0:0:0:
256,192,111386,1,8,0:0:0:0:
256,192,111814,1,0,0:0:0:0:
256,192,112100,1,0,0:0:0:0:
256,192,112386,1,0,0:0:0:0:
256,192,112529,1,8,0:0:0:0:
256,192,112814,1,8,0:0:0:0:
256,192,113243,1,8,0:0:0:0:
256,192,113672,1,0,0:0:0:0:
256,192,114243,1,8,0:0:0:0:
256,192,115671,1,0,0:0:0:0:
256,192,115962,1,0,0:0:0:0:
256,192,116248,1,8,0:0:0:0:
256,192,116534,1,8,0:0:0:0:
256,192,116819,1,8,0:0:0:0:
256,192,117677,1,8,0:0:0:0:
256,192,117962,1,8,0:0:0:0:
256,192,118248,1,0,0:0:0:0:
256,192,118391,1,0,0:0:0:0:
256,192,118534,1,0,0:0:0:0:
256,192,118819,1,8,0:0:0:0:
256,192,119105,1,0,0:0:0:0:
256,192,119677,1,8,0:0:0:0:
256,192,119962,1,8,0:0:0:0:
256,192,120248,1,0,0:0:0:0:
256,192,120534,1,0,0:0:0:0:
256,192,120819,1,8,0:0:0:0:
256,192,121105,1,0,0:0:0:0:
256,192,121391,1,8,0:0:0:0:
256,192,121677,1,0,0:0:0:0:
256,192,121962,1,0,0:0:0:0:
256,192,122248,1,0,0:0:0:0:
256,192,122534,1,8,0:0:0:0:
256,192,122819,1,0,0:0:0:0:
256,192,123105,1,0,0:0:0:0:
256,192,123296,1,8,0:0:0:0:
256,192,123677,1,8,0:0:0:0:
256,192,124819,1,0,0:0:0:0:
256,192,125105,1,0,0:0:0:0:
256,192,125391,1,8,0:0:0:0:
256,192,125677,1,8,0:0:0:0:
256,192,125962,1,0,0:0:0:0:
256,192,126819,1,0,0:0:0:0:
256,192,127105,1,0,0:0:0:0:
256,192,127391,1,8,0:0:0:0:
256,192,127534,1,8,0:0:0:0:
256,192,127676,1,8,0:0:0:0:
256,192,127962,1,8,0:0:0:0:
256,192,128248,1,0,0:0:0:0:
256,192,128819,1,0,0:0:0:0:
256,192,129105,1,0,0:0:0:0:
256,192,129391,1,8,0:0:0:0:
256,192,129676,1,0,0:0:0:0:
256,192,129962,1,8,0:0:0:0:
256,192,130248,1,0,0:0:0:0:
256,192,130534,1,8,0:0:0:0:
256,192,130819,1,0,0:0:0:0:
256,192,131105,1,8,0:0:0:0:
256,192,131677,1,8,0:0:0:0:
256,192,131962,1,8,0:0:0:0:
256,192,132248,1,0,0:0:0:0:
256,192,132534,1,0,0:0:0:0:
256,192,132819,1,8,0:0:0:0:
256,192,133105,1,8,0:0:0:0:
256,192,133391,1,0,0:0:0:0:
256,192,133962,1,0,0:0:0:0:
256,192,134248,1,8,0:0:0:0:
256,192,134819,1,8,0:0:0:0:
256,192,135105,1,0,0:0:0:0:
256,192,135391,1,8,0:0:0:0:
256,192,135962,1,8,0:0:0:0:
256,192,136248,1,0,0:0:0:0:
256,192,136391,1,0,0:0:0:0:
256,192,136534,1,0,0:0:0:0:
256,192,136819,1,8,0:0:0:0:
256,192,136962,1,8,0:0:0:0:
256,192,137105,1,8,0:0:0:0:
256,192,137391,1,8,0:0:0:0:
256,192,137676,1,0,0:0:0:0:
256,192,137962,1,8,0:0:0:0:
256,192,138248,1,0,0:0:0:0:
256,192,138391,1,0,0:0:0:0:
256,192,138534,1,0,0:0:0:0:
256,192,138819,1,0,0:0:0:0:
256,192,138962,1,8,0:0:0:0:
256,192,139391,1,8,0:0:0:0:
256,192,139676,1,0,0:0:0:0:
256,192,139962,1,8,0:0:0:0:
256,192,140534,1,0,0:0:0:0:
256,192,140819,1,8,0:0:0:0:
256,192,141105,1,8,0:0:0:0:
256,192,141248,1,0,0:0:0:0:
256,192,141676,1,8,0:0:0:0:
256,192,141962,1,0,0:0:0:0:
256,192,142248,1,8,0:0:0:0:
256,192,143105,1,0,0:0:0:0:
256,192,143391,1,8,0:0:0:0:
256,192,143676,1,0,0:0:0:0:
256,192,143819,1,0,0:0:0:0:
256,192,144105,1,8,0:0:0:0:
256,192,144819,1,8,0:0:0:0:
256,192,145105,1,0,0:0:0:0:
256,192,145248,1,8,0:0:0:0:
256,192,145676,1,0,0:0:0:0:
256,192,145962,1,8,0:0:0:0:
256,192,146105,1,8,0:0:0:0:
256,192,146248,1,8,0:0:0:0:
256,192,146534,1,0,0:0:0:0:
256,192,146819,1,0,0:0:0:0:
256,192,146962,1,8,0:0:0:0:
256,192,147391,1,0,0:0:0:0:
256,192,147534,1,0,0:0:0:0:
256,192,147676,1,0,0:0:0:0:
256,192,147962,1,8,0:0:0:0:
256,192,148105,1,0,0:0:0:0:
256,192,148534,1,8,0:0:0:0:
256,192,148819,1,0,0:0:0:0:
256,192,149105,1,8,0:0:0:0:
256,192,149676,1,0,0:0:0:0:
256,192,149962,1,8,0:0:0:0:
256,192,150248,1,0,0:0:0:0:
256,192,150391,1,0,0:0:0:0:
256,192,150819,1,8,0:0:0:0:
256,192,151105,1,0,0:0:0:0:
256,192,151391,1,8,0:0:0:0:
256,192,152248,1,0,0:0:0:0:
256,192,152534,1,8,0:0:0:0:
256,192,152819,1,0,0:0:0:0:
256,192,152962,1,0,0:0:0:0:
256,192,153248,1,8,0:0:0:0:
256,192,153962,1,0,0:0:0:0:
256,192,154248,1,0,0:0:0:0:
256,192,154391,1,8,0:0:0:0:
256,192,154819,1,0,0:0:0:0:
256,192,155105,1,8,0:0:0:0:
256,192,155248,1,8,0:0:0:0:
256,192,155391,1,8,0:0:0:0:
256,192,156248,1,0,0:0:0:0:
256,192,156534,1,0,0:0:0:0:
256,192,156676,1,8,0:0:0:0:
256,192,157105,1,0,0:0:0:0:
256,192,157391,1,8,0:0:0:0:
256,192,157534,1,8,0:0:0:0:
256,192,157676,1,8,0:0:0:0:
256,192,158248,1,8,0:0:0:0:
256,192,158819,1,8,0:0:0:0:
256,192,159105,1,0,0:0:0:0:
256,192,159391,1,0,0:0:0:0:
256,192,159534,1,8,0:0:0:0:
256,192,159819,1,8,0:0:0:0:
256,192,159962,1,0,0:0:0:0:
256,192,160534,1,8,0:0:0:0:
256,192,161391,1,8,0:0:0:0:
256,192,161676,1,0,0:0:0:0:
256,192,161962,1,8,0:0:0:0:
256,192,162248,1,0,0:0:0:0:
256,192,162819,1,8,0:0:0:0:
256,192,163391,1,0,0:0:0:0:
256,192,164819,1,0,0:0:0:0:
256,192,165105,1,0,0:0:0:0:
256,192,165391,1,8,0:0:0:0:
256,192,165676,1,0,0:0:0:0:
256,192,165819,1,0,0:0:0:0:
256,192,165962,1,0,0:0:0:0:
256,192,166391,1,8,0:0:0:0:
256,192,166819,1,8,0:0:0:0:
256,192,167105,1,0,0:0:0:0:
256,192,167534,1,0,0:0:0:0:
256,192,167962,1,0,0:0:0:0:
256,192,168248,1,0,0:0:0:0:
256,192,168676,1,8,0:0:0:0:
256,192,169105,1,0,0:0:0:0:
256,192,169391,1,0,0:0:0:0:
256,192,169819,1,0,0:0:0:0:
256,192,170248,1,8,0:0:0:0:
256,192,170534,1,0,0:0:0:0:
256,192,171105,1,8,0:0:0:0:
256,192,171391,1,8,0:0:0:0:
256,192,171676,1,8,0:0:0:0:
256,192,172534,1,0,0:0:0:0:
256,192,172676,1,0,0:0:0:0:
256,192,172819,1,0,0:0:0:0:
256,192,173105,1,8,0:0:0:0:
256,192,173248,1,8,0:0:0:0:
256,192,173391,1,8,0:0:0:0:
256,192,173676,1,0,0:0:0:0:
256,192,173962,1,8,0:0:0:0:
256,192,174676,1,8,0:0:0:0:
256,192,175105,1,0,0:0:0:0:
256,192,175962,5,0,0:0:0:0:
256,192,176192,1,0,0:0:0:0:
256,192,176308,1,0,0:0:0:0:
256,192,176423,1,0,0:0:0:0:
256,192,176538,1,8,0:0:0:0:
