osu file format v14

[General]
AudioFilename: audio.mp3
AudioLeadIn: 0
PreviewTime: 46034
Countdown: 0
SampleSet: Soft
StackLeniency: 0.5
Mode: 0
LetterboxInBreaks: 0
WidescreenStoryboard: 0

[Editor]
DistanceSpacing: 1.2
BeatDivisor: 3
GridSize: 4
TimelineZoom: 1.9

[Metadata]
Title:Your Reality
TitleUnicode:Your Reality
Artist:Dan Salvato
ArtistUnicode:Dan Salvato
Creator:Nozhomi
Version:Just You
Source:Doki Doki Literature Club!
Tags:DDLC just monika ed end credit Jillian Ashcraft Visual Novel pachiru shurelia gero
BeatmapID:1506887
BeatmapSetID:712959

[Difficulty]
HPDrainRate:5.8
CircleSize:4.6
OverallDifficulty:7.2
ApproachRate:8
SliderMultiplier:1.8
SliderTickRate:1

[Events]
//Background and Video events
0,0,"08.png",0,0
//Break Periods
//Storyboard Layer 0 (Background)
//Storyboard Layer 1 (Fail)
//Storyboard Layer 2 (Pass)
//Storyboard Layer 3 (Foreground)
//Storyboard Sound Samples

[TimingPoints]
34,571.428571428571,4,2,1,50,1,0
320,571.428571428571,4,2,1,40,1,0
1677,-100,4,2,1,10,0,0
1891,-100,4,2,1,40,0,0
3105,-100,4,2,1,10,0,0
3319,-100,4,2,1,40,0,0
3962,-100,4,2,1,10,0,0
4177,-100,4,2,1,40,0,0
6248,-100,4,2,1,10,0,0
6462,-100,4,2,1,40,0,0
7677,-100,4,2,1,10,0,0
7891,-100,4,2,1,40,0,0
9034,-100,4,2,1,10,0,0
9462,-100,4,2,1,40,0,0
45605,-100,4,2,1,10,0,0
46034,-133.333333333333,4,2,1,30,0,0
47319,-133.333333333333,4,2,1,5,0,0
47605,-133.333333333333,4,2,1,30,0,0
49319,-133.333333333333,4,2,1,5,0,0
49605,-133.333333333333,4,2,1,30,0,0
50605,-100,4,2,1,40,0,0
59748,-100,4,2,1,50,0,0
78034,-100,4,2,1,60,0,1
96319,-100,4,2,1,50,0,0
114748,-100,4,2,1,5,0,0
115177,571.428571428571,4,2,1,40,1,0
116748,-100,4,2,1,5,0,0
117034,-100,4,2,1,40,0,0
133462,-100,4,2,1,50,0,0
138034,-100,4,2,1,60,0,1
156319,-100,4,2,1,50,0,0
163319,-100,4,2,1,30,0,0
163605,-100,4,2,1,5,0,0
163891,-100,4,2,1,50,0,0
175462,461.538461538462,4,2,1,30,1,0
178115,-100,4,2,1,5,0,0

[Colours]
Combo1 : 185,117,117
Combo2 : 241,158,178
Combo3 : 210,143,141
Combo4 : 112,83,117

[HitObjects]
440,324,34,6,0,L|444:288,3,22.5,2|0|0|0,0:0|0:0|0:0|0:0,0:0:0:0:
424,236,319,5,2,0:0:0:0:
424,236,891,1,2,0:0:0:0:
366,144,1177,1,0,0:0:0:0:
308,236,1462,2,0,P|268:272|224:280,1,90,2|0,0:0|0:0,0:0:0:0:
124,284,2034,1,2,0:0:0:0:
68,192,2319,1,0,0:0:0:0:
142,113,2605,2,0,P|230:104|308:148,1,180,2|0,0:0|0:0,0:0:0:0:
380,264,3462,2,0,L|372:84,1,180,2|0,0:0|0:0,0:0:0:0:
452,156,4319,1,2,0:0:0:0:
452,156,4462,1,0,0:0:0:0:
452,156,4605,1,2,0:0:0:0:
312,220,4891,5,2,0:0:0:0:
312,220,5462,1,0,0:0:0:0:
420,224,5748,2,0,P|424:300|332:344,1,180,2|0,0:0|0:0,0:0:0:0:
256,280,6605,1,2,0:0:0:0:
256,148,6891,1,0,0:0:0:0:
163,207,7177,6,0,P|151:115|201:52,1,180,2|0,0:0|0:0,0:0:0:0:
360,104,8034,2,0,P|492:111|380:39,1,360,2|0,0:0|0:0,0:0:0:0:
256,172,9462,5,2,0:0:0:0:
256,172,10034,2,0,P|208:160|164:168,1,90,2|0,0:0|0:0,0:0:0:0:
92,244,10605,2,0,P|104:172|64:60,1,180,2|2,0:0|0:0,0:0:0:0:
4,156,11462,1,2,0:0:0:0:
4,156,11605,1,0,0:0:0:0:
4,156,11748,6,0,L|8:248,1,90,2|0,0:0|0:0,0:0:0:0:
96,248,12177,1,0,0:0:0:0:
96,248,12320,2,0,L|100:340,1,90,2|0,0:0|0:0,0:0:0:0:
196,288,12891,1,2,0:0:0:0:
196,288,13462,1,2,0:0:0:0:
256,196,13748,1,0,0:0:0:0:
195,95,14034,6,0,P|191:52|212:12,1,90,2|0,0:0|0:0,0:0:0:0:
300,72,14605,1,2,0:0:0:0:
184,172,14891,1,2,0:0:0:0:
159,170,15034,1,0,0:0:0:0:
135,168,15177,1,2,0:0:0:0:
256,196,15462,1,2,0:0:0:0:
280,194,15605,1,0,0:0:0:0:
304,192,15748,1,2,0:0:0:0:
192,256,16034,1,2,0:0:0:0:
195,95,16319,5,0,0:0:0:0:
195,95,16891,1,2,0:0:0:0:
324,136,17177,2,0,L|372:132,1,45,2|0,0:0|0:0,0:0:0:0:
424,84,17462,1,0,0:0:0:0:
440,92,17605,2,0,L|488:88,1,45,2|0,0:0|0:0,0:0:0:0:
444,188,18034,1,2,0:0:0:0:
356,64,18319,1,0,0:0:0:0:
256,216,18605,5,2,0:0:0:0:
256,216,19177,1,2,0:0:0:0:
192,300,19462,1,0,0:0:0:0:
319,300,19748,2,0,P|360:229|324:135,1,180,2|2,0:0|0:0,0:0:0:0:
248,44,20605,1,2,0:0:0:0:
248,44,20748,1,0,0:0:0:0:
248,44,20891,6,0,P|296:56|352:48,1,90,2|0,0:0|0:0,0:0:0:0:
412,36,21319,1,0,0:0:0:0:
412,36,21462,2,0,P|460:24|516:32,1,90,2|0,0:0|0:0,0:0:0:0:
388,116,22034,2,0,P|376:159|351:196,1,90,2|0,0:0|0:0,0:0:0:0:
264,260,22605,1,2,0:0:0:0:
156,260,22891,1,0,0:0:0:0:
68,196,23177,6,0,P|43:158|31:115,1,90,2|0,0:0|0:0,0:0:0:0:
96,28,23748,1,2,0:0:0:0:
152,136,24034,1,2,0:0:0:0:
148,160,24177,1,0,0:0:0:0:
144,184,24319,1,2,0:0:0:0:
216,68,24605,1,2,0:0:0:0:
212,44,24748,1,0,0:0:0:0:
208,20,24891,1,2,0:0:0:0:
244,156,25177,1,2,0:0:0:0:
128,52,25462,5,0,0:0:0:0:
128,52,26034,1,2,0:0:0:0:
64,140,26319,2,0,L|65:184,1,45,2|0,0:0|0:0,0:0:0:0:
100,264,26605,1,0,0:0:0:0:
108,280,26748,2,0,L|106:324,1,45,2|0,0:0|0:0,0:0:0:0:
160,192,27177,1,2,0:0:0:0:
64,140,27462,2,0,L|63:115,3,22.5,2|0|0|0,0:0|0:0|0:0|0:0,0:0:0:0:
96,60,27748,6,0,P|145:35|200:44,1,112.5,2|0,0:0|0:0,0:0:0:0:
276,72,28319,1,2,0:0:0:0:
312,172,28605,2,0,B|308:304|308:304|352:272,1,180,2|2,0:0|0:0,0:0:0:0:
432,208,29462,1,0,0:0:0:0:
312,172,29748,1,0,0:0:0:0:
416,276,30034,6,0,P|461:272|492:241,1,90,2|0,0:0|0:0,0:0:0:0:
432,208,30462,2,0,P|447:165|433:124,1,90,2|0,0:0|0:0,0:0:0:0:
376,164,30891,2,0,P|283:127|200:156,1,180,2|2,0:0|0:0,0:0:0:0:
144,236,31748,2,0,P|144:258|138:280,2,45,2|0|2,0:0|0:0|0:0,0:0:0:0:
100,136,32319,6,0,P|87:93|100:50,1,90,2|2,0:0|0:0,0:0:0:0:
146,191,32891,2,0,L|143:235,1,45,2|0,0:0|0:0,0:0:0:0:
68,342,33319,2,0,L|72:208,1,135,2|0,0:0|0:0,0:0:0:0:
144,308,34034,1,2,0:0:0:0:
4,256,34319,2,0,L|6:211,1,45,2|0,0:0|0:0,0:0:0:0:
40,140,34605,6,0,P|48:104|36:52,1,90,2|0,0:0|0:0,0:0:0:0:
79,215,35177,1,2,0:0:0:0:
79,215,35319,1,0,0:0:0:0:
79,215,35462,2,0,P|165:233|248:201,1,180,2|0,0:0|0:0,0:0:0:0:
332,133,36319,1,2,0:0:0:0:
249,64,36605,1,0,0:0:0:0:
324,208,36891,6,0,L|480:204,1,135,2|0,0:0|0:0,0:0:0:0:
444,276,37462,2,0,L|354:278,1,90,2|0,0:0|0:0,0:0:0:0:
296,140,38034,1,0,0:0:0:0:
188,220,38319,2,0,P|140:232|80:212,1,90,2|0,0:0|0:0,0:0:0:0:
28,144,38891,1,2,0:0:0:0:
40,268,39177,6,0,L|36:360,1,90,2|0,0:0|0:0,0:0:0:0:
108,340,39605,2,0,L|109:295,1,45,2|0,0:0|0:0,0:0:0:0:
114,99,40034,2,0,P|99:176|28:144,1,180,2|2,0:0|0:0,0:0:0:0:
100,32,40891,2,0,L|143:36,2,45,2|0|2,0:0|0:0|0:0,0:0:0:0:
256,48,41462,5,2,0:0:0:0:
192,136,41748,1,2,0:0:0:0:
299,147,42034,2,0,P|322:146|343:139,1,45,2|0,0:0|0:0,0:0:0:0:
464,47,42462,2,0,P|441:111|450:177,1,135,2|0,0:0|0:0,0:0:0:0:
504,292,43177,1,2,0:0:0:0:
380,240,43462,2,0,L|304:244,1,45,2|0,0:0|0:0,0:0:0:0:
316,312,43748,6,0,L|405:307,1,90,2|0,0:0|0:0,0:0:0:0:
268,248,44319,2,0,L|192:252,1,45,2|0,0:0|0:0,0:0:0:0:
170,192,44605,2,0,P|289:96|335:242,1,360,2|0,0:0|0:0,0:0:0:0:
244,320,46034,5,0,0:0:0:0:
335,242,46319,1,2,0:0:0:0:
396,344,46606,2,0,L|396:380,1,33.7500012874604,2|0,0:0|0:0,0:0:0:0:
260,252,47034,2,0,P|211:239|162:251,1,101.250003862381,2|0,0:0|0:0,0:0:0:0:
92,348,47748,1,2,0:0:0:0:
100,204,48034,2,0,L|99:170,1,33.7500012874604,2|0,0:0|0:0,0:0:0:0:
141,100,48320,6,0,P|242:163|162:252,1,270.000010299683,2|0,0:0|0:0,0:0:0:0:
28,256,49748,1,2,0:0:0:0:
140,344,50034,1,2,0:0:0:0:
140,344,50177,1,0,0:0:0:0:
140,344,50319,2,0,L|192:340,1,33.7500012874604,2|2,0:0|0:0,0:0:0:0:
256,300,50605,5,2,0:0:0:0:
380,216,50891,2,0,L|376:136,1,45,0|2,0:0|0:0,0:0:0:0:
368,32,51319,2,0,L|370:76,1,45,0|2,0:0|0:0,0:0:0:0:
380,216,51748,1,2,0:0:0:0:
244,116,52034,2,0,L|248:196,1,45,0|2,0:0|0:0,0:0:0:0:
256,300,52462,2,0,L|253:255,1,45,0|2,0:0|0:0,0:0:0:0:
244,116,52891,5,2,0:0:0:0:
108,248,53177,1,0,0:0:0:0:
107,247,53319,2,0,P|76:212|72:168,1,90,2|0,0:0|0:0,0:0:0:0:
104,100,53748,1,2,0:0:0:0:
244,116,54034,1,2,0:0:0:0:
176,288,54319,1,0,0:0:0:0:
175,288,54462,2,0,P|144:318|100:326,1,90,2|0,0:0|0:0,0:0:0:0:
28,296,54891,1,2,0:0:0:0:
144,184,55177,5,2,0:0:0:0:
264,280,55462,2,0,P|286:283|308:280,1,45,0|2,0:0|0:0,0:0:0:0:
396,166,55891,2,0,P|382:184|373:204,1,45,0|2,0:0|0:0,0:0:0:0:
424,324,56319,1,2,0:0:0:0:
468,180,56605,2,0,P|468:151|449:113,1,45,0|2,0:0|0:0,0:0:0:0:
416,4,57034,2,0,P|416:33|435:71,1,45,0|2,0:0|0:0,0:0:0:0:
468,180,57462,5,2,0:0:0:0:
348,96,57747,1,0,0:0:0:0:
347,95,57891,2,0,P|303:93|263:112,1,90,2|0,0:0|0:0,0:0:0:0:
216,168,58319,1,2,0:0:0:0:
216,276,58605,1,2,0:0:0:0:
170,113,58891,1,0,0:0:0:0:
170,113,59034,2,0,P|129:94|85:96,1,90,2|0,0:0|0:0,0:0:0:0:
24,136,59462,1,2,0:0:0:0:
160,224,59748,5,2,0:0:0:0:
263,112,60034,2,0,L|260:60,1,45
212,16,60319,1,2,0:0:0:0:
332,88,60605,1,2,0:0:0:0:
208,152,60891,1,2,0:0:0:0:
272,240,61177,2,0,L|276:312,1,45
344,304,61462,2,0,L|340:214,1,90,2|2,0:0|0:0,0:0:0:0:
388,160,61891,1,0,0:0:0:0:
388,160,62034,6,0,P|436:196|448:252,1,90,2|2,0:0|0:0,0:0:0:0:
396,358,62462,1,0,0:0:0:0:
396,358,62605,2,0,P|434:335|456:296,1,90,2|0,0:0|0:0,0:0:0:0:
270,195,63177,2,0,L|274:285,1,90,2|0,0:0|0:0,0:0:0:0:
155,245,63748,1,2,0:0:0:0:
270,195,64034,1,2,0:0:0:0:
184,332,64319,6,0,P|132:335|88:308,1,90,2|0,0:0|0:0,0:0:0:0:
160,208,64891,1,2,0:0:0:0:
36,144,65177,1,2,0:0:0:0:
33,120,65319,1,0,0:0:0:0:
31,96,65462,1,2,0:0:0:0:
57,236,65748,1,2,0:0:0:0:
54,260,65890,1,0,0:0:0:0:
52,284,66033,1,2,0:0:0:0:
186,156,66319,1,2,0:0:0:0:
284,236,66605,6,0,P|328:252|376:248,1,90
468,172,67177,1,2,0:0:0:0:
408,60,67462,1,2,0:0:0:0:
400,48,67605,1,0,0:0:0:0:
312,140,67891,1,2,0:0:0:0:
297,137,68034,1,0,0:0:0:0:
371,250,68319,2,0,P|380:284|383:314,2,45,2|0|2,0:0|0:0|0:0,0:0:0:0:
280,132,68891,5,2,0:0:0:0:
204,264,69177,2,0,P|200:288|208:327,1,45
240,368,69462,1,2,0:0:0:0:
308,224,69748,1,2,0:0:0:0:
202,309,70034,1,2,0:0:0:0:
308,360,70319,2,0,P|302:338|289:320,1,45
202,308,70605,2,0,L|74:320,1,90,2|2,0:0|0:0,0:0:0:0:
248,248,71034,1,0,0:0:0:0:
248,248,71177,6,0,L|337:239,1,90,2|2,0:0|0:0,0:0:0:0:
208,188,71605,1,0,0:0:0:0:
208,188,71748,2,0,L|119:197,1,90,2|0,0:0|0:0,0:0:0:0:
280,172,72320,2,0,P|291:128|277:86,1,90,2|0,0:0|0:0,0:0:0:0:
180,8,72891,1,2,0:0:0:0:
124,120,73177,1,2,0:0:0:0:
280,172,73462,6,0,P|324:180|384:160,1,90,2|0,0:0|0:0,0:0:0:0:
476,104,74034,1,2,0:0:0:0:
416,256,74320,1,2,0:0:0:0:
420,280,74462,1,0,0:0:0:0:
424,304,74605,1,2,0:0:0:0:
371,193,74891,1,2,0:0:0:0:
367,169,75033,1,0,0:0:0:0:
363,145,75176,1,2,0:0:0:0:
424,304,75462,1,2,0:0:0:0:
311,231,75748,6,0,P|270:216|225:219,1,90
108,268,76320,1,2,0:0:0:0:
248,336,76605,1,2,0:0:0:0:
244,312,76748,1,0,0:0:0:0:
108,268,77034,1,2,0:0:0:0:
122,248,77177,1,0,0:0:0:0:
28,140,77462,1,2,0:0:0:0:
96,24,77748,2,0,L|120:20,3,22.5,2|0|0|0,0:0|0:0|0:0|0:0,0:0:0:0:
184,44,78034,5,2,0:0:0:0:
140,160,78319,2,0,L|95:152,1,45,2|0,0:0|0:0,0:0:0:0:
76,84,78605,1,0,0:0:0:0:
105,221,78891,1,2,0:0:0:0:
192,112,79177,1,0,0:0:0:0:
28,140,79462,1,2,0:0:0:0:
116,232,79748,2,0,L|112:288,2,45,2|0|2,0:0|0:0|0:0,0:0:0:0:
268,224,80319,6,0,P|272:268|260:311,1,90,2|0,0:0|0:0,0:0:0:0:
268,224,80748,2,0,P|256:180|260:136,1,90,2|0,0:0|0:0,0:0:0:0:
280,68,81177,1,2,0:0:0:0:
416,128,81463,1,0,0:0:0:0:
260,136,81749,2,0,P|196:136|120:124,1,135,2|0,0:0|0:0,0:0:0:0:
326,123,82605,6,0,P|371:120|415:127,1,90,2|2,0:0|0:0,0:0:0:0:
312,192,83177,1,0,0:0:0:0:
312,192,83319,2,0,P|345:221|371:258,1,90,2|2,0:0|0:0,0:0:0:0:
424,348,83748,2,0,P|449:310|482:281,1,90
328,344,84320,1,2,0:0:0:0:
424,204,84605,1,2,0:0:0:0:
424,204,84748,1,0,0:0:0:0:
424,204,84891,6,0,P|428:152|420:112,1,90,2|0,0:0|0:0,0:0:0:0:
340,28,85463,1,2,0:0:0:0:
364,24,85605,1,0,0:0:0:0:
388,20,85748,1,2,0:0:0:0:
272,88,86034,1,2,0:0:0:0:
421,115,86320,2,0,L|465:122,1,45,0|2,0:0|0:0,0:0:0:0:
292,204,86891,2,0,L|315:216,3,22.5,2|0|0|0,0:0|0:0|0:0|0:0,0:0:0:0:
344,272,87177,5,2,0:0:0:0:
228,184,87463,2,0,P|224:164|228:132,1,45,2|0,0:0|0:0,0:0:0:0:
272,88,87748,1,0,0:0:0:0:
132,144,88034,1,2,0:0:0:0:
176,24,88320,1,0,0:0:0:0:
226,140,88605,1,2,0:0:0:0:
96,64,88891,2,0,L|52:68,1,45
8,124,89177,1,2,0:0:0:0:
96,280,89463,6,0,P|97:227|67:188,1,90,2|0,0:0|0:0,0:0:0:0:
28,251,89891,2,0,P|33:317|89:353,1,135,2|2,0:0|0:0,0:0:0:0:
208,316,90606,1,0,0:0:0:0:
284,216,90892,2,0,B|281:112|281:112|308:140,1,135,2|0,0:0|0:0,0:0:0:0:
116,100,91748,6,0,P|132:44|176:16,1,90,2|2,0:0|0:0,0:0:0:0:
176,148,92320,1,0,0:0:0:0:
176,148,92462,2,0,P|216:189|218:241,1,90,2|2,0:0|0:0,0:0:0:0:
296,192,92891,2,0,P|295:250|259:288,1,90
384,208,93462,1,2,0:0:0:0:
200,300,93748,1,2,0:0:0:0:
200,300,93891,1,0,0:0:0:0:
200,300,94034,6,0,L|92:296,1,90,2|0,0:0|0:0,0:0:0:0:
260,352,94606,1,2,0:0:0:0:
287,350,94748,1,0,0:0:0:0:
311,350,94891,1,2,0:0:0:0:
276,228,95177,1,0,0:0:0:0:
215,353,95462,2,0,L|260:352,1,45,0|2,0:0|0:0,0:0:0:0:
429,267,96034,1,0,0:0:0:0:
364,75,96319,6,0,P|351:122|373:188,1,90,2|0,0:0|0:0,0:0:0:0:
429,267,96891,1,2,0:0:0:0:
285,170,97177,2,0,L|228:164,1,45,0|2,0:0|0:0,0:0:0:0:
321,274,97605,1,2,0:0:0:0:
447,171,97891,1,0,0:0:0:0:
447,171,98034,2,0,L|335:159,1,90,2|0,0:0|0:0,0:0:0:0:
166,246,98605,6,0,L|278:234,1,90,2|0,0:0|0:0,0:0:0:0:
357,161,99177,1,2,0:0:0:0:
262,305,99463,2,0,P|258:328|263:349,1,45,0|2,0:0|0:0,0:0:0:0:
369,266,99891,1,2,0:0:0:0:
257,153,100177,1,0,0:0:0:0:
257,153,100319,2,0,P|253:130|258:109,2,45,2|0|0,0:0|0:0|0:0,0:0:0:0:
178,329,100891,6,0,P|184:286|165:245,1,90,2|0,0:0|0:0,0:0:0:0:
48,197,101463,1,2,0:0:0:0:
212,154,101749,2,0,L|265:152,1,45,0|2,0:0|0:0,0:0:0:0:
165,245,102177,1,2,0:0:0:0:
245,85,102463,1,0,0:0:0:0:
245,85,102605,2,0,L|357:80,1,90,2|0,0:0|0:0,0:0:0:0:
254,249,103177,6,0,L|165:245,1,90,2|0,0:0|0:0,0:0:0:0:
48,197,103749,1,2,0:0:0:0:
136,61,104034,2,0,P|154:74|165:93,1,45,0|2,0:0|0:0,0:0:0:0:
113,208,104463,1,2,0:0:0:0:
237,79,104749,1,0,0:0:0:0:
237,79,104892,2,0,L|247:2,2,45,2|0|0,0:0|0:0|0:0,0:0:0:0:
285,252,105462,6,0,L|280:130,1,90,2|0,0:0|0:0,0:0:0:0:
243,34,106034,1,2,0:0:0:0:
348,135,106319,2,0,P|353:157|352:180,1,45,0|2,0:0|0:0,0:0:0:0:
215,210,106748,1,2,0:0:0:0:
360,68,107034,1,0,0:0:0:0:
360,68,107177,2,0,P|401:90|411:155,1,90,2|0,0:0|0:0,0:0:0:0:
311,276,107748,5,2,0:0:0:0:
472,216,108034,1,2,0:0:0:0:
476,193,108177,1,0,0:0:0:0:
480,169,108319,1,2,0:0:0:0:
484,145,108462,2,0,L|480:49,1,90,0|2,0:0|0:0,0:0:0:0:
392,208,109034,1,2,0:0:0:0:
396,231,109177,1,0,0:0:0:0:
400,255,109319,1,2,0:0:0:0:
415,115,109605,2,0,P|394:111|371:114,1,45,2|0,0:0|0:0,0:0:0:0:
256,252,110034,5,2,0:0:0:0:
112,264,110319,1,0,0:0:0:0:
112,264,110462,2,0,P|100:212|120:164,1,90,2|0,0:0|0:0,0:0:0:0:
244,176,110891,2,0,P|204:212|153:219,1,90,2|0,0:0|0:0,0:0:0:0:
108,112,111319,2,0,P|130:113|151:123,1,45,2|0,0:0|0:0,0:0:0:0:
44,144,111605,1,2,0:0:0:0:
42,119,111748,1,0,0:0:0:0:
40,95,111891,1,0,0:0:0:0:
38,71,112034,1,2,0:0:0:0:
216,116,112319,5,2,0:0:0:0:
108,248,112605,1,2,0:0:0:0:
107,248,112748,2,0,P|88:287|95:331,1,90,0|2,0:0|0:0,0:0:0:0:
136,148,113462,2,0,L|136:124,3,22.5
172,71,113748,2,0,P|308:117|185:191,1,360,2|0,0:0|0:0,0:0:0:0:
352,40,115177,6,0,P|395:31|439:42,1,90
392,169,115748,1,2,0:0:0:0:
352,40,116034,1,2,0:0:0:0:
272,140,116320,2,0,B|252:228|252:228|275:319,1,180,2|0,0:0|0:0,0:0:0:0:
195,163,117177,1,2,0:0:0:0:
195,163,117320,1,0,0:0:0:0:
195,163,117463,6,0,P|152:155|108:166,1,90,2|0,0:0|0:0,0:0:0:0:
256,229,117891,1,0,0:0:0:0:
256,229,118034,2,0,P|299:237|343:226,1,90,2|2,0:0|0:0,0:0:0:0:
175,244,118605,2,0,P|164:286|174:330,1,90,2|0,0:0|0:0,0:0:0:0:
256,229,119177,1,2,0:0:0:0:
160,148,119463,1,2,0:0:0:0:
268,360,119748,5,2,0:0:0:0:
444,248,120034,1,0,0:0:0:0:
256,229,120319,1,2,0:0:0:0:
394,330,120605,1,0,0:0:0:0:
400,176,120892,1,2,0:0:0:0:
316,292,121177,1,0,0:0:0:0:
460,292,121463,1,2,0:0:0:0:
352,228,121749,1,0,0:0:0:0:
472,152,121962,6,0,L|470:126,1,22.5,0|2,0:0|0:0,0:0:0:0:
352,228,122319,1,2,0:0:0:0:
408,96,122534,2,0,L|406:70,1,22.5,0|2,0:0|0:0,0:0:0:0:
348,24,122796,1,2,0:0:0:0:
172,232,123177,2,0,P|159:274|172:317,1,90,2|0,0:0|0:0,0:0:0:0:
160,156,123748,2,0,P|121:177|99:216,1,90
220,84,124319,6,0,L|128:80,1,90
172,232,124891,1,2,0:0:0:0:
220,84,125176,1,2,0:0:0:0:
112,175,125462,2,0,P|94:259|160:313,1,180,2|0,0:0|0:0,0:0:0:0:
256,180,126319,1,2,0:0:0:0:
256,180,126462,1,0,0:0:0:0:
256,180,126605,6,0,L|253:90,1,90,2|0,0:0|0:0,0:0:0:0:
328,188,127034,1,0,0:0:0:0:
328,188,127176,2,0,L|330:277,1,90,2|2,0:0|0:0,0:0:0:0:
187,135,127748,2,0,P|174:93|185:50,1,90,2|0,0:0|0:0,0:0:0:0:
308,90,128319,1,2,0:0:0:0:
188,136,128605,1,2,0:0:0:0:
412,56,128890,5,2,0:0:0:0:
400,180,129176,1,0,0:0:0:0:
308,90,129462,1,2,0:0:0:0:
464,160,129747,1,0,0:0:0:0:
314,193,130034,1,2,0:0:0:0:
406,82,130319,1,0,0:0:0:0:
396,208,130605,1,2,0:0:0:0:
388,334,130891,1,0,0:0:0:0:
172,268,131177,5,2,0:0:0:0:
388,334,131462,1,2,0:0:0:0:
328,136,131748,1,2,0:0:0:0:
276,308,132034,1,2,0:0:0:0:
200,144,132319,1,2,0:0:0:0:
336,232,132605,1,2,0:0:0:0:
200,352,132891,1,2,0:0:0:0:
256,208,133178,1,2,0:0:0:0:
84,264,133462,5,2,0:0:0:0:
256,208,133748,2,0,P|272:121|233:41,1,180,2|0,0:0|0:0,0:0:0:0:
144,140,134605,1,2,0:0:0:0:
303,267,134891,2,0,P|338:185|335:95,1,180,2|0,0:0|0:0,0:0:0:0:
192,16,135748,5,2,0:0:0:0:
168,20,135891,1,0,0:0:0:0:
144,24,136034,1,2,0:0:0:0:
287,87,136319,1,2,0:0:0:0:
311,91,136462,1,0,0:0:0:0:
335,95,136605,1,2,0:0:0:0:
164,148,136891,1,2,0:0:0:0:
156,169,137034,1,0,0:0:0:0:
154,191,137176,1,2,0:0:0:0:
158,213,137319,1,0,0:0:0:0:
166,233,137462,1,2,0:0:0:0:
180,250,137605,1,2,0:0:0:0:
196,264,137748,2,0,L|197:287,2,22.5,2|0|0,0:0|0:0|0:0,0:0:0:0:
252,360,138034,5,2,0:0:0:0:
104,256,138320,2,0,L|112:328,1,45,2|0,0:0|0:0,0:0:0:0:
60,356,138605,1,0,0:0:0:0:
196,264,138891,1,2,0:0:0:0:
48,192,139177,1,0,0:0:0:0:
148,356,139462,1,2,0:0:0:0:
168,184,139748,2,0,P|160:162|158:140,2,45,2|0|2,0:0|0:0|0:0,0:0:0:0:
199,47,140320,6,0,P|157:35|114:47,1,90,2|0,0:0|0:0,0:0:0:0:
264,68,140748,2,0,P|306:80|349:68,1,90,2|0,0:0|0:0,0:0:0:0:
416,24,141176,1,2,0:0:0:0:
408,168,141463,1,0,0:0:0:0:
264,68,141749,2,0,L|280:256,1,180,2|0,0:0|0:0,0:0:0:0:
196,88,142605,6,0,L|203:177,1,90,2|2,0:0|0:0,0:0:0:0:
352,288,143177,1,0,0:0:0:0:
352,288,143319,2,0,L|344:198,1,90,2|2,0:0|0:0,0:0:0:0:
332,44,143748,2,0,L|340:134,1,90
279,247,144319,1,2,0:0:0:0:
412,164,144605,1,2,0:0:0:0:
412,164,144748,1,0,0:0:0:0:
412,163,144891,6,0,P|449:140|493:145,1,90,2|0,0:0|0:0,0:0:0:0:
340,133,145463,1,2,0:0:0:0:
316,128,145605,1,0,0:0:0:0:
292,133,145748,1,2,0:0:0:0:
360,260,146034,1,2,0:0:0:0:
392,88,146319,2,0,P|392:59|388:32,1,45,0|2,0:0|0:0,0:0:0:0:
256,192,146891,2,0,L|256:214,3,22.5,2|0|0|0,0:0|0:0|0:0|0:0,0:0:0:0:
216,268,147177,5,2,0:0:0:0:
100,164,147463,2,0,L|40:168,1,45,2|0,0:0|0:0,0:0:0:0:
0,120,147748,1,0,0:0:0:0:
80,232,148034,1,2,0:0:0:0:
148,112,148320,1,0,0:0:0:0:
0,208,148605,1,2,0:0:0:0:
104,308,148891,2,0,P|107:333|100:364,1,45,2|0,0:0|0:0,0:0:0:0:
40,332,149177,1,2,0:0:0:0:
176,244,149463,6,0,L|300:248,1,90,2|0,0:0|0:0,0:0:0:0:
292,160,149891,2,0,P|228:140|162:153,1,135,2|2,0:0|0:0,0:0:0:0:
220,312,150606,1,0,0:0:0:0:
360,200,150891,2,0,L|364:44,1,135,2|0,0:0|0:0,0:0:0:0:
420,240,151748,6,0,P|428:283|416:326,1,90,2|2,0:0|0:0,0:0:0:0:
260,228,152320,1,0,0:0:0:0:
260,228,152462,2,0,P|293:198|336:187,1,90,2|2,0:0|0:0,0:0:0:0:
314,108,152891,2,0,P|358:110|396:132,1,90
472,288,153462,1,2,0:0:0:0:
472,128,153748,1,2,0:0:0:0:
472,128,153891,1,0,0:0:0:0:
472,128,154034,6,0,L|476:32,1,90,2|0,0:0|0:0,0:0:0:0:
440,196,154605,1,2,0:0:0:0:
441,220,154748,1,0,0:0:0:0:
443,244,154891,1,2,0:0:0:0:
397,133,155177,1,2,0:0:0:0:
284,183,155462,2,0,P|261:186|239:181,1,45
176,132,155748,1,2,0:0:0:0:
140,276,156034,2,0,L|144:352,1,45,2|0,0:0|0:0,0:0:0:0:
68,348,156319,6,0,L|64:258,1,90,2|0,0:0|0:0,0:0:0:0:
60,84,156891,1,2,0:0:0:0:
60,84,157034,1,0,0:0:0:0:
60,84,157176,2,0,L|63:173,1,90,2|0,0:0|0:0,0:0:0:0:
204,256,157748,2,0,P|284:260|356:180,1,180,2|2,0:0|0:0,0:0:0:0:
232,76,158605,5,2,0:0:0:0:
136,216,158891,1,0,0:0:0:0:
136,216,159034,2,0,L|140:320,1,90,2|0,0:0|0:0,0:0:0:0:
204,256,159462,2,0,P|240:304|324:324,1,135,2|0,0:0|0:0,0:0:0:0:
396,292,160034,2,0,P|461:324|396:357,1,180,2|0,0:0|0:0,0:0:0:0:
328,208,160891,5,2,0:0:0:0:
274,92,161176,1,0,0:0:0:0:
389,39,161462,1,2,0:0:0:0:
442,153,161748,1,0,0:0:0:0:
112,36,162319,1,2,0:0:0:0:
273,314,162891,2,0,P|338:203|274:92,1,270,2|0,0:0|0:0,0:0:0:0:
274,92,164319,5,2,0:0:0:0:
120,144,164605,1,2,0:0:0:0:
240,248,164891,1,2,0:0:0:0:
204,120,165176,1,2,0:0:0:0:
204,120,165319,1,0,0:0:0:0:
204,120,165462,5,2,0:0:0:0:
348,196,165748,2,0,L|424:192,1,45,0|2,0:0|0:0,0:0:0:0:
240,248,166176,2,0,L|316:244,1,45,0|2,0:0|0:0,0:0:0:0:
432,140,166605,1,0,0:0:0:0:
334,308,166891,2,0,L|338:384,1,45,0|2,0:0|0:0,0:0:0:0:
282,200,167319,2,0,L|286:276,1,45,0|2,0:0|0:0,0:0:0:0:
416,328,167748,5,0,0:0:0:0:
216,268,168034,1,0,0:0:0:0:
216,268,168176,2,0,P|204:211|230:157,1,90,2|0,0:0|0:0,0:0:0:0:
268,128,168606,1,2,0:0:0:0:
372,200,168891,1,0,0:0:0:0:
256,336,169176,1,0,0:0:0:0:
256,336,169319,2,0,L|156:332,1,90,2|0,0:0|0:0,0:0:0:0:
96,364,169748,1,2,0:0:0:0:
116,184,170034,5,0,0:0:0:0:
275,135,170319,1,2,0:0:0:0:
275,135,170462,1,0,0:0:0:0:
274,134,170605,2,0,P|286:176|274:219,1,90,2|2,0:0|0:0,0:0:0:0:
172,92,171176,1,2,0:0:0:0:
168,252,171462,2,0,L|172:304,1,45,0|2,0:0|0:0,0:0:0:0:
32,168,172034,1,2,0:0:0:0:
32,168,172176,1,0,0:0:0:0:
32,168,172319,6,0,P|72:184|123:179,1,90,2|2,0:0|0:0,0:0:0:0:
228,72,172748,1,0,0:0:0:0:
228,72,172891,2,0,P|194:98|172:145,1,90,2|0,0:0|0:0,0:0:0:0:
228,311,173462,2,0,P|221:267|196:230,1,90,2|0,0:0|0:0,0:0:0:0:
360,376,174176,2,0,L|364:280,1,90,2|0,0:0|0:0,0:0:0:0:
368,208,174605,1,2,0:0:0:0:
368,208,175462,6,0,P|368:184|356:152,2,45,2|0|0,0:0|0:0|0:0,0:0:0:0:
288,196,175808,2,0,P|271:179|239:164,2,45,2|0|2,0:0|0:0|0:0,0:0:0:0:
256,192,176154,12,0,178231,0:0:0:0:
