osu file format v14

[General]
AudioFilename: audio.mp3
AudioLeadIn: 0
PreviewTime: 9990
Countdown: 0
SampleSet: Soft
StackLeniency: 0.7
Mode: 0
LetterboxInBreaks: 0
WidescreenStoryboard: 0

[Editor]
Bookmarks: 96275,107704
DistanceSpacing: 1.6
BeatDivisor: 4
GridSize: 4
TimelineZoom: 1

[Metadata]
Title:Your Reality
TitleUnicode:Your Reality
Artist:Dan Salvato
ArtistUnicode:Dan Salvato
Creator:Kyshiro
Version:Just Monika
Source:Doki Doki Literature Club
Tags:Monika Sayori Natsuki Yuri Visual Novel
BeatmapID:1492346
BeatmapSetID:705594

[Difficulty]
HPDrainRate:6
CircleSize:3.5
OverallDifficulty:8
ApproachRate:8.5
SliderMultiplier:1.8
SliderTickRate:1

[Events]
//Background and Video events
0,0,"just monika.jpg",0,0
//Break Periods
2,96475,107029
//Storyboard Layer 0 (Background)
//Storyboard Layer 1 (Fail)
//Storyboard Layer 2 (Pass)
//Storyboard Layer 3 (Foreground)
//Storyboard Sound Samples

[TimingPoints]
276,571.428571428571,4,2,0,50,1,0
59704,-86.9565217391304,4,2,0,50,0,1
77704,-86.9565217391304,4,2,0,50,0,0
77990,-86.9565217391304,4,2,0,50,0,1
96275,-100,4,2,0,50,0,0
137990,-86.9565217391304,4,2,0,50,0,1
157704,-117.647058823529,4,2,0,50,0,0

[Colours]
Combo1 : 220,239,192
Combo2 : 203,230,237
Combo3 : 243,180,182

[HitObjects]
88,120,9418,5,0,0:0:0:0:
88,120,9990,2,0,P|120:176|130:222,1,90
13,67,10561,2,0,P|84:90|187:46,1,180
381,180,11418,2,0,L|329:172,1,45
365,278,11704,6,0,L|467:266,1,90
488,172,12133,1,0,0:0:0:0:
254,235,12275,2,0,P|247:286|264:346,1,90
347,197,12847,2,0,P|297:206|214:158,1,135
202,90,13418,2,0,P|197:148|177:193,1,90
63,243,13990,5,0,0:0:0:0:
206,299,14275,1,0,0:0:0:0:
90,365,14561,1,0,0:0:0:0:
362,241,14847,5,0,0:0:0:0:
278,273,14990,1,0,0:0:0:0:
200,227,15133,1,0,0:0:0:0:
32,147,15418,1,0,0:0:0:0:
116,179,15561,1,0,0:0:0:0:
194,133,15704,1,0,0:0:0:0:
0,248,15990,1,0,0:0:0:0:
110,60,16275,5,0,0:0:0:0:
110,60,16847,2,0,P|138:126|139:170,1,90
105,238,17275,2,0,P|148:180|185:157,1,90
266,150,17704,2,0,P|194:141|156:120,2,90
2,157,18561,5,0,0:0:0:0:
2,157,19133,2,0,P|35:201|52:242,1,90
127,146,19704,2,0,P|95:201|75:344,1,180
271,139,20561,2,0,P|275:86|272:66,1,45
248,9,20847,6,0,P|285:51|339:80,1,90
409,77,21275,1,0,0:0:0:0:
189,86,21418,2,0,P|126:94|85:110,1,90
359,212,21990,2,0,P|422:220|463:236,1,90
281,309,22561,1,0,0:0:0:0:
180,231,22847,1,0,0:0:0:0:
326,86,23133,5,0,0:0:0:0:
178,72,23418,1,0,0:0:0:0:
52,151,23704,1,0,0:0:0:0:
291,242,23990,5,0,0:0:0:0:
378,221,24133,1,0,0:0:0:0:
457,262,24275,1,0,0:0:0:0:
192,326,24561,1,0,0:0:0:0:
105,305,24704,1,0,0:0:0:0:
26,346,24846,1,0,0:0:0:0:
172,228,25133,1,0,0:0:0:0:
359,332,25418,5,0,0:0:0:0:
359,332,25990,2,0,P|376:271|367:236,1,90
501,229,26418,2,0,P|439:244|413:270,1,90
341,153,26847,2,0,P|385:198|420:207,1,90
245,44,27418,1,0,0:0:0:0:
215,32,27490,1,0,0:0:0:0:
184,25,27561,1,0,0:0:0:0:
152,25,27633,1,0,0:0:0:0:
120,29,27704,1,0,0:0:0:0:
36,187,27990,6,0,L|144:178,1,90
254,182,28561,2,0,P|178:165|115:110,1,135
173,43,29133,2,0,P|249:60|312:115,1,135
355,178,29704,1,0,0:0:0:0:
355,178,29990,6,0,P|410:150|432:116,1,90
335,278,30418,2,0,P|280:250|258:216,1,90
431,247,30847,2,0,P|430:319|346:381,1,180
153,220,31704,1,0,0:0:0:0:
73,203,31847,1,0,0:0:0:0:
9,253,31990,1,0,0:0:0:0:
131,137,32275,5,0,0:0:0:0:
188,298,32561,1,0,0:0:0:0:
5,154,32847,2,0,L|9:97,1,45
76,47,33133,1,0,0:0:0:0:
148,161,33275,2,0,P|164:218|147:317,1,135
294,174,33990,2,0,P|300:112|321:62,1,90
400,46,34418,1,0,0:0:0:0:
462,154,34561,6,0,P|470:220|463:266,1,90
279,336,35133,2,0,L|226:330,1,45
129,280,35418,2,0,P|209:293|307:224,1,180
64,187,36275,1,0,0:0:0:0:
237,120,36561,1,0,0:0:0:0:
11,65,36847,5,0,0:0:0:0:
206,219,37133,1,0,0:0:0:0:
206,219,37275,2,0,P|210:273|209:289,1,45
265,49,37704,2,0,P|312:82|337:123,1,90
4,93,38275,2,0,P|79:92|152:124,1,135
106,222,38847,1,0,0:0:0:0:
364,145,39133,6,0,P|310:150|265:168,1,90
369,236,39561,2,0,P|423:241|468:259,1,90
324,315,39990,2,0,P|277:309|183:267,1,135
119,201,40561,1,0,0:0:0:0:
436,110,40847,1,0,0:0:0:0:
359,135,40990,1,0,0:0:0:0:
294,86,41133,1,0,0:0:0:0:
421,194,41418,5,0,0:0:0:0:
380,15,41704,1,0,0:0:0:0:
218,172,41990,2,0,P|206:205|202:226,1,45
208,308,42275,1,0,0:0:0:0:
121,154,42418,2,0,P|94:98|36:34,1,135
16,296,43133,6,0,P|85:317|125:313,1,90
215,364,43561,2,0,P|256:293|266:238,1,135
453,182,44275,2,0,P|436:147|424:132,1,45
468,44,44561,2,0,P|402:19|284:37,1,180
279,48,45990,5,0,0:0:0:0:
168,167,46275,1,0,0:0:0:0:
49,110,46561,1,0,0:0:0:0:
49,110,46704,1,0,0:0:0:0:
292,171,46990,1,0,0:0:0:0:
292,171,47704,5,0,0:0:0:0:
437,82,47990,1,0,0:0:0:0:
366,112,48133,1,0,0:0:0:0:
297,78,48275,1,0,0:0:0:0:
97,60,49704,5,0,0:0:0:0:
226,173,49990,1,0,0:0:0:0:
149,166,50133,1,0,0:0:0:0:
80,198,50275,2,0,L|23:182,1,45
110,276,50561,6,0,P|166:279|203:294,1,90
302,334,50990,2,0,P|344:319|389:319,1,90
494,333,51418,1,0,0:0:0:0:
494,333,51704,2,0,L|509:233,1,90
410,192,52133,2,0,L|395:92,1,90
481,31,52561,1,0,0:0:0:0:
274,158,52847,6,0,P|219:147|180:119,1,90
127,48,53275,2,0,P|88:70|43:76,1,90
4,163,53704,1,0,0:0:0:0:
164,258,53990,2,0,L|268:237,1,90
323,164,54418,2,0,L|427:185,1,90
484,261,54847,1,0,0:0:0:0:
484,261,55133,6,0,P|472:321|445:357,1,90
342,341,55561,2,0,P|279:318|244:316,1,90
151,360,55990,1,0,0:0:0:0:
151,360,56275,2,0,P|109:301|103:274,1,90
55,190,56704,2,0,P|127:183|153:191,1,90
220,271,57133,1,0,0:0:0:0:
413,181,57418,6,0,L|421:74,1,90
304,126,57847,2,0,L|296:19,1,90
198,89,58275,1,0,0:0:0:0:
198,89,58561,2,0,P|183:145|181:194,1,90
99,271,58990,2,0,P|94:226|81:183,1,90
8,107,59418,1,0,0:0:0:0:
204,277,59704,5,0,0:0:0:0:
204,277,60275,2,0,L|279:270,1,51.7500009870529
386,222,60561,2,0,L|311:215,1,51.7500009870529
240,176,60847,2,0,P|219:114|226:65,1,103.500001974106
304,15,61275,1,0,0:0:0:0:
372,83,61418,1,0,0:0:0:0:
130,152,61704,2,0,P|83:141|55:121,1,51.7500009870529
2,78,61990,6,0,P|36:143|38:189,1,103.500001974106
22,273,62418,1,0,0:0:0:0:
122,237,62561,2,0,P|155:226|182:227,1,51.7500009870529
277,169,62847,2,0,P|251:167|227:157,1,51.7500009870529
331,88,63133,2,0,L|444:79,1,103.500001974106
496,251,63704,5,0,0:0:0:0:
223,191,63990,1,0,0:0:0:0:
370,173,64275,1,0,0:0:0:0:
200,321,64561,1,0,0:0:0:0:
95,127,64847,1,0,0:0:0:0:
339,72,65133,5,0,0:0:0:0:
278,128,65275,1,0,0:0:0:0:
195,119,65418,1,0,0:0:0:0:
24,153,65704,1,0,0:0:0:0:
107,144,65847,1,0,0:0:0:0:
168,200,65989,1,0,0:0:0:0:
56,69,66275,1,0,0:0:0:0:
74,264,66561,1,0,0:0:0:0:
233,152,66847,1,0,0:0:0:0:
56,69,67133,6,0,P|91:121|131:147,1,103.500001974106
74,264,67561,2,0,P|101:207|104:160,1,103.500001974106
233,152,67990,2,0,P|170:156|127:177,2,103.500001974106
433,246,68847,5,0,0:0:0:0:
270,365,69133,1,0,0:0:0:0:
219,300,69275,1,0,0:0:0:0:
272,236,69418,2,0,P|287:197|291:171,1,51.7500009870529
203,76,69704,2,0,P|209:101|219:124,1,51.7500009870529
407,116,69990,2,0,P|337:100|289:110,1,103.500001974106
168,223,70561,1,0,0:0:0:0:
394,322,70847,6,0,L|404:257,1,51.7500009870529
503,260,71133,2,0,P|437:245|405:217,1,103.500001974106
356,147,71561,1,0,0:0:0:0:
481,52,71704,2,0,L|487:163,1,103.500001974106
293,297,72275,2,0,P|208:301|130:265,1,155.250002961159
64,210,72847,1,0,0:0:0:0:
284,167,73133,1,0,0:0:0:0:
137,102,73418,5,0,0:0:0:0:
241,254,73704,1,0,0:0:0:0:
433,244,73990,1,0,0:0:0:0:
331,62,74275,1,0,0:0:0:0:
254,30,74418,1,0,0:0:0:0:
175,56,74561,1,0,0:0:0:0:
242,191,74847,1,0,0:0:0:0:
165,223,74990,1,0,0:0:0:0:
86,197,75133,1,0,0:0:0:0:
233,277,75418,1,0,0:0:0:0:
164,93,75704,5,0,0:0:0:0:
62,213,75990,1,0,0:0:0:0:
245,292,76275,2,0,P|296:279|312:269,1,51.7500009870529
357,202,76561,1,0,0:0:0:0:
227,161,76704,2,0,P|161:156|103:165,1,103.500001974106
38,217,77133,1,0,0:0:0:0:
159,299,77418,1,0,0:0:0:0:
314,264,77704,1,0,0:0:0:0:
328,242,77775,1,0,0:0:0:0:
339,218,77847,1,0,0:0:0:0:
345,192,77918,1,0,0:0:0:0:
347,166,77990,1,0,0:0:0:0:
204,52,78275,5,0,0:0:0:0:
204,52,78418,2,0,P|192:124|203:162,1,103.500001974106
272,232,78847,2,0,P|190:195|107:195,1,155.250002961159
355,257,79418,2,0,P|278:263|208:296,1,155.250002961159
148,378,79990,1,0,0:0:0:0:
450,328,80275,6,0,P|473:266|465:221,1,103.500001974106
512,125,80704,2,0,P|446:136|411:165,1,103.500001974106
305,172,81133,2,0,P|347:222|390:238,1,103.500001974106
353,32,81704,2,0,P|261:26|175:102,1,207.000003948212
150,317,82561,5,0,0:0:0:0:
150,317,82847,2,0,L|89:306,1,51.7500009870529
232,263,83133,2,0,L|293:252,1,51.7500009870529
112,218,83418,1,0,0:0:0:0:
112,218,83561,2,0,P|83:159|81:115,1,103.500001974106
118,22,83990,1,0,0:0:0:0:
311,182,84275,2,0,L|304:306,1,103.500001974106
376,351,84704,1,0,0:0:0:0:
463,247,84847,6,0,P|469:180|455:139,1,103.500001974106
265,67,85418,1,0,0:0:0:0:
201,120,85561,1,0,0:0:0:0:
118,110,85704,1,0,0:0:0:0:
281,152,85990,2,0,L|291:271,1,103.500001974106
213,327,86418,2,0,P|162:308|96:304,1,103.500001974106
5,223,86847,1,0,0:0:0:0:
30,221,86918,1,0,0:0:0:0:
55,215,86990,1,0,0:0:0:0:
78,204,87061,1,0,0:0:0:0:
99,189,87133,1,0,0:0:0:0:
234,39,87418,5,0,0:0:0:0:
234,39,87561,2,0,P|204:111|201:154,1,103.500001974106
270,258,87990,2,0,P|230:193|149:141,1,155.250002961159
25,150,88561,2,0,P|101:147|186:103,1,155.250002961159
104,36,89133,1,0,0:0:0:0:
21,256,89418,6,0,L|36:368,1,103.500001974106
143,374,89847,2,0,P|215:354|255:324,1,103.500001974106
299,243,90275,2,0,P|311:178|270:73,1,155.250002961159
188,43,90847,2,0,P|111:36|4:105,1,207.000003948212
199,261,91704,5,0,0:0:0:0:
319,172,91990,2,0,P|336:130|338:111,1,51.7500009870529
402,48,92275,2,0,P|408:73|419:96,1,51.7500009870529
497,157,92561,1,0,0:0:0:0:
444,245,92704,2,0,P|387:237|335:210,1,103.500001974106
264,145,93133,1,0,0:0:0:0:
167,327,93418,6,0,P|224:319|276:292,1,103.500001974106
157,216,93847,2,0,P|109:194|58:188,1,103.500001974106
10,271,94275,1,0,0:0:0:0:
215,136,94561,1,0,0:0:0:0:
280,186,94704,1,0,0:0:0:0:
361,171,94847,1,0,0:0:0:0:
97,65,95133,2,0,P|77:130|83:178,1,103.500001974106
0,198,95561,2,0,P|51:197|99:215,1,103.500001974106
163,301,95990,1,0,0:0:0:0:
336,192,96275,5,0,0:0:0:0:
54,129,107704,5,0,0:0:0:0:
346,279,107990,1,0,0:0:0:0:
418,255,108133,1,0,0:0:0:0:
418,178,108275,1,0,0:0:0:0:
346,155,108418,1,0,0:0:0:0:
301,217,108561,6,0,P|258:213|234:200,1,45
258,135,108847,5,0,0:0:0:0:
185,112,108990,1,0,0:0:0:0:
140,174,109132,1,0,0:0:0:0:
185,235,109275,1,0,0:0:0:0:
72,320,109561,1,0,0:0:0:0:
72,320,109704,1,0,0:0:0:0:
26,174,109990,6,0,P|10:113|9:71,1,90
129,28,110418,2,0,P|124:72|111:115,1,90
160,203,110847,2,0,P|206:212|252:211,1,90
309,134,111275,2,0,P|353:125|397:125,1,90
481,203,111704,1,0,0:0:0:0:
433,262,111847,1,0,0:0:0:0:
452,335,111990,1,0,0:0:0:0:
329,233,112275,5,0,0:0:0:0:
187,306,112561,1,0,0:0:0:0:
187,306,112704,1,0,0:0:0:0:
309,363,112990,1,0,0:0:0:0:
201,175,113418,2,0,L|182:169,6,15
47,113,115133,5,0,0:0:0:0:
170,177,115418,1,0,0:0:0:0:
286,66,115704,1,0,0:0:0:0:
73,200,115990,1,0,0:0:0:0:
220,262,116275,1,0,0:0:0:0:
220,262,117133,5,0,0:0:0:0:
144,251,117275,1,0,0:0:0:0:
81,295,117418,1,0,0:0:0:0:
296,285,117704,1,0,0:0:0:0:
372,296,117846,1,0,0:0:0:0:
435,252,117989,1,0,0:0:0:0:
322,364,118275,5,0,0:0:0:0:
350,152,118561,1,0,0:0:0:0:
220,245,118847,1,0,0:0:0:0:
42,106,119133,1,0,0:0:0:0:
194,96,119418,1,0,0:0:0:0:
295,210,119704,5,0,0:0:0:0:
94,187,119990,1,0,0:0:0:0:
311,224,120275,1,0,0:0:0:0:
174,154,120561,1,0,0:0:0:0:
324,246,120847,1,0,0:0:0:0:
275,149,121133,1,0,0:0:0:0:
318,264,121418,1,0,0:0:0:0:
381,181,121704,6,0,P|425:163|454:154,1,60
485,166,121990,1,0,0:0:0:0:
306,283,122275,2,0,P|260:274|231:262,1,60
211,241,122561,2,0,P|176:247|151:257,1,45
323,168,123133,1,0,0:0:0:0:
323,168,124275,5,0,0:0:0:0:
184,228,124561,1,0,0:0:0:0:
207,105,124847,1,0,0:0:0:0:
302,280,125133,1,0,0:0:0:0:
90,335,125418,1,0,0:0:0:0:
90,335,126275,6,0,P|66:294|62:275,1,45
154,261,126561,2,0,P|158:200|178:153,1,90
273,220,126990,1,0,0:0:0:0:
273,220,127133,2,0,P|330:176|378:163,1,90
512,154,127704,2,0,P|444:164|360:128,1,135
287,60,128275,2,0,P|322:106|341:157,1,90
188,268,128847,5,0,0:0:0:0:
107,117,129133,1,0,0:0:0:0:
278,226,129418,1,0,0:0:0:0:
105,228,129704,1,0,0:0:0:0:
244,149,129990,1,0,0:0:0:0:
252,292,130275,1,0,0:0:0:0:
180,187,130561,1,0,0:0:0:0:
311,183,130847,1,0,0:0:0:0:
126,323,131133,5,0,0:0:0:0:
177,69,131418,1,0,0:0:0:0:
15,250,131704,1,0,0:0:0:0:
236,286,131990,1,0,0:0:0:0:
73,164,132275,1,0,0:0:0:0:
52,329,132561,1,0,0:0:0:0:
139,222,132847,1,0,0:0:0:0:
2,204,133133,1,0,0:0:0:0:
208,342,133418,5,0,0:0:0:0:
337,263,133704,1,0,0:0:0:0:
337,263,134275,1,0,0:0:0:0:
76,302,134561,1,0,0:0:0:0:
0,197,134847,1,0,0:0:0:0:
0,197,135418,1,0,0:0:0:0:
253,329,135704,5,0,0:0:0:0:
329,320,135847,1,0,0:0:0:0:
389,272,135990,1,0,0:0:0:0:
138,219,136275,5,0,0:0:0:0:
62,210,136418,1,0,0:0:0:0:
2,162,136561,1,0,0:0:0:0:
249,64,136847,5,0,0:0:0:0:
319,34,136990,1,0,0:0:0:0:
390,64,137133,1,0,0:0:0:0:
419,134,137275,1,0,0:0:0:0:
390,205,137418,1,0,0:0:0:0:
319,234,137561,1,0,0:0:0:0:
249,205,137704,1,0,0:0:0:0:
225,184,137775,1,0,0:0:0:0:
194,173,137847,1,0,0:0:0:0:
162,168,137918,1,0,0:0:0:0:
130,173,137990,1,0,0:0:0:0:
29,303,138275,5,0,0:0:0:0:
29,303,138418,2,0,P|48:246|46:197,1,103.500001974106
0,89,138847,2,0,P|33:141|109:200,1,155.250002961159
221,186,139418,2,0,P|172:191|79:244,1,155.250002961159
150,344,139990,1,0,0:0:0:0:
336,241,140275,6,0,P|351:189|347:136,1,103.500001974106
173,162,140704,2,0,P|210:200|258:224,1,103.500001974106
323,64,141133,2,0,B|268:73|231:104|231:104|210:85|177:77,1,155.250002961159
87,121,141704,2,0,L|70:225,1,103.500001974106
125,310,142133,1,0,0:0:0:0:
125,310,142561,6,0,P|193:280|256:267,1,103.500001974106
315,320,142990,1,0,0:0:0:0:
393,250,143133,1,0,0:0:0:0:
393,250,143275,2,0,P|401:187|386:129,1,103.500001974106
248,46,143704,2,0,P|301:130|365:162,1,155.250002961159
459,81,144275,6,0,P|379:96|338:132,1,103.500001974106
393,250,144704,2,0,P|401:187|386:129,1,103.500001974106
276,215,145133,2,0,L|270:282,1,51.7500009870529
170,354,145418,1,0,0:0:0:0:
185,277,145561,1,0,0:0:0:0:
153,206,145704,1,0,0:0:0:0:
29,67,145990,6,0,L|16:189,1,103.500001974106
84,268,146418,2,0,P|154:282|201:270,1,103.500001974106
278,216,146847,1,0,0:0:0:0:
303,204,146918,1,0,0:0:0:0:
331,200,146990,1,0,0:0:0:0:
359,201,147061,1,0,0:0:0:0:
386,209,147133,1,0,0:0:0:0:
490,99,147418,5,0,0:0:0:0:
490,99,147561,2,0,P|402:107|366:94,1,103.500001974106
297,37,147990,2,0,P|229:21|136:54,1,155.250002961159
12,113,148561,2,0,P|82:121|168:186,1,155.250002961159
112,258,149133,2,0,L|34:248,1,51.7500009870529
173,333,149418,6,0,L|300:323,1,103.500001974106
360,270,149847,2,0,P|376:217|366:157,1,103.500001974106
262,156,150275,2,0,P|246:103|294:3,1,155.250002961159
438,101,150847,2,0,P|379:102|301:174,1,155.250002961159
442,246,151704,5,0,0:0:0:0:
442,246,151990,2,0,L|426:305,1,51.7500009870529
345,357,152275,1,0,0:0:0:0:
270,257,152418,2,0,P|248:192|249:134,1,103.500001974106
142,41,152847,2,0,P|155:133|135:205,1,155.250002961159
70,248,153418,6,0,L|6:237,1,51.7500009870529
124,328,153704,1,0,0:0:0:0:
201,267,153847,2,0,P|275:259|313:267,1,103.500001974106
380,329,154275,1,0,0:0:0:0:
494,136,154561,1,0,0:0:0:0:
427,185,154704,1,0,0:0:0:0:
344,174,154847,1,0,0:0:0:0:
295,45,155133,6,0,P|369:56|410:77,1,103.500001974106
232,132,155561,2,0,P|158:121|117:100,1,103.500001974106
59,32,155990,1,0,0:0:0:0:
17,149,156133,6,0,P|14:240|24:274,1,103.500001974106
91,313,156561,2,0,L|164:295,1,51.7500009870529
246,238,156847,1,0,0:0:0:0:
315,282,156990,1,0,0:0:0:0:
397,284,157133,1,0,0:0:0:0:
409,304,157704,6,0,P|439:252|451:154,1,153.000002918243
269,78,158561,2,0,P|316:118|353:131,1,76.5000014591217
240,178,158990,2,0,P|206:196|180:223,1,76.5000014591217
97,297,159418,2,0,P|81:252|79:159,1,114.750002188683
106,100,159990,1,0,0:0:0:0:
448,133,160847,5,0,0:0:0:0:
354,211,161133,1,0,0:0:0:0:
238,172,161418,1,0,0:0:0:0:
477,256,161704,1,0,0:0:0:0:
198,287,162275,1,0,0:0:0:0:
46,198,162847,1,0,0:0:0:0:
46,198,164275,5,0,0:0:0:0:
198,287,164561,1,0,0:0:0:0:
248,161,164847,2,0,P|184:168|150:178,1,76.5000014591217
82,301,165275,5,0,0:0:0:0:
