osu file format v14

[General]
AudioFilename: audio.mp3
AudioLeadIn: 0
PreviewTime: 115101
Countdown: 1
SampleSet: Soft
StackLeniency: 0.2
Mode: 0
LetterboxInBreaks: 0
WidescreenStoryboard: 0

[Editor]
DistanceSpacing: 2.2
BeatDivisor: 4
GridSize: 8
TimelineZoom: 1

[Metadata]
Title:Your Reality
TitleUnicode:Your Reality
Artist:Dan Salvato
ArtistUnicode:Dan Salvato
Creator:Kaifin
Version:Monika
Source:Doki Doki Literature Club
Tags:jillian ashcraft ddlc just monika
BeatmapID:1432586
BeatmapSetID:677382

[Difficulty]
HPDrainRate:8
CircleSize:4
OverallDifficulty:8
ApproachRate:8
SliderMultiplier:1.8
SliderTickRate:1

[Events]
//Background and Video events
0,0,"ddlcbg.png",0,0
//Break Periods
//Storyboard Layer 0 (Background)
//Storyboard Layer 1 (Fail)
//Storyboard Layer 2 (Pass)
//Storyboard Layer 3 (Foreground)
//Storyboard Sound Samples

[TimingPoints]
0,500,4,2,0,40,1,0
245,571.428571428571,4,2,0,40,1,0
50530,-133.333333333333,4,2,0,40,0,0
60244,-100,4,2,0,40,0,0
113387,857.142857142857,4,2,0,40,1,0
115101,571.428571428571,4,2,0,40,1,0
173386,659.340659340659,4,2,0,40,1,0
174127,631.578947368421,4,2,0,40,1,0
175390,600,4,2,0,40,1,0

[Colours]
Combo1 : 255,149,255
Combo2 : 81,168,255
Combo3 : 149,43,255
Combo4 : 0,225,56

[HitObjects]
403,317,0,5,0,0:0:0:0:
414,315,83,1,0,0:0:0:0:
425,313,166,1,0,0:0:0:0:
478,365,245,6,0,L|459:205,1,135
409,178,816,5,0,0:0:0:0:
409,178,1102,1,0,0:0:0:0:
409,178,1387,1,0,0:0:0:0:
342,366,1959,5,0,0:0:0:0:
403,317,2245,1,0,0:0:0:0:
220,268,2530,1,0,0:0:0:0:
220,268,3387,1,0,0:0:0:0:
220,268,4244,5,0,0:0:0:0:
281,317,4387,1,0,0:0:0:0:
341,368,4530,1,0,0:0:0:0:
34,365,4816,6,0,L|53:205,1,135
103,178,5387,5,0,0:0:0:0:
34,365,5673,1,0,0:0:0:0:
103,178,6530,5,0,0:0:0:0:
34,365,6816,1,0,0:0:0:0:
9,263,7102,6,0,B|52:252|79:263|112:282|129:319|129:319|155:294|182:280|235:297,1,225
274,311,7959,1,0,0:0:0:0:
478,19,9387,6,0,L|459:179,1,135
409,206,9958,1,0,0:0:0:0:
339,149,10244,1,0,0:0:0:0:
478,19,10530,6,0,L|459:179,1,135
409,206,11102,6,0,L|418:286,1,45
467,303,11387,1,0,0:0:0:0:
464,325,11530,1,0,0:0:0:0:
411,378,11673,6,0,L|331:368,1,45
197,235,11959,1,0,0:0:0:0:
200,257,12102,1,0,0:0:0:0:
253,310,12245,6,0,L|333:300,1,45
414,250,12530,2,0,L|334:240,1,45
98,219,12816,6,0,P|136:269|199:256,1,135
261,205,13387,5,0,0:0:0:0:
16,287,13673,1,0,0:0:0:0:
199,256,13959,1,0,0:0:0:0:
98,219,14244,1,0,0:0:0:0:
116,324,14530,1,0,0:0:0:0:
199,256,14816,5,0,0:0:0:0:
261,205,14958,1,0,0:0:0:0:
274,284,15102,1,0,0:0:0:0:
41,296,15387,5,0,0:0:0:0:
54,375,15531,1,0,0:0:0:0:
116,324,15673,1,0,0:0:0:0:
89,43,15959,5,0,0:0:0:0:
160,136,16244,2,0,L|0:117,1,135
89,43,16816,5,0,0:0:0:0:
211,74,17102,1,0,0:0:0:0:
160,136,17244,1,0,0:0:0:0:
34,219,17530,1,0,0:0:0:0:
85,281,17672,1,0,0:0:0:0:
160,136,17959,5,0,0:0:0:0:
34,219,18244,1,0,0:0:0:0:
229,323,18530,6,0,L|210:163,1,135
160,136,19101,1,0,0:0:0:0:
34,219,19387,1,0,0:0:0:0:
229,323,19673,6,0,L|210:163,1,135
160,136,20244,6,0,L|80:126,1,45
31,197,20530,1,0,0:0:0:0:
34,219,20673,1,0,0:0:0:0:
87,271,20816,6,0,L|167:261,1,45
306,334,21102,1,0,0:0:0:0:
229,323,21244,1,0,0:0:0:0:
149,381,21387,6,0,L|159:301,1,45
272,217,21673,2,0,L|282:297,1,45
383,345,21959,5,0,0:0:0:0:
248,360,22244,2,0,L|408:341,1,135
450,376,22816,5,0,0:0:0:0:
154,336,23102,5,0,0:0:0:0:
277,261,23387,1,0,0:0:0:0:
154,336,23673,1,0,0:0:0:0:
277,261,23959,5,0,0:0:0:0:
264,182,24103,1,0,0:0:0:0:
202,233,24245,1,0,0:0:0:0:
6,287,24530,5,0,0:0:0:0:
19,365,24674,1,0,0:0:0:0:
81,315,24816,1,0,0:0:0:0:
382,344,25102,5,0,0:0:0:0:
458,167,25387,2,0,L|439:327,1,135
382,344,25959,5,0,0:0:0:0:
202,289,26244,1,0,0:0:0:0:
277,261,26387,1,0,0:0:0:0:
455,192,26673,1,0,0:0:0:0:
380,164,26816,1,0,0:0:0:0:
277,67,27102,5,0,0:0:0:0:
202,289,27387,5,0,0:0:0:0:
200,305,27483,1,0,0:0:0:0:
198,322,27578,1,0,0:0:0:0:
123,350,27673,5,0,0:0:0:0:
198,322,27959,5,0,0:0:0:0:
123,350,28102,2,0,L|109:238,1,90
36,232,28530,2,0,L|18:371,1,135
111,260,29102,5,0,0:0:0:0:
48,136,29387,1,0,0:0:0:0:
18,365,29673,2,0,L|84:356,1,45
111,260,29959,6,0,L|44:251,1,45
198,322,30244,1,0,0:0:0:0:
257,152,30387,2,0,L|243:256,1,90
198,322,30816,6,0,B|234:334|260:333|286:318|286:318|315:302|348:308|371:318,1,180
257,152,31673,1,0,0:0:0:0:
244,241,31816,1,0,0:0:0:0:
128,191,31959,6,0,L|180:184,1,45
440,148,32244,5,0,0:0:0:0:
377,61,32530,2,0,L|370:113,1,45
502,235,32816,5,0,0:0:0:0:
440,148,32959,2,0,L|433:200,1,45
366,292,33244,6,0,P|284:313|243:240,1,180
307,154,33959,6,0,L|314:206,1,45
182,328,34245,5,0,0:0:0:0:
243,240,34388,2,0,L|257:344,1,90
109,327,34816,1,0,0:0:0:0:
307,154,35102,6,0,L|314:206,1,45
36,326,35387,1,0,0:0:0:0:
36,326,36244,5,0,0:0:0:0:
182,328,36530,1,0,0:0:0:0:
332,334,36816,1,0,0:0:0:0:
31,296,37197,2,0,L|38:348,1,30
109,327,37387,6,0,L|102:275,1,45
16,191,37673,2,0,L|37:347,1,135
182,328,38244,2,0,L|161:172,1,135
89,192,38816,2,0,L|96:244,1,45
255,329,39102,6,0,L|248:277,1,45
182,328,39387,1,0,0:0:0:0:
332,334,39530,2,0,L|316:217,1,90
230,150,39959,6,0,L|251:306,1,135
319,244,40530,1,0,0:0:0:0:
34,324,40816,5,0,0:0:0:0:
109,327,40959,1,0,0:0:0:0:
182,328,41102,2,0,L|171:406,1,45
34,324,41387,6,0,L|23:246,1,45
230,150,41673,1,0,0:0:0:0:
163,194,41959,1,0,0:0:0:0:
163,194,42102,1,0,0:0:0:0:
100,143,42387,1,0,0:0:0:0:
129,67,43102,5,0,0:0:0:0:
210,71,43387,1,0,0:0:0:0:
210,71,43530,2,0,P|254:75|296:60,1,90
359,15,43959,2,0,P|378:12|402:17,1,45
466,62,44244,5,0,0:0:0:0:
461,95,44387,1,0,0:0:0:0:
372,148,44530,5,0,0:0:0:0:
372,148,45959,5,0,0:0:0:0:
463,199,46244,1,0,0:0:0:0:
338,312,46530,1,0,0:0:0:0:
343,279,46673,1,0,0:0:0:0:
442,301,46959,1,0,0:0:0:0:
295,216,47673,5,0,0:0:0:0:
372,148,47959,1,0,0:0:0:0:
377,181,48102,1,0,0:0:0:0:
295,216,48244,5,0,0:0:0:0:
463,199,49673,5,0,0:0:0:0:
442,301,49959,1,0,0:0:0:0:
437,268,50102,1,0,0:0:0:0:
463,199,50244,2,0,L|476:123,1,45
489,67,50530,6,0,P|455:68|423:79,1,67.5000025749208
381,157,50959,2,0,P|347:155|315:144,1,67.5000025749208
256,88,51387,1,0,0:0:0:0:
23,67,51673,6,0,P|57:68|89:79,1,67.5000025749208
131,157,52102,2,0,P|165:155|197:144,1,67.5000025749208
256,88,52530,1,0,0:0:0:0:
381,157,52816,6,0,L|373:248,1,67.5000025749208
300,255,53244,2,0,L|308:346,1,67.5000025749208
380,353,53673,1,0,0:0:0:0:
131,157,53959,6,0,L|139:248,1,67.5000025749208
212,255,54387,2,0,L|204:346,1,67.5000025749208
132,353,54816,1,0,0:0:0:0:
445,365,55102,6,0,P|411:363|379:352,1,67.5000025749208
496,239,55530,2,0,P|506:270|508:304,1,67.5000025749208
429,287,55959,1,0,0:0:0:0:
67,365,56244,6,0,P|101:363|133:352,1,67.5000025749208
16,239,56673,2,0,P|5:270|3:304,1,67.5000025749208
83,287,57101,1,0,0:0:0:0:
18,134,57387,6,0,L|22:66,1,67.5000025749208
131,157,57816,2,0,L|135:224,1,67.5000025749208
178,81,58244,1,0,0:0:0:0:
494,134,58530,6,0,L|489:66,1,67.5000025749208
381,157,58959,2,0,L|376:224,1,67.5000025749208
334,81,59387,1,0,0:0:0:0:
256,192,59673,5,0,0:0:0:0:
27,14,60244,6,0,L|95:10,1,45
135,54,60530,2,0,L|203:50,1,45
287,91,60816,6,0,L|242:93,1,45
135,54,61102,1,0,0:0:0:0:
361,42,61244,2,0,L|366:131,1,90
247,183,61673,1,0,0:0:0:0:
242,93,61816,1,0,0:0:0:0:
424,199,61959,6,0,P|383:216|338:212,1,90
247,183,62387,1,0,0:0:0:0:
364,87,62530,6,0,L|366:131,1,45
341,257,62816,2,0,L|338:212,1,45
247,183,63102,2,0,P|181:177|127:217,1,135
95,289,63673,5,0,0:0:0:0:
247,183,63959,1,0,0:0:0:0:
76,142,64244,1,0,0:0:0:0:
127,215,64530,1,0,0:0:0:0:
163,133,64816,1,0,0:0:0:0:
293,249,65102,5,0,0:0:0:0:
247,183,65244,1,0,0:0:0:0:
214,257,65387,1,0,0:0:0:0:
76,142,65673,5,0,0:0:0:0:
127,215,65816,1,0,0:0:0:0:
163,133,65959,1,0,0:0:0:0:
20,354,66244,5,0,0:0:0:0:
99,309,66530,2,0,P|165:310|213:356,1,135
20,354,67102,5,0,0:0:0:0:
177,183,67387,1,0,0:0:0:0:
219,253,67530,1,0,0:0:0:0:
108,68,67816,1,0,0:0:0:0:
66,138,67959,1,0,0:0:0:0:
219,253,68244,5,0,0:0:0:0:
108,68,68530,1,0,0:0:0:0:
22,310,68816,6,0,L|200:300,1,135
219,253,69387,2,0,L|216:208,1,45
108,68,69673,2,0,L|105:112,1,45
22,310,69959,6,0,L|200:300,1,135
219,253,70530,6,0,L|216:208,1,45
28,222,70816,1,0,0:0:0:0:
22,310,70959,1,0,0:0:0:0:
156,302,71102,6,0,L|111:305,1,45
347,173,71387,1,0,0:0:0:0:
353,261,71530,1,0,0:0:0:0:
219,253,71673,6,0,L|264:256,1,45
111,305,71959,2,0,L|156:302,1,45
330,346,72244,6,0,P|395:340|436:289,1,135
353,261,72816,6,0,L|308:258,1,45
461,209,73102,2,0,L|416:212,1,45
302,175,73387,6,0,L|347:172,1,45
194,123,73673,2,0,L|239:126,1,45
461,209,73959,2,0,L|458:164,1,45
346,39,74244,5,0,0:0:0:0:
397,111,74387,1,0,0:0:0:0:
433,29,74530,1,0,0:0:0:0:
124,244,74816,5,0,0:0:0:0:
160,326,74959,1,0,0:0:0:0:
211,254,75102,1,0,0:0:0:0:
53,45,75387,5,0,0:0:0:0:
140,35,75673,2,0,L|131:170,1,135
124,244,76244,5,0,0:0:0:0:
53,45,76530,1,0,0:0:0:0:
140,35,76673,1,0,0:0:0:0:
211,254,76959,1,0,0:0:0:0:
124,244,77102,1,0,0:0:0:0:
346,172,77387,5,0,0:0:0:0:
436,288,77673,5,0,0:0:0:0:
434,302,77768,1,0,0:0:0:0:
432,317,77864,1,0,0:0:0:0:
353,328,77959,5,0,0:0:0:0:
432,317,78244,5,0,0:0:0:0:
353,327,78387,2,0,P|309:336|266:317,1,90
211,254,78816,2,0,P|144:251|89:288,1,135
66,364,79387,6,0,L|111:361,1,45
109,247,79673,2,0,L|89:287,1,45
189,343,79959,2,0,L|163:305,1,45
8,191,80244,6,0,L|34:229,1,45
189,343,80530,1,0,0:0:0:0:
88,287,80673,2,0,L|128:207,1,90
194,121,81102,6,0,B|158:133|132:132|106:117|106:117|77:101|44:107|21:117,1,180
267,81,81959,6,0,L|270:36,2,45
