osu file format v14

[General]
AudioFilename: audio.mp3
AudioLeadIn: 0
PreviewTime: 24230
Countdown: 0
SampleSet: Soft
StackLeniency: 0.7
Mode: 3
LetterboxInBreaks: 0
SpecialStyle: 0
WidescreenStoryboard: 1

[Editor]
DistanceSpacing: 1
BeatDivisor: 4
GridSize: 8
TimelineZoom: 1

[Metadata]
Title:Sayo-nara
TitleUnicode:Sayo-nara
Artist:Dan Salvato
ArtistUnicode:Dan Salvato
Creator:Weber
Version:Normal
Source:Doki Doki Literature Club
Tags:spoiler sayori yuri just monika natsuki sucks
BeatmapID:1444333
BeatmapSetID:682999

[Difficulty]
HPDrainRate:7
CircleSize:4
OverallDifficulty:7
ApproachRate:5
SliderMultiplier:1.4
SliderTickRate:1

[Events]
//Background and Video events
0,0,"ddlc.jpg",0,0
//Break Periods
//Storyboard Layer 0 (Background)
//Storyboard Layer 1 (Fail)
//Storyboard Layer 2 (Pass)
//Storyboard Layer 3 (Foreground)
//Storyboard Sound Samples

[TimingPoints]
13585,483.870967741935,4,2,1,30,1,0

[HitObjects]
64,192,13584,128,0,14068:0:0:0:0:
192,192,14068,128,0,14552:0:0:0:0:
448,192,14552,128,0,15036:0:0:0:0:
320,192,15036,128,0,15520:0:0:0:0:
64,192,15520,128,0,16004:0:0:0:0:
448,192,15520,128,0,17455:0:0:0:0:
192,192,16004,128,0,16488:0:0:0:0:
320,192,16488,128,0,16972:0:0:0:0:
64,192,16972,128,0,17455:0:0:0:0:
192,192,17455,128,0,19391:0:0:0:0:
320,192,17455,128,0,17939:0:0:0:0:
64,192,17939,128,0,18423:0:0:0:0:
448,192,18423,128,0,18907:0:0:0:0:
320,192,18907,128,0,19391:0:0:0:0:
64,192,19391,128,0,21326:0:0:0:0:
448,192,19391,128,0,19875:0:0:0:0:
192,192,19875,128,0,20359:0:0:0:0:
448,192,20359,128,0,20843:0:0:0:0:
320,192,20843,128,0,21326:0:0:0:0:
192,192,21326,128,0,23262:0:0:0:0:
448,192,21326,128,0,21810:0:0:0:0:
64,192,21810,128,0,22294:0:0:0:0:
448,192,22294,128,0,22778:0:0:0:0:
320,192,22778,128,0,23262:0:0:0:0:
64,192,23262,128,0,23746:0:0:0:0:
192,192,23746,1,0,0:0:0:0:
320,192,24230,5,2,0:0:0:0:
448,192,24230,1,0,0:0:0:0:
192,192,24714,1,2,0:0:0:0:
448,192,24714,1,0,0:0:0:0:
64,192,25197,1,2,0:0:0:0:
448,192,25197,1,0,0:0:0:0:
192,192,25681,1,0,0:0:0:0:
320,192,26165,1,0,0:0:0:0:
192,192,26649,1,2,0:0:0:0:
448,192,26649,1,0,0:0:0:0:
320,192,26891,1,2,0:0:0:0:
192,192,26891,1,0,0:0:0:0:
64,192,27133,1,2,0:0:0:0:
448,192,27133,1,0,0:0:0:0:
64,192,27617,1,2,0:0:0:0:
320,192,27617,1,0,0:0:0:0:
192,192,27859,1,2,0:0:0:0:
320,192,27859,1,0,0:0:0:0:
448,192,28101,1,0,0:0:0:0:
64,192,28101,1,0,0:0:0:0:
192,192,28584,1,2,0:0:0:0:
320,192,28584,1,0,0:0:0:0:
64,192,29068,1,2,0:0:0:0:
320,192,29068,1,0,0:0:0:0:
448,192,29552,1,0,0:0:0:0:
64,192,30036,1,2,0:0:0:0:
192,192,30036,1,0,0:0:0:0:
192,192,30520,1,2,0:0:0:0:
320,192,30520,1,0,0:0:0:0:
320,192,31004,1,2,0:0:0:0:
448,192,31004,1,0,0:0:0:0:
192,192,31488,1,2,0:0:0:0:
320,192,31488,1,0,0:0:0:0:
64,192,31972,1,2,0:0:0:0:
192,192,31972,1,0,0:0:0:0:
320,192,32455,1,0,0:0:0:0:
64,192,32939,128,0,33423:0:0:0:0:
448,192,32939,1,0,0:0:0:0:
192,192,33423,1,0,0:0:0:0:
448,192,33907,1,0,0:0:0:0:
320,192,34391,1,0,0:0:0:0:
64,192,34875,1,0,0:0:0:0:
192,192,34875,128,0,35359:0:0:0:0:
320,192,35359,1,0,0:0:0:0:
448,192,35843,1,0,0:0:0:0:
64,192,36326,1,0,0:0:0:0:
320,192,36810,128,0,37294:0:0:0:0:
448,192,36810,1,0,0:0:0:0:
192,192,37294,1,0,0:0:0:0:
448,192,37778,1,0,0:0:0:0:
64,192,38262,1,0,0:0:0:0:
192,192,38746,128,0,39230:0:0:0:0:
320,192,38746,1,0,0:0:0:0:
448,192,39230,1,0,0:0:0:0:
64,192,39714,1,2,0:0:0:0:
320,192,39714,1,0,0:0:0:0:
192,192,40197,1,2,0:0:0:0:
448,192,40197,1,0,0:0:0:0:
192,192,40681,1,2,0:0:0:0:
320,192,40681,1,0,0:0:0:0:
64,192,41165,1,0,0:0:0:0:
192,192,41649,1,0,0:0:0:0:
448,192,42133,1,0,0:0:0:0:
64,192,42133,1,2,0:0:0:0:
192,192,42375,1,2,0:0:0:0:
320,192,42375,1,0,0:0:0:0:
320,192,42617,1,2,0:0:0:0:
448,192,42617,1,0,0:0:0:0:
64,192,43101,1,2,0:0:0:0:
448,192,43101,1,0,0:0:0:0:
320,192,43343,1,2,0:0:0:0:
192,192,43343,1,0,0:0:0:0:
192,192,43584,1,2,0:0:0:0:
64,192,43584,1,0,0:0:0:0:
192,192,44068,1,2,0:0:0:0:
448,192,44068,1,0,0:0:0:0:
64,192,44552,1,2,0:0:0:0:
320,192,44552,1,0,0:0:0:0:
192,192,45036,1,0,0:0:0:0:
64,192,45520,1,2,0:0:0:0:
192,192,45520,1,0,0:0:0:0:
320,192,46004,1,2,0:0:0:0:
448,192,46004,1,0,0:0:0:0:
192,192,46488,1,2,0:0:0:0:
320,192,46488,1,0,0:0:0:0:
192,192,46972,1,2,0:0:0:0:
448,192,46972,1,0,0:0:0:0:
64,192,47455,1,2,0:0:0:0:
320,192,47455,1,0,0:0:0:0:
192,192,47939,1,0,0:0:0:0:
64,192,48423,128,0,48907:0:0:0:0:
192,192,48907,1,0,0:0:0:0:
448,192,49391,1,0,0:0:0:0:
320,192,49875,1,0,0:0:0:0:
192,192,50359,128,0,50843:0:0:0:0:
320,192,50843,1,0,0:0:0:0:
448,192,51326,1,0,0:0:0:0:
192,192,51810,1,0,0:0:0:0:
64,192,52294,128,0,52778:0:0:0:0:
320,192,52778,1,0,0:0:0:0:
448,192,53262,1,0,0:0:0:0:
192,192,53746,1,0,0:0:0:0:
320,192,54230,1,8,0:0:0:0:
448,192,54230,128,0,54714:0:0:0:0:
64,192,54714,1,8,0:0:0:0:
192,192,54714,128,0,55197:0:0:0:0:
320,192,55197,128,8,55681:0:0:0:0:
448,192,55197,1,0,0:0:0:0:
64,192,55681,128,8,56165:0:0:0:0:
192,192,55681,1,0,0:0:0:0:
192,192,56165,1,8,0:0:0:0:
448,192,56165,128,0,56649:0:0:0:0:
64,192,56649,128,8,57133:0:0:0:0:
320,192,56649,1,0,0:0:0:0:
192,192,57133,128,8,57617:0:0:0:0:
448,192,57133,1,0,0:0:0:0:
64,192,57617,128,8,57859:0:0:0:0:
448,192,57980,1,8,0:0:0:0:
192,192,58101,128,8,58584:0:0:0:0:
320,192,58101,1,0,0:0:0:0:
64,192,58584,128,8,59068:0:0:0:0:
448,192,58584,1,0,0:0:0:0:
192,192,59068,1,8,0:0:0:0:
320,192,59068,128,0,59391:0:0:0:0:
448,192,59391,128,8,60036:0:0:0:0:
64,192,59552,1,0,0:0:0:0:
192,192,60036,128,8,60520:0:0:0:0:
320,192,60036,1,0,0:0:0:0:
64,192,60520,1,0,0:0:0:0:
448,192,61004,1,0,0:0:0:0:
64,192,61488,1,0,0:0:0:0:
320,192,61972,1,8,0:0:0:0:
448,192,61972,128,0,62455:0:0:0:0:
64,192,62455,128,8,62939:0:0:0:0:
192,192,62455,1,0,0:0:0:0:
320,192,62939,128,8,63423:0:0:0:0:
448,192,62939,1,0,0:0:0:0:
64,192,63423,128,8,63907:0:0:0:0:
192,192,63423,1,0,0:0:0:0:
192,192,63907,1,8,0:0:0:0:
448,192,63907,128,0,64391:0:0:0:0:
64,192,64391,128,8,64875:0:0:0:0:
320,192,64391,1,0,0:0:0:0:
192,192,64875,128,8,65359:0:0:0:0:
448,192,64875,1,0,0:0:0:0:
64,192,65359,128,8,65601:0:0:0:0:
320,192,65722,1,8,0:0:0:0:
192,192,65843,128,8,66326:0:0:0:0:
448,192,65843,1,0,0:0:0:0:
64,192,66326,128,8,66810:0:0:0:0:
320,192,66326,1,0,0:0:0:0:
192,192,66810,1,8,0:0:0:0:
320,192,66810,128,0,67133:0:0:0:0:
448,192,67133,128,8,67778:0:0:0:0:
64,192,67294,1,0,0:0:0:0:
192,192,67778,128,8,68262:0:0:0:0:
320,192,67778,1,0,0:0:0:0:
64,192,68262,1,0,0:0:0:0:
448,192,68746,1,0,0:0:0:0:
192,192,69230,1,0,0:0:0:0:
320,192,69714,1,8,0:0:0:0:
448,192,69714,128,0,70197:0:0:0:0:
64,192,70197,1,8,0:0:0:0:
192,192,70197,128,0,70681:0:0:0:0:
320,192,70681,128,8,71165:0:0:0:0:
448,192,70681,1,0,0:0:0:0:
64,192,71165,128,8,71649:0:0:0:0:
192,192,71165,1,0,0:0:0:0:
192,192,71649,1,8,0:0:0:0:
320,192,71649,128,0,72133:0:0:0:0:
64,192,72133,128,8,72617:0:0:0:0:
448,192,72133,1,0,0:0:0:0:
448,192,72617,128,8,73101:0:0:0:0:
192,192,72617,1,0,0:0:0:0:
64,192,73101,128,8,73343:0:0:0:0:
448,192,73464,1,8,0:0:0:0:
192,192,73584,128,0,74068:0:0:0:0:
320,192,73584,1,8,0:0:0:0:
64,192,74068,128,8,74552:0:0:0:0:
448,192,74068,1,0,0:0:0:0:
192,192,74552,1,8,0:0:0:0:
320,192,74552,128,0,74875:0:0:0:0:
448,192,74875,128,8,75520:0:0:0:0:
64,192,75036,1,0,0:0:0:0:
192,192,75520,128,8,76004:0:0:0:0:
320,192,75520,1,0,0:0:0:0:
64,192,76004,1,0,0:0:0:0:
448,192,76488,1,0,0:0:0:0:
64,192,76972,1,0,0:0:0:0:
320,192,77455,1,8,0:0:0:0:
448,192,77455,128,0,77939:0:0:0:0:
64,192,77939,128,8,78423:0:0:0:0:
192,192,77939,1,0,0:0:0:0:
320,192,78423,128,8,78907:0:0:0:0:
448,192,78423,1,0,0:0:0:0:
64,192,78907,128,8,79391:0:0:0:0:
192,192,78907,1,0,0:0:0:0:
192,192,79391,1,8,0:0:0:0:
448,192,79391,128,0,79875:0:0:0:0:
64,192,79875,128,8,80359:0:0:0:0:
320,192,79875,1,0,0:0:0:0:
448,192,80359,128,8,80843:0:0:0:0:
192,192,80359,1,0,0:0:0:0:
64,192,80843,128,8,81084:0:0:0:0:
320,192,81205,1,8,0:0:0:0:
192,192,81326,128,8,81810:0:0:0:0:
448,192,81326,1,0,0:0:0:0:
64,192,81810,128,8,82294:0:0:0:0:
320,192,81810,1,0,0:0:0:0:
192,192,82294,1,8,0:0:0:0:
320,192,82294,128,0,82617:0:0:0:0:
448,192,82617,128,8,83262:0:0:0:0:
64,192,82778,1,0,0:0:0:0:
192,192,83262,1,8,0:0:0:0:
320,192,83262,128,0,83746:0:0:0:0:
64,192,83746,1,0,0:0:0:0:
448,192,84230,1,0,0:0:0:0:
192,192,84714,1,0,0:0:0:0:
320,192,85197,1,0,0:0:0:0:
