osu file format v14

[General]
AudioFilename: audio.mp3
AudioLeadIn: 0
PreviewTime: -1
Countdown: 1
SampleSet: None
StackLeniency: 0.7
Mode: 0
LetterboxInBreaks: 0
WidescreenStoryboard: 0

[Editor]
Bookmarks: 157344
DistanceSpacing: 1.5
BeatDivisor: 4
GridSize: 32
TimelineZoom: 1

[Metadata]
Title:Sayo-nara
TitleUnicode:Sayo-nara
Artist:Dan Salvato
ArtistUnicode:Dan Salvato
Creator:PhantomHunt3r
Version:you just left her hanging there
Source:
Tags:
BeatmapID:1505593
BeatmapSetID:712186

[Difficulty]
HPDrainRate:5
CircleSize:5
OverallDifficulty:5
ApproachRate:5
SliderMultiplier:1.4
SliderTickRate:1

[Events]
//Background and Video events
0,0,"amazing-plot-twists-02.jpg",0,0
//Break Periods
2,32222,38564
2,47705,53080
//Storyboard Layer 0 (Background)
//Storyboard Layer 1 (Fail)
//Storyboard Layer 2 (Pass)
//Storyboard Layer 3 (Foreground)
//Storyboard Sound Samples

[TimingPoints]
14118,483.870967741935,4,1,0,30,1,0
54280,241.935483870968,4,1,0,30,1,0
54280,-50,4,1,0,30,0,1
85247,-100,4,1,0,30,0,0

[HitObjects]
81,162,14118,6,0,P|179:159|211:191,1,140
243,289,15086,1,0,0:0:0:0:
303,134,15570,6,0,L|353:153,4,35
208,118,16296,1,0,0:0:0:0:
123,158,16538,1,0,0:0:0:0:
321,272,17022,5,0,0:0:0:0:
150,187,17505,2,0,L|100:203,4,35
217,164,18231,1,0,0:0:0:0:
280,155,18473,1,0,0:0:0:0:
384,264,18957,5,0,0:0:0:0:
188,197,19441,2,0,L|142:226,4,35
260,155,20167,1,0,0:0:0:0:
336,155,20409,1,0,0:0:0:0:
283,277,20893,1,0,0:0:0:0:
241,162,21376,5,0,0:0:0:0:
87,277,21860,1,0,0:0:0:0:
337,213,22344,1,0,0:0:0:0:
85,147,22828,1,0,0:0:0:0:
247,228,23312,5,0,0:0:0:0:
499,346,23796,1,0,0:0:0:0:
127,63,24280,1,0,0:0:0:0:
134,317,24764,1,0,0:0:0:0:
436,88,25247,1,0,0:0:0:0:
317,197,25731,2,0,P|218:200|181:231,1,140
112,172,26699,2,0,L|211:165,2,70
374,307,27667,2,0,L|332:284,2,35
325,275,28030,1,0,0:0:0:0:
305,260,28151,1,0,0:0:0:0:
186,101,28634,5,0,0:0:0:0:
87,131,28876,1,0,0:0:0:0:
277,81,29118,1,0,0:0:0:0:
1,153,29360,1,0,0:0:0:0:
370,64,29602,2,0,P|422:73|454:151,1,140
387,130,30328,1,0,0:0:0:0:
328,97,30570,2,0,P|319:184|384:205,1,140
409,296,31538,1,0,0:0:0:0:
343,331,31780,1,0,0:0:0:0:
281,366,32022,1,0,0:0:0:0:
63,192,39764,5,0,0:0:0:0:
168,60,40247,1,0,0:0:0:0:
216,208,40731,1,0,0:0:0:0:
114,300,42183,5,0,0:0:0:0:
411,219,42425,1,0,0:0:0:0:
52,139,42667,1,0,0:0:0:0:
480,100,43151,1,0,0:0:0:0:
41,198,43393,1,0,0:0:0:0:
488,278,43634,1,0,0:0:0:0:
238,337,44118,5,0,0:0:0:0:
409,366,44602,1,0,0:0:0:0:
39,107,45570,2,0,P|97:40|176:37,1,140
279,104,46538,1,0,0:0:0:0:
127,149,47022,1,0,0:0:0:0:
246,206,47505,1,0,0:0:0:0:
104,204,54280,6,0,B|231:105|231:105|237:303|237:303|392:159,1,560
189,132,55005,1,0,0:0:0:0:
235,304,55247,2,0,B|420:254|420:254|350:24|350:24|287:141,1,560
224,311,55973,1,0,0:0:0:0:
110,106,56215,2,0,P|431:129|405:351,1,560
117,308,56941,1,0,0:0:0:0:
148,141,57183,2,0,B|321:30|321:30|277:193|277:193|40:162,1,560
277,242,57909,1,0,0:0:0:0:
201,96,58150,2,0,P|118:184|306:117,1,560
229,183,58876,1,0,0:0:0:0:
100,154,59118,2,0,P|249:88|169:330,1,560
382,131,59844,1,0,0:0:0:0:
111,95,60086,2,0,B|176:360|373:226|373:226,1,560
55,187,62021,2,0,B|117:68|117:68|275:117,2,280
226,214,62747,1,0,0:0:0:0:
176,43,62989,2,0,B|378:0|378:0|373:130,2,280
302,126,63715,1,0,0:0:0:0:
147,255,63957,2,0,P|311:279|302:247,2,280
283,190,64683,1,0,0:0:0:0:
83,229,64925,2,0,B|69:-13|-37:-53,2,280
281,143,65650,1,0,0:0:0:0:
183,294,65892,2,0,P|82:165|165:81,2,280
246,175,66618,1,0,0:0:0:0:
334,266,66860,2,0,P|430:193|398:35,2,280
196,177,67586,1,0,0:0:0:0:
193,297,67828,2,0,L|428:104,2,280
80,111,68554,1,0,0:0:0:0:
116,347,68796,2,0,L|411:348,2,280
310,108,69521,1,0,0:0:0:0:
133,251,69763,2,0,P|163:107|218:166,2,280
338,296,70489,1,0,0:0:0:0:
170,233,70731,2,0,P|127:110|200:-22,2,280
263,137,71457,1,0,0:0:0:0:
109,288,71699,2,0,P|263:316|395:264,2,280
289,140,72425,1,0,0:0:0:0:
333,45,72667,2,0,P|411:143|402:245,2,210
333,45,73090,1,0,0:0:0:0:
333,45,73150,1,0,0:0:0:0:
174,243,73392,1,0,0:0:0:0:
383,289,73634,2,0,L|150:90,2,280
317,131,74360,1,0,0:0:0:0:
160,301,74602,2,0,B|104:130|104:130|162:64|162:64|210:84,2,280
329,201,75328,1,0,0:0:0:0:
287,77,75570,2,0,B|227:128|227:128|296:174|296:174|256:246|256:246|157:274,2,280
405,131,76296,1,0,0:0:0:0:
236,319,76538,2,0,B|80:220|80:220|163:190|163:190|81:86|81:86|144:23|225:34,1,560
262,179,77263,1,0,0:0:0:0:
257,315,77505,2,0,B|356:284|356:284|378:141|378:141|235:240|235:240|148:105,1,560
245,112,78231,1,0,0:0:0:0:
106,294,78473,2,0,B|216:321|216:321|245:228|245:228|355:266|355:266|409:196|409:196|242:68,1,560
117,179,79199,1,0,0:0:0:0:
188,314,79441,2,0,P|481:301|464:256,1,560
239,192,80167,1,0,0:0:0:0:
134,108,80409,2,0,B|457:21|457:21|417:151|417:151|293:106|293:106,1,560
192,188,81134,1,0,0:0:0:0:
186,314,81376,2,0,P|322:263|129:55,1,560
372,200,82102,1,0,0:0:0:0:
184,313,82344,2,0,B|174:140|174:140|299:269|299:269|276:49,1,560
299,176,83070,1,0,0:0:0:0:
85,336,83312,2,0,B|493:355|493:355|25:218|25:218|191:29|191:29|223:372|223:372|340:193|340:193|-11:73|-11:73|86:224,1,2240
