osu file format v14

[General]
AudioFilename: audio.mp3
AudioLeadIn: 0
PreviewTime: 58
Countdown: 0
SampleSet: Soft
StackLeniency: 0.7
Mode: 1
LetterboxInBreaks: 0
WidescreenStoryboard: 1

[Editor]
Bookmarks: 28058
DistanceSpacing: 1
BeatDivisor: 4
GridSize: 32
TimelineZoom: 1

[Metadata]
Title:Okay, Everyone!
TitleUnicode:Okay, Everyone!
Artist:Dan Salvato
ArtistUnicode:Dan Salvato
Creator:tatatat
Version:Normal
Source:Doki Doki Literature Club!
Tags:indie Team Salvato 20XX cute calm spooky natsuki visual novel vn
BeatmapID:1436043
BeatmapSetID:678951

[Difficulty]
HPDrainRate:8
CircleSize:2
OverallDifficulty:3
ApproachRate:10
SliderMultiplier:1.4
SliderTickRate:1

[Events]
//Background and Video events
0,0,"20171007154949_1.jpg",0,50
//Break Periods
//Storyboard Layer 0 (Background)
//Storyboard Layer 1 (Fail)
//Storyboard Layer 2 (Pass)
//Storyboard Layer 3 (Foreground)
//Storyboard Sound Samples

[TimingPoints]
222,545.454545454546,4,2,0,50,1,0

[HitObjects]
256,192,222,5,0,0:0:0:0:
256,192,585,1,8,0:0:0:0:
256,192,1131,1,0,0:0:0:0:
256,192,1676,1,8,0:0:0:0:
256,192,2403,1,0,0:0:0:0:
256,192,2767,1,0,0:0:0:0:
256,192,3312,1,0,0:0:0:0:
256,192,3858,1,0,0:0:0:0:
256,192,4585,1,0,0:0:0:0:
256,192,4949,1,0,0:0:0:0:
256,192,5494,1,0,0:0:0:0:
256,192,6040,1,0,0:0:0:0:
256,192,6767,1,0,0:0:0:0:
256,192,7131,1,0,0:0:0:0:
256,192,7676,1,0,0:0:0:0:
256,192,8222,1,0,0:0:0:0:
256,192,8585,1,8,0:0:0:0:
256,192,8949,5,0,0:0:0:0:
256,192,9858,1,0,0:0:0:0:
256,192,10403,1,8,0:0:0:0:
256,192,11131,1,0,0:0:0:0:
256,192,11494,1,8,0:0:0:0:
256,192,12222,1,8,0:0:0:0:
256,192,12767,1,8,0:0:0:0:
256,192,13312,1,4,0:0:0:0:
256,192,14222,1,0,0:0:0:0:
256,192,14767,1,0,0:0:0:0:
256,192,15494,1,0,0:0:0:0:
256,192,15858,1,0,0:0:0:0:
256,192,16403,1,0,0:0:0:0:
256,192,16949,1,0,0:0:0:0:
256,192,17312,1,8,0:0:0:0:
256,192,17676,5,0,0:0:0:0:
256,192,18222,1,8,0:0:0:0:
256,192,18585,1,8,0:0:0:0:
256,192,19676,1,8,0:0:0:0:
256,192,20222,1,0,0:0:0:0:
256,192,20767,1,0,0:0:0:0:
256,192,21312,1,0,0:0:0:0:
256,192,21858,1,8,0:0:0:0:
256,192,22403,1,0,0:0:0:0:
256,192,23131,1,8,0:0:0:0:
256,192,23676,1,0,0:0:0:0:
256,192,24040,1,8,0:0:0:0:
256,192,24585,1,0,0:0:0:0:
256,192,25312,1,8,0:0:0:0:
256,192,25858,1,0,0:0:0:0:
256,192,26403,1,0,0:0:0:0:
256,192,26949,1,8,0:0:0:0:
256,192,27312,1,8,0:0:0:0:
256,192,28403,1,8,0:0:0:0:
256,192,28949,1,0,0:0:0:0:
256,192,29494,1,8,0:0:0:0:
256,192,30040,1,0,0:0:0:0:
256,192,30585,1,0,0:0:0:0:
256,192,31131,1,0,0:0:0:0:
256,192,31858,1,8,0:0:0:0:
256,192,32403,1,8,0:0:0:0:
256,192,32949,1,8,0:0:0:0:
256,192,33494,1,8,0:0:0:0:
256,192,34403,1,0,0:0:0:0:
256,192,34767,1,8,0:0:0:0:
256,192,35131,5,0,0:0:0:0:
256,192,35494,1,8,0:0:0:0:
256,192,35949,1,0,0:0:0:0:
256,192,36585,1,8,0:0:0:0:
256,192,37312,1,0,0:0:0:0:
256,192,37676,1,8,0:0:0:0:
256,192,38403,1,8,0:0:0:0:
256,192,38949,1,8,0:0:0:0:
256,192,39494,1,4,0:0:0:0:
256,192,39858,1,0,0:0:0:0:
256,192,40403,1,0,0:0:0:0:
256,192,40949,1,0,0:0:0:0:
256,192,41676,1,0,0:0:0:0:
256,192,42040,1,0,0:0:0:0:
256,192,42585,1,0,0:0:0:0:
256,192,43131,1,0,0:0:0:0:
256,192,43494,1,8,0:0:0:0:
256,192,43858,5,0,0:0:0:0:
256,192,44222,1,8,0:0:0:0:
256,192,44676,1,0,0:0:0:0:
256,192,45312,1,8,0:0:0:0:
256,192,46040,1,0,0:0:0:0:
256,192,46403,1,8,0:0:0:0:
256,192,47131,1,8,0:0:0:0:
256,192,47676,1,8,0:0:0:0:
256,192,48222,1,4,0:0:0:0:
256,192,48585,1,0,0:0:0:0:
256,192,49131,1,0,0:0:0:0:
256,192,49676,1,0,0:0:0:0:
256,192,50403,1,0,0:0:0:0:
256,192,50767,1,0,0:0:0:0:
256,192,51312,1,0,0:0:0:0:
256,192,51858,1,0,0:0:0:0:
256,192,52222,1,8,0:0:0:0:
256,192,52585,5,0,0:0:0:0:
256,192,53131,1,8,0:0:0:0:
256,192,53494,1,8,0:0:0:0:
256,192,54040,1,8,0:0:0:0:
256,192,54585,1,0,0:0:0:0:
256,192,55131,1,0,0:0:0:0:
256,192,55676,1,0,0:0:0:0:
256,192,56222,1,8,0:0:0:0:
256,192,57312,1,8,0:0:0:0:
256,192,57858,1,0,0:0:0:0:
256,192,58403,1,0,0:0:0:0:
256,192,58949,1,0,0:0:0:0:
256,192,59494,1,0,0:0:0:0:
256,192,60040,1,0,0:0:0:0:
256,192,60585,1,0,0:0:0:0:
256,192,60949,1,8,0:0:0:0:
256,192,61312,5,0,0:0:0:0:
256,192,61858,1,8,0:0:0:0:
256,192,62222,1,8,0:0:0:0:
256,192,62767,1,8,0:0:0:0:
256,192,63312,1,0,0:0:0:0:
256,192,63858,1,0,0:0:0:0:
256,192,64403,1,0,0:0:0:0:
256,192,64949,1,8,0:0:0:0:
256,192,66040,1,8,0:0:0:0:
256,192,66585,1,0,0:0:0:0:
256,192,67131,1,0,0:0:0:0:
256,192,67676,1,0,0:0:0:0:
256,192,68222,1,0,0:0:0:0:
256,192,68767,1,0,0:0:0:0:
256,192,69312,1,0,0:0:0:0:
256,192,69676,1,8,0:0:0:0:
256,192,70040,5,0,0:0:0:0:
256,192,70585,1,8,0:0:0:0:
256,192,70949,1,8,0:0:0:0:
256,192,71494,1,0,0:0:0:0:
256,192,72040,1,8,0:0:0:0:
256,192,72585,1,0,0:0:0:0:
256,192,73131,1,0,0:0:0:0:
256,192,73676,1,0,0:0:0:0:
256,192,74222,1,0,0:0:0:0:
256,192,74767,1,0,0:0:0:0:
256,192,75494,1,8,0:0:0:0:
256,192,76040,1,0,0:0:0:0:
256,192,76449,1,0,0:0:0:0:
256,192,76949,1,0,0:0:0:0:
256,192,77676,1,8,0:0:0:0:
256,192,78222,1,0,0:0:0:0:
256,192,79312,1,8,0:0:0:0:
256,192,79676,1,8,0:0:0:0:
256,192,80222,1,0,0:0:0:0:
256,192,80767,1,8,0:0:0:0:
256,192,81312,1,0,0:0:0:0:
256,192,81858,1,8,0:0:0:0:
256,192,82403,1,0,0:0:0:0:
256,192,82949,1,0,0:0:0:0:
256,192,83494,1,0,0:0:0:0:
256,192,84222,1,8,0:0:0:0:
256,192,84767,1,8,0:0:0:0:
256,192,85131,1,0,0:0:0:0:
256,192,85676,1,0,0:0:0:0:
256,192,86767,1,0,0:0:0:0:
256,192,87131,1,8,0:0:0:0:
256,192,87494,5,0,0:0:0:0:
256,192,87858,1,8,0:0:0:0:
256,192,88312,1,0,0:0:0:0:
256,192,88949,1,8,0:0:0:0:
256,192,89676,1,0,0:0:0:0:
256,192,90040,1,0,0:0:0:0:
256,192,90585,1,0,0:0:0:0:
256,192,91131,1,0,0:0:0:0:
